osu file format v14

[General]
AudioFilename: audio.mp3
AudioLeadIn: 0
PreviewTime: 125
Countdown: 0
SampleSet: Normal
StackLeniency: 0
Mode: 0
LetterboxInBreaks: 0
SkinPreference:Default
WidescreenStoryboard: 1

[Editor]
Bookmarks: 12324,31186,50348,69510,88671
DistanceSpacing: 0.6
BeatDivisor: 4
GridSize: 16
TimelineZoom: 1.8

[Metadata]
Title:Ground Theme
TitleUnicode:地上BGM
Artist:Koji Kondo
ArtistUnicode:近藤浩治
Creator:Gust
Version:8-3
Source:スーパーマリオブラザーズ
Tags:Super Mario bros. Nintendo nes electronic instrumental video game ost original soundtrack 8-bit 8bit famicom chijou vgm
BeatmapID:3355391
BeatmapSetID:1643826

[Difficulty]
HPDrainRate:7
CircleSize:6
OverallDifficulty:7
ApproachRate:8
SliderMultiplier:1.8
SliderTickRate:1

[Events]
//Background and Video events
0,0,"8-3.png",0,0
//Break Periods
//Storyboard Layer 0 (Background)
//Storyboard Layer 1 (Fail)
//Storyboard Layer 2 (Pass)
//Storyboard Layer 3 (Foreground)
//Storyboard Layer 4 (Overlay)
//Storyboard Sound Samples

[TimingPoints]
125,598.999670550181,4,1,1,40,1,0
39958,-100,4,1,2,40,0,0
40856,-100,4,1,1,40,0,0
88776,-100,4,1,2,40,0,0

[Colours]
Combo1 : 204,114,32
Combo2 : 255,128,64
Combo3 : 250,207,80

[HitObjects]
64,64,125,5,4,0:0:0:0:
128,64,274,1,0,0:0:0:0:
128,64,574,1,0,0:0:0:0:
192,64,873,1,0,0:0:0:0:
192,64,1023,1,4,0:0:0:0:
128,0,1322,5,2,0:2:0:0:
128,128,1921,1,8,0:2:0:0:
128,64,2520,5,0,0:0:0:0:
128,192,2970,1,4,0:2:0:0:
128,320,3419,1,0,0:0:0:0:
128,192,3868,5,0,0:0:0:0:
192,192,4168,1,4,0:0:0:0:
256,192,4467,1,0,0:0:0:0:
256,192,4617,1,0,0:0:0:0:
320,192,4916,5,8,0:0:0:0:
384,128,5116,1,8,0:0:0:0:
320,64,5316,1,0,0:0:0:0:
384,0,5515,1,8,0:0:0:0:
448,0,5815,5,0,0:0:0:0:
448,0,5965,1,8,0:0:0:0:
384,0,6264,1,4,0:3:0:0:
320,0,6564,1,0,0:0:0:0:
320,0,6713,1,4,0:0:0:0:
320,0,6863,1,0,0:0:0:0:
448,0,7312,5,2,0:0:0:0:
448,128,7762,1,2,0:3:0:0:
448,256,8211,1,0,0:0:0:0:
448,128,8660,5,0,0:0:0:0:
384,128,8960,1,8,0:0:0:0:
320,128,9259,1,0,0:0:0:0:
320,128,9409,1,0,0:0:0:0:
192,192,9708,5,2,0:0:0:0:
128,128,9908,1,4,0:0:0:0:
192,64,10108,1,0,0:0:0:0:
128,0,10307,1,4,0:0:0:0:
64,0,10607,5,0,0:0:0:0:
64,0,10757,1,4,0:0:0:0:
64,64,11056,1,0,0:0:0:0:
64,128,11356,1,0,0:0:0:0:
64,128,11505,1,4,0:0:0:0:
64,128,11655,1,8,0:0:0:0:
64,256,12104,5,4,0:3:0:0:
64,192,12404,5,2,0:0:0:0:
128,192,12554,1,0,0:0:0:0:
64,192,12703,1,0,0:0:0:0:
128,192,12853,1,0,0:0:0:0:
192,256,13153,1,4,0:0:0:0:
256,192,13452,5,0,0:0:0:0:
256,256,13602,1,0,0:0:0:0:
256,320,13752,1,8,0:0:0:0:
192,256,14051,5,0,0:0:0:0:
256,256,14201,1,0,0:0:0:0:
320,256,14351,1,8,0:0:0:0:
448,192,14800,5,2,0:0:0:0:
384,192,14950,1,0,0:0:0:0:
448,192,15099,1,0,0:0:0:0:
384,192,15249,1,0,0:0:0:0:
320,256,15549,1,2,0:0:0:0:
256,128,15848,5,4,0:0:0:0:
384,64,16148,1,4,0:0:0:0:
384,64,16297,1,4,0:0:0:0:
256,0,16597,5,8,0:0:0:0:
256,64,16797,1,0,0:0:0:0:
256,64,16896,1,4,0:3:0:0:
256,0,17196,5,2,0:0:0:0:
256,64,17346,1,0,0:0:0:0:
256,0,17495,1,0,0:0:0:0:
256,64,17645,1,2,0:0:0:0:
192,128,17945,1,4,0:0:0:0:
256,192,18244,5,2,0:0:0:0:
320,192,18394,1,0,0:0:0:0:
384,192,18544,1,2,0:3:0:0:
256,192,18843,5,2,0:0:0:0:
192,192,18993,1,0,0:0:0:0:
128,192,19143,1,2,0:3:0:0:
256,64,19592,5,4,0:0:0:0:
256,192,20041,1,2,0:0:0:0:
256,320,20490,1,8,0:2:0:0:
192,192,20940,5,2,0:0:0:0:
192,192,21089,1,0,0:0:0:0:
256,192,21389,1,0,0:0:0:0:
320,192,21589,1,0,0:0:0:0:
320,192,21688,1,4,0:2:0:0:
448,192,21988,5,0,0:3:0:0:
384,192,22138,1,0,0:0:0:0:
448,192,22287,1,0,0:0:0:0:
384,192,22437,1,0,0:0:0:0:
320,256,22737,1,2,0:0:0:0:
256,192,23036,5,0,0:0:0:0:
256,256,23186,1,0,0:0:0:0:
256,320,23336,1,8,0:3:0:0:
320,256,23635,5,0,0:0:0:0:
256,256,23785,1,0,0:0:0:0:
192,256,23935,1,8,0:3:0:0:
64,192,24384,5,4,0:0:0:0:
128,192,24534,1,0,0:0:0:0:
64,192,24683,1,0,0:0:0:0:
128,192,24833,1,8,0:0:0:0:
192,256,25133,1,8,0:3:0:0:
256,128,25432,5,4,0:0:0:0:
128,64,25732,1,4,0:0:0:0:
128,64,25881,1,4,0:0:0:0:
256,0,26181,5,4,0:3:0:0:
256,64,26381,1,0,0:0:0:0:
256,64,26480,1,2,0:0:0:0:
256,0,26780,5,4,0:0:0:0:
256,64,26930,1,0,0:0:0:0:
256,0,27079,1,0,0:0:0:0:
256,64,27229,1,8,0:3:0:0:
320,128,27529,1,0,0:0:0:0:
256,192,27828,5,2,0:0:0:0:
192,192,27978,1,0,0:0:0:0:
128,192,28128,1,4,0:0:0:0:
256,192,28427,5,2,0:0:0:0:
320,192,28577,1,0,0:0:0:0:
384,192,28727,1,4,0:0:0:0:
256,64,29176,5,2,0:3:0:0:
256,192,29625,1,2,0:3:0:0:
256,320,30074,1,2,0:3:0:0:
256,256,30524,5,0,0:0:0:0:
256,256,30673,1,8,0:3:0:0:
256,192,30973,1,8,0:0:0:0:
192,320,31272,5,2,0:0:0:0:
192,256,31422,1,0,0:0:0:0:
256,192,31722,1,4,0:0:0:0:
64,256,32021,5,0,0:0:0:0:
64,192,32171,1,8,0:3:0:0:
192,64,32470,1,0,0:0:0:0:
192,128,32620,1,4,0:3:0:0:
320,256,32920,1,0,0:0:0:0:
320,320,33069,1,4,0:3:0:0:
320,320,33668,5,2,0:0:0:0:
320,256,33818,1,0,0:0:0:0:
256,192,34118,1,0,0:0:0:0:
448,128,34417,1,4,0:0:0:0:
448,64,34567,1,0,0:0:0:0:
448,0,34717,1,8,0:0:0:0:
512,64,34866,5,2,0:3:0:0:
512,64,35316,1,2,0:3:0:0:
320,320,36064,5,2,0:0:0:0:
320,256,36214,1,0,0:0:0:0:
256,192,36514,1,2,0:0:0:0:
448,256,36813,5,0,0:0:0:0:
448,192,36963,1,4,0:0:0:0:
320,64,37262,1,0,0:0:0:0:
320,128,37412,1,8,0:0:0:0:
192,256,37712,1,0,0:0:0:0:
192,320,37861,1,6,0:3:0:0:
0,64,38460,5,2,0:0:0:0:
0,64,38610,1,0,0:0:0:0:
64,64,38910,1,2,0:0:0:0:
128,64,39209,1,0,0:0:0:0:
128,64,39359,1,8,0:0:0:0:
64,0,39658,5,4,0:0:0:0:
64,128,40257,1,2,0:0:0:0:
64,0,40856,5,2,0:2:0:0:
64,128,41306,1,4,0:0:0:0:
64,256,41755,1,8,0:0:0:0:
64,384,42204,5,0,0:0:0:0:
64,320,42504,1,2,0:2:0:0:
64,256,42803,1,0,0:0:0:0:
64,256,42953,1,2,0:2:0:0:
128,320,43252,5,0,0:0:0:0:
192,256,43452,1,4,0:0:0:0:
128,192,43652,1,0,0:0:0:0:
192,128,43851,1,4,0:0:0:0:
64,64,44151,5,8,0:0:0:0:
64,0,44301,1,8,0:0:0:0:
128,128,44600,1,0,0:0:0:0:
0,64,44900,1,0,0:0:0:0:
0,0,45049,1,8,0:0:0:0:
0,64,45199,1,0,0:2:0:0:
64,128,45648,5,2,0:2:0:0:
192,192,46098,1,8,0:2:0:0:
320,256,46547,1,2,0:2:0:0:
448,320,46996,5,0,0:0:0:0:
448,256,47296,1,4,0:2:0:0:
448,192,47595,1,0,0:0:0:0:
448,192,47745,1,0,0:0:0:0:
384,320,48044,5,0,0:0:0:0:
320,256,48244,1,2,0:0:0:0:
384,192,48444,1,0,0:0:0:0:
320,128,48643,1,4,0:0:0:0:
448,64,48943,5,0,0:0:0:0:
448,0,49093,1,8,0:0:0:0:
384,128,49392,1,8,0:0:0:0:
512,64,49692,1,0,0:0:0:0:
512,0,49841,1,0,0:0:0:0:
512,64,49991,1,4,0:0:0:0:
512,192,50440,5,2,0:0:0:0:
448,192,50590,1,0,0:0:0:0:
320,256,50890,1,2,0:3:0:0:
384,256,51039,1,0,0:0:0:0:
384,256,51339,1,4,0:0:0:0:
512,320,51638,5,0,0:0:0:0:
448,320,51788,1,8,0:0:0:0:
320,384,52088,1,0,0:0:0:0:
384,384,52237,1,4,0:0:0:0:
384,384,52537,1,2,0:0:0:0:
512,384,52836,5,0,0:0:0:0:
512,256,53036,1,4,0:0:0:0:
512,128,53236,1,0,0:0:0:0:
512,0,53435,1,4,0:0:0:0:
384,0,53635,1,4,0:0:0:0:
256,0,53835,1,0,0:0:0:0:
256,64,54034,5,8,0:0:0:0:
256,64,54184,1,0,0:0:0:0:
256,128,54484,5,8,0:0:0:0:
256,128,54633,1,8,0:0:0:0:
256,192,54783,1,0,0:0:0:0:
256,192,54933,1,8,0:0:0:0:
256,384,55232,5,2,0:0:0:0:
256,320,55382,1,0,0:0:0:0:
192,192,55682,1,0,0:0:0:0:
192,256,55831,1,2,0:3:0:0:
192,256,56131,1,2,0:0:0:0:
128,384,56430,5,0,0:0:0:0:
128,320,56580,1,4,0:0:0:0:
64,192,56880,1,0,0:0:0:0:
64,256,57029,1,8,0:0:0:0:
64,256,57329,1,0,0:0:0:0:
0,384,57628,5,2,0:0:0:0:
0,320,57778,1,0,0:0:0:0:
0,384,58078,1,2,0:0:0:0:
0,320,58227,5,4,0:0:0:0:
0,192,58427,1,4,0:0:0:0:
128,192,58627,1,4,0:0:0:0:
256,192,58826,5,8,0:0:0:0:
256,256,58976,1,0,0:0:0:0:
128,256,59276,1,0,0:3:0:0:
128,320,59425,1,4,0:3:0:0:
0,320,59725,1,0,0:0:0:0:
0,192,60024,5,2,0:0:0:0:
64,192,60174,1,0,0:0:0:0:
192,256,60474,1,0,0:0:0:0:
128,256,60623,1,4,0:0:0:0:
128,256,60923,1,8,0:0:0:0:
0,320,61222,5,8,0:0:0:0:
64,320,61372,1,4,0:3:0:0:
192,384,61672,1,4,0:3:0:0:
128,384,61821,1,4,0:3:0:0:
128,384,62121,1,4,0:3:0:0:
0,384,62420,5,2,0:0:0:0:
0,256,62620,1,4,0:0:0:0:
0,128,62820,1,4,0:0:0:0:
0,0,63019,1,4,0:0:0:0:
128,0,63219,1,4,0:0:0:0:
256,0,63419,1,4,0:0:0:0:
256,64,63618,5,8,0:0:0:0:
256,64,63768,1,0,0:0:0:0:
256,128,64068,5,0,0:0:0:0:
256,128,64217,1,2,0:3:0:0:
256,192,64367,1,0,0:0:0:0:
256,192,64517,1,4,0:3:0:0:
256,384,64816,5,2,0:0:0:0:
256,320,64966,1,8,0:0:0:0:
320,192,65266,1,0,0:0:0:0:
320,256,65415,1,8,0:0:0:0:
320,256,65715,1,0,0:0:0:0:
384,384,66014,5,0,0:0:0:0:
384,320,66164,1,2,0:0:0:0:
448,192,66464,1,0,0:0:0:0:
448,256,66613,1,8,0:2:0:0:
448,256,66913,1,0,0:0:0:0:
512,384,67212,5,0,0:0:0:0:
512,320,67362,1,4,0:2:0:0:
512,384,67662,1,0,0:0:0:0:
512,320,67811,5,8,0:3:0:0:
512,192,68011,1,12,0:3:0:0:
384,192,68211,1,12,0:3:0:0:
256,192,68410,5,4,0:0:0:0:
256,256,68560,1,2,0:0:0:0:
384,256,68860,1,0,0:0:0:0:
384,320,69009,1,2,0:0:0:0:
512,320,69309,1,0,0:0:0:0:
384,384,69608,5,2,0:0:0:0:
448,384,69758,1,0,0:0:0:0:
512,320,70058,1,8,0:3:0:0:
320,256,70357,1,8,0:3:0:0:
384,256,70507,1,12,0:3:0:0:
512,128,70806,1,4,0:0:0:0:
448,128,70956,1,2,0:0:0:0:
256,0,71256,1,12,0:3:0:0:
320,0,71405,1,0,0:0:0:0:
256,0,72004,5,4,0:0:0:0:
320,0,72154,1,8,0:0:0:0:
384,64,72454,1,8,0:3:0:0:
256,192,72753,1,4,0:0:0:0:
320,192,72903,1,8,0:3:0:0:
384,192,73053,1,2,0:0:0:0:
320,256,73202,5,2,0:3:0:0:
320,256,73652,1,2,0:3:0:0:
128,384,74400,5,2,0:0:0:0:
64,384,74550,1,12,0:3:0:0:
0,320,74850,1,4,0:0:0:0:
192,256,75149,1,0,0:0:0:0:
128,256,75299,1,2,0:3:0:0:
0,128,75598,1,4,0:0:0:0:
64,128,75748,1,2,0:3:0:0:
256,0,76048,1,0,0:0:0:0:
192,0,76197,1,8,0:0:0:0:
64,256,76796,5,2,0:0:0:0:
64,256,76946,1,2,0:3:0:0:
64,192,77246,1,4,0:0:0:0:
64,128,77545,1,0,0:0:0:0:
64,128,77695,1,4,0:0:0:0:
192,192,77994,5,12,0:3:0:0:
320,192,78593,1,12,0:3:0:0:
448,192,79192,5,2,0:0:0:0:
384,192,79342,1,0,0:0:0:0:
256,128,79642,1,0,0:0:0:0:
320,128,79791,1,2,0:0:0:0:
320,128,80091,1,4,0:0:0:0:
448,64,80390,5,8,0:0:0:0:
384,64,80540,1,8,0:3:0:0:
256,0,80840,1,2,0:0:0:0:
320,0,80989,1,2,0:3:0:0:
320,0,81289,1,8,0:0:0:0:
256,0,81588,5,2,0:0:0:0:
256,128,81788,1,4,0:0:0:0:
256,256,81988,1,4,0:0:0:0:
256,384,82187,1,4,0:0:0:0:
384,384,82387,1,4,0:0:0:0:
512,384,82587,1,4,0:0:0:0:
512,320,82786,5,8,0:3:0:0:
512,320,82936,1,4,0:0:0:0:
512,256,83236,5,0,0:0:0:0:
512,256,83385,1,2,0:3:0:0:
512,192,83535,1,0,0:0:0:0:
512,192,83685,1,0,0:0:0:0:
448,0,83984,5,2,0:0:0:0:
448,64,84134,1,6,0:3:0:0:
384,192,84434,1,0,0:0:0:0:
384,128,84583,1,8,0:0:0:0:
384,128,84883,1,4,0:0:0:0:
320,0,85182,5,0,0:0:0:0:
320,64,85332,1,2,0:0:0:0:
256,192,85632,1,0,0:0:0:0:
256,128,85781,1,8,0:0:0:0:
256,128,86081,1,8,0:3:0:0:
256,0,86380,5,2,0:0:0:0:
256,64,86530,1,4,0:0:0:0:
256,0,86830,1,2,0:0:0:0:
256,64,86979,5,12,0:3:0:0:
256,192,87179,1,12,0:3:0:0:
384,192,87379,1,12,0:3:0:0:
512,192,87578,5,4,0:0:0:0:
448,192,87728,1,2,0:0:0:0:
512,192,88028,1,4,0:0:0:0:
448,192,88177,1,2,0:0:0:0:
256,192,88477,1,0,0:0:0:0:
256,192,88776,5,4,0:0:0:0:
