osu file format v14

[General]
AudioFilename: audio.mp3
AudioLeadIn: 0
PreviewTime: 125
Countdown: 0
SampleSet: Normal
StackLeniency: 0
Mode: 0
LetterboxInBreaks: 0
SkinPreference:Default
WidescreenStoryboard: 1

[Editor]
Bookmarks: 12324,31186,50348,69510,88671
DistanceSpacing: 1
BeatDivisor: 3
GridSize: 16
TimelineZoom: 1.5

[Metadata]
Title:Ground Theme
TitleUnicode:地上BGM
Artist:Koji Kondo
ArtistUnicode:近藤浩治
Creator:Gust
Version:3-2
Source:スーパーマリオブラザーズ
Tags:Super Mario bros. Nintendo nes electronic instrumental video game ost original soundtrack 8-bit 8bit famicom chijou vgm
BeatmapID:3387364
BeatmapSetID:1643826

[Difficulty]
HPDrainRate:5
CircleSize:4
OverallDifficulty:5
ApproachRate:7
SliderMultiplier:1.6
SliderTickRate:1

[Events]
//Background and Video events
0,0,"3-2.png",0,0
//Break Periods
//Storyboard Layer 0 (Background)
//Storyboard Layer 1 (Fail)
//Storyboard Layer 2 (Pass)
//Storyboard Layer 3 (Foreground)
//Storyboard Layer 4 (Overlay)
//Storyboard Sound Samples

[TimingPoints]
125,598.999670550181,4,1,1,40,1,0
39958,-100,4,1,2,40,0,0
40856,-100,4,1,1,40,0,0
88776,-100,4,1,2,40,0,0

[Colours]
Combo1 : 204,114,32
Combo2 : 255,128,64
Combo3 : 250,207,80

[HitObjects]
64,64,125,5,4,0:0:0:0:
192,64,574,1,0,0:0:0:0:
320,64,1023,1,4,0:0:0:0:
384,0,1322,1,2,0:2:0:0:
512,64,1921,1,8,0:2:0:0:
384,0,2520,5,0,0:0:0:0:
320,128,2970,1,4,0:2:0:0:
448,192,3419,1,0,0:0:0:0:
512,64,3868,5,0,0:0:0:0:
448,0,4168,1,4,0:0:0:0:
384,64,4467,1,0,0:0:0:0:
384,128,4617,1,0,0:0:0:0:
448,192,4916,5,8,0:0:0:0:
320,128,5515,1,8,0:0:0:0:
256,192,5815,1,0,0:0:0:0:
192,192,5965,1,8,0:0:0:0:
128,128,6264,1,4,0:3:0:0:
64,192,6564,1,0,0:0:0:0:
128,256,6863,1,0,0:0:0:0:
256,256,7312,5,2,0:0:0:0:
256,384,7762,1,2,0:3:0:0:
128,384,8211,1,0,0:0:0:0:
256,384,8660,5,0,0:0:0:0:
320,320,8960,1,8,0:0:0:0:
384,384,9259,1,0,0:0:0:0:
448,384,9409,1,0,0:0:0:0:
512,320,9708,5,2,0:0:0:0:
448,192,10307,1,4,0:0:0:0:
384,256,10607,1,0,0:0:0:0:
320,256,10757,1,4,0:0:0:0:
256,192,11056,1,0,0:0:0:0:
192,256,11356,1,0,0:0:0:0:
256,320,11655,1,8,0:0:0:0:
0,320,12404,5,2,0:0:0:0:
64,320,12554,1,0,0:0:0:0:
128,320,12703,1,0,0:0:0:0:
128,192,13153,5,4,0:0:0:0:
64,128,13452,1,0,0:0:0:0:
0,192,13752,1,8,0:0:0:0:
64,256,14051,1,0,0:0:0:0:
128,192,14351,1,8,0:0:0:0:
128,64,14800,5,2,0:0:0:0:
192,64,14950,1,0,0:0:0:0:
256,64,15099,1,0,0:0:0:0:
256,192,15549,5,2,0:0:0:0:
320,128,15848,1,4,0:0:0:0:
384,64,16148,1,4,0:0:0:0:
448,64,16297,1,4,0:0:0:0:
512,256,17196,5,2,0:0:0:0:
448,256,17346,1,0,0:0:0:0:
384,256,17495,1,0,0:0:0:0:
384,128,17945,5,4,0:0:0:0:
320,192,18244,1,2,0:0:0:0:
384,256,18544,1,2,0:3:0:0:
448,192,18843,1,2,0:0:0:0:
384,128,19143,1,2,0:3:0:0:
384,0,19592,5,4,0:0:0:0:
256,0,20041,1,2,0:0:0:0:
128,0,20490,1,8,0:2:0:0:
0,64,21089,5,0,0:0:0:0:
64,128,21389,1,0,0:0:0:0:
128,192,21688,1,4,0:2:0:0:
192,256,21988,5,0,0:3:0:0:
192,320,22138,1,0,0:0:0:0:
192,384,22287,1,0,0:0:0:0:
320,384,22737,5,2,0:0:0:0:
384,320,23036,1,0,0:0:0:0:
448,384,23336,1,8,0:3:0:0:
512,320,23635,1,0,0:0:0:0:
448,256,23935,1,8,0:3:0:0:
512,64,24384,5,4,0:0:0:0:
512,128,24534,1,0,0:0:0:0:
512,192,24683,1,0,0:0:0:0:
384,192,25133,5,8,0:3:0:0:
320,128,25432,1,4,0:0:0:0:
256,64,25732,1,4,0:0:0:0:
192,64,25881,1,4,0:0:0:0:
0,0,26780,5,4,0:0:0:0:
0,64,26930,1,0,0:0:0:0:
0,128,27079,1,0,0:0:0:0:
128,128,27529,5,0,0:0:0:0:
192,192,27828,1,2,0:0:0:0:
256,128,28128,1,4,0:0:0:0:
320,192,28427,1,2,0:0:0:0:
384,128,28727,1,4,0:0:0:0:
384,0,29176,5,2,0:3:0:0:
512,0,29625,1,2,0:3:0:0:
512,128,30074,1,2,0:3:0:0:
448,256,30673,1,8,0:3:0:0:
384,320,30973,1,8,0:0:0:0:
448,384,31272,5,2,0:0:0:0:
320,384,31722,1,4,0:0:0:0:
256,320,32021,1,0,0:0:0:0:
256,256,32171,1,8,0:3:0:0:
192,192,32470,5,0,0:0:0:0:
64,192,32920,1,0,0:0:0:0:
64,256,33069,1,4,0:3:0:0:
0,384,33668,5,2,0:0:0:0:
0,256,34118,1,0,0:0:0:0:
64,192,34417,1,4,0:0:0:0:
64,128,34567,1,0,0:0:0:0:
0,128,34717,1,8,0:0:0:0:
64,256,35316,5,2,0:3:0:0:
192,128,36064,5,2,0:0:0:0:
320,128,36514,1,2,0:0:0:0:
384,64,36813,1,0,0:0:0:0:
448,64,36963,1,4,0:0:0:0:
512,0,37262,5,0,0:0:0:0:
512,128,37712,1,0,0:0:0:0:
448,128,37861,1,0,0:0:0:0:
384,0,38460,5,2,0:0:0:0:
320,0,38610,1,0,0:0:0:0:
256,64,38910,1,2,0:0:0:0:
192,0,39209,1,0,0:0:0:0:
128,0,39359,1,8,0:0:0:0:
64,64,39658,1,4,0:0:0:0:
128,192,40257,1,2,0:0:0:0:
256,128,40856,5,2,0:2:0:0:
256,256,41306,1,4,0:0:0:0:
128,256,41755,1,8,0:0:0:0:
128,128,42204,1,0,0:0:0:0:
192,64,42504,1,2,0:2:0:0:
128,0,42803,1,0,0:0:0:0:
64,0,42953,1,2,0:2:0:0:
0,64,43252,5,0,0:0:0:0:
64,192,43851,1,4,0:0:0:0:
0,256,44151,1,8,0:0:0:0:
0,320,44301,1,8,0:0:0:0:
64,384,44600,1,0,0:0:0:0:
128,320,44900,1,0,0:0:0:0:
192,384,45199,1,0,0:2:0:0:
192,256,45648,5,2,0:2:0:0:
192,384,46098,1,8,0:2:0:0:
320,384,46547,1,2,0:2:0:0:
320,256,46996,1,0,0:0:0:0:
384,192,47296,1,4,0:2:0:0:
448,256,47595,1,0,0:0:0:0:
448,320,47745,1,0,0:0:0:0:
512,384,48044,5,0,0:0:0:0:
384,320,48643,1,4,0:0:0:0:
320,384,48943,1,0,0:0:0:0:
256,384,49093,1,8,0:0:0:0:
192,320,49392,1,0,0:0:0:0:
256,256,49692,1,0,0:0:0:0:
320,320,49991,1,4,0:0:0:0:
448,320,50440,5,2,0:0:0:0:
448,192,50890,1,2,0:3:0:0:
448,64,51339,1,4,0:0:0:0:
512,128,51638,5,0,0:0:0:0:
512,0,52088,1,0,0:0:0:0:
448,0,52237,1,4,0:0:0:0:
320,64,52836,5,0,0:0:0:0:
192,64,53236,1,0,0:0:0:0:
128,128,53435,1,4,0:0:0:0:
192,192,53635,1,4,0:0:0:0:
320,192,54034,5,8,0:0:0:0:
192,192,54484,1,8,0:0:0:0:
128,192,54633,1,8,0:0:0:0:
64,64,55232,5,2,0:0:0:0:
64,192,55682,1,0,0:0:0:0:
64,320,56131,1,2,0:0:0:0:
128,384,56430,5,0,0:0:0:0:
128,256,56880,1,0,0:0:0:0:
64,256,57029,1,8,0:0:0:0:
192,192,57628,5,2,0:0:0:0:
320,128,58227,1,4,0:0:0:0:
384,192,58427,1,4,0:0:0:0:
448,256,58627,1,4,0:0:0:0:
512,320,58826,5,8,0:0:0:0:
384,384,59276,1,0,0:3:0:0:
320,384,59425,1,4,0:3:0:0:
448,320,60024,5,2,0:0:0:0:
448,192,60474,1,0,0:0:0:0:
448,64,60923,1,8,0:0:0:0:
512,128,61222,5,8,0:0:0:0:
384,128,61672,1,4,0:3:0:0:
320,128,61821,1,4,0:3:0:0:
320,0,62420,5,2,0:0:0:0:
192,0,62820,1,4,0:0:0:0:
128,64,63019,1,4,0:0:0:0:
192,128,63219,1,4,0:0:0:0:
320,128,63618,5,8,0:0:0:0:
192,128,64068,1,0,0:0:0:0:
128,128,64217,1,2,0:3:0:0:
64,0,64816,5,2,0:0:0:0:
64,128,65266,1,8,0:0:0:0:
64,256,65715,1,4,0:0:0:0:
128,320,66014,5,2,0:0:0:0:
128,192,66464,1,0,0:0:0:0:
64,192,66613,1,8,0:2:0:0:
192,256,67212,5,4,0:2:0:0:
256,128,67811,1,8,0:3:0:0:
320,192,68011,1,12,0:3:0:0:
384,256,68211,1,12,0:3:0:0:
448,320,68410,5,4,0:0:0:0:
320,320,68860,1,0,0:0:0:0:
320,384,69009,1,2,0:0:0:0:
192,320,69608,5,2,0:0:0:0:
64,320,70058,1,8,0:3:0:0:
0,256,70357,1,8,0:3:0:0:
0,192,70507,1,12,0:3:0:0:
64,128,70806,5,4,0:0:0:0:
192,128,71256,1,12,0:3:0:0:
192,192,71405,1,0,0:0:0:0:
64,128,72004,5,4,0:0:0:0:
192,128,72454,1,8,0:3:0:0:
256,192,72753,1,4,0:0:0:0:
320,192,72903,1,8,0:3:0:0:
320,128,73053,1,2,0:0:0:0:
256,256,73652,5,2,0:3:0:0:
384,384,74400,5,2,0:0:0:0:
256,384,74850,1,4,0:0:0:0:
192,320,75149,1,0,0:0:0:0:
192,256,75299,1,2,0:3:0:0:
256,192,75598,5,0,0:0:0:0:
384,192,76048,1,0,0:0:0:0:
384,256,76197,1,0,0:0:0:0:
256,320,76796,5,2,0:0:0:0:
256,256,76946,1,2,0:3:0:0:
192,192,77246,1,4,0:0:0:0:
256,128,77545,1,0,0:0:0:0:
256,64,77695,1,4,0:0:0:0:
384,0,77994,1,12,0:3:0:0:
448,128,78593,1,12,0:3:0:0:
320,192,79192,5,2,0:0:0:0:
192,192,79642,1,0,0:0:0:0:
64,192,80091,1,4,0:0:0:0:
0,256,80390,5,8,0:0:0:0:
128,256,80840,1,2,0:0:0:0:
128,320,80989,1,2,0:3:0:0:
0,384,81588,5,2,0:0:0:0:
128,384,81988,1,4,0:0:0:0:
192,320,82187,1,4,0:0:0:0:
128,256,82387,1,4,0:0:0:0:
0,256,82786,5,8,0:3:0:0:
128,256,83236,1,0,0:0:0:0:
192,256,83385,1,2,0:3:0:0:
128,128,83984,5,2,0:0:0:0:
256,128,84434,1,0,0:0:0:0:
384,128,84883,1,4,0:0:0:0:
448,192,85182,5,0,0:0:0:0:
320,192,85632,1,0,0:0:0:0:
320,128,85781,1,8,0:0:0:0:
448,192,86380,5,2,0:0:0:0:
384,64,86979,1,12,0:3:0:0:
320,128,87179,1,12,0:3:0:0:
256,192,87379,1,12,0:3:0:0:
320,256,87578,5,4,0:0:0:0:
320,384,88028,1,4,0:0:0:0:
320,320,88177,1,2,0:0:0:0:
256,192,88776,5,4,0:0:0:0:
