osu file format v14

[General]
AudioFilename: audio.mp3
AudioLeadIn: 0
PreviewTime: 125
Countdown: 0
SampleSet: Normal
StackLeniency: 0
Mode: 0
LetterboxInBreaks: 0
SkinPreference:Default
WidescreenStoryboard: 1

[Editor]
Bookmarks: 12324,31186,50348,69510,88671
DistanceSpacing: 1
BeatDivisor: 4
GridSize: 16
TimelineZoom: 1.5

[Metadata]
Title:Ground Theme
TitleUnicode:地上BGM
Artist:Koji Kondo
ArtistUnicode:近藤浩治
Creator:Gust
Version:1-1
Source:スーパーマリオブラザーズ
Tags:Super Mario bros. Nintendo nes electronic instrumental video game ost original soundtrack 8-bit 8bit famicom chijou vgm
BeatmapID:3365606
BeatmapSetID:1643826

[Difficulty]
HPDrainRate:4
CircleSize:4
OverallDifficulty:4
ApproachRate:6
SliderMultiplier:1.4
SliderTickRate:1

[Events]
//Background and Video events
0,0,"1-1.png",0,0
//Break Periods
//Storyboard Layer 0 (Background)
//Storyboard Layer 1 (Fail)
//Storyboard Layer 2 (Pass)
//Storyboard Layer 3 (Foreground)
//Storyboard Layer 4 (Overlay)
//Storyboard Sound Samples

[TimingPoints]
125,598.999670550181,4,1,1,40,1,0
39958,-100,4,1,2,40,0,0
40856,-100,4,1,1,40,0,0
88776,-100,4,1,2,40,0,0

[Colours]
Combo1 : 204,114,32
Combo2 : 255,128,64
Combo3 : 250,207,80

[HitObjects]
0,64,125,5,4,0:0:0:0:
64,0,574,1,0,0:0:0:0:
128,64,1023,1,4,0:0:0:0:
192,64,1322,5,2,0:2:0:0:
320,128,1921,1,8,0:2:0:0:
384,0,2520,5,0,0:0:0:0:
448,64,2970,1,4,0:2:0:0:
384,128,3419,1,0,0:0:0:0:
320,64,3868,1,0,0:0:0:0:
256,64,4168,1,0,0:0:0:0:
192,128,4617,1,0,0:0:0:0:
128,128,4916,5,8,0:0:0:0:
128,256,5515,1,8,0:0:0:0:
192,320,5965,1,8,0:0:0:0:
256,320,6264,1,0,0:0:0:0:
320,384,6713,1,0,0:0:0:0:
448,384,7312,5,2,0:0:0:0:
512,320,7762,1,2,0:3:0:0:
448,256,8211,1,0,0:0:0:0:
384,320,8660,1,0,0:0:0:0:
320,320,8960,1,0,0:0:0:0:
256,256,9409,1,0,0:0:0:0:
192,256,9708,5,2,0:0:0:0:
192,128,10307,1,4,0:0:0:0:
256,64,10757,1,4,0:0:0:0:
320,64,11056,1,0,0:0:0:0:
384,128,11505,1,0,0:0:0:0:
320,256,12404,5,2,0:0:0:0:
256,256,12703,1,0,0:0:0:0:
192,320,13153,1,4,0:0:0:0:
128,320,13452,1,0,0:0:0:0:
64,320,13752,1,0,0:0:0:0:
0,256,14201,1,8,0:0:0:0:
0,128,14800,5,2,0:0:0:0:
64,128,15099,1,0,0:0:0:0:
128,192,15549,1,2,0:0:0:0:
192,192,15848,1,4,0:0:0:0:
256,128,16297,1,4,0:0:0:0:
256,0,16896,5,4,0:3:0:0:
192,0,17196,5,2,0:0:0:0:
128,0,17495,1,0,0:0:0:0:
64,64,17945,1,4,0:0:0:0:
0,64,18244,1,2,0:0:0:0:
0,128,18544,1,2,0:0:0:0:
64,192,18993,1,2,0:3:0:0:
192,192,19592,5,4,0:0:0:0:
128,256,20041,1,2,0:0:0:0:
192,320,20490,1,8,0:2:0:0:
192,192,21089,5,2,0:0:0:0:
192,64,21688,5,4,0:2:0:0:
256,64,21988,5,0,0:3:0:0:
320,64,22287,1,0,0:0:0:0:
384,128,22737,1,2,0:0:0:0:
448,128,23036,1,0,0:0:0:0:
448,64,23336,1,0,0:0:0:0:
512,0,23785,1,8,0:3:0:0:
512,128,24384,5,4,0:0:0:0:
448,128,24683,1,0,0:0:0:0:
384,192,25133,1,8,0:3:0:0:
384,256,25432,1,4,0:0:0:0:
320,320,25881,1,4,0:0:0:0:
192,320,26480,5,2,0:0:0:0:
192,384,26780,5,4,0:0:0:0:
256,384,27079,1,0,0:0:0:0:
320,320,27529,1,0,0:0:0:0:
384,320,27828,1,2,0:0:0:0:
448,320,28128,1,2,0:0:0:0:
512,384,28577,1,0,0:0:0:0:
512,256,29176,5,2,0:3:0:0:
448,192,29625,1,2,0:3:0:0:
384,256,30074,1,2,0:3:0:0:
512,256,30673,5,0,0:0:0:0:
384,256,31272,5,2,0:0:0:0:
448,320,31722,1,4,0:0:0:0:
384,384,32171,1,8,0:3:0:0:
320,384,32470,1,0,0:0:0:0:
256,320,32920,1,0,0:0:0:0:
192,192,33668,5,2,0:0:0:0:
128,256,34118,1,0,0:0:0:0:
128,320,34417,1,4,0:0:0:0:
192,320,34717,1,8,0:0:0:0:
192,192,35316,5,2,0:3:0:0:
64,320,36064,5,2,0:0:0:0:
0,256,36514,1,2,0:0:0:0:
64,192,36963,1,4,0:0:0:0:
128,192,37262,1,0,0:0:0:0:
192,256,37712,1,0,0:0:0:0:
128,128,38460,5,2,0:0:0:0:
64,192,38910,1,2,0:0:0:0:
128,256,39359,1,0,0:0:0:0:
192,256,39658,1,4,0:0:0:0:
320,256,40257,5,2,0:0:0:0:
320,128,40856,5,2,0:2:0:0:
384,64,41306,1,4,0:0:0:0:
448,128,41755,1,8,0:0:0:0:
384,192,42204,5,0,0:0:0:0:
384,256,42504,1,2,0:2:0:0:
320,320,42953,1,0,0:0:0:0:
256,320,43252,5,0,0:0:0:0:
256,192,43851,1,4,0:0:0:0:
192,128,44301,1,8,0:0:0:0:
192,64,44600,1,0,0:0:0:0:
256,64,44900,1,0,0:0:0:0:
256,128,45199,1,0,0:2:0:0:
192,192,45648,5,2,0:2:0:0:
256,256,46098,1,8,0:2:0:0:
320,192,46547,1,2,0:2:0:0:
384,256,46996,5,0,0:0:0:0:
448,256,47296,1,4,0:2:0:0:
512,192,47745,1,0,0:0:0:0:
512,128,48044,5,0,0:0:0:0:
384,128,48643,1,4,0:0:0:0:
320,192,49093,1,8,0:0:0:0:
256,192,49392,1,8,0:0:0:0:
256,256,49692,1,0,0:0:0:0:
320,256,49991,1,0,0:0:0:0:
384,320,50440,5,2,0:0:0:0:
320,384,50890,1,2,0:3:0:0:
256,320,51339,1,4,0:0:0:0:
192,320,51638,1,0,0:0:0:0:
128,384,52088,1,0,0:0:0:0:
64,320,52537,1,2,0:0:0:0:
0,320,52836,5,0,0:0:0:0:
0,192,53435,1,0,0:0:0:0:
0,64,54034,1,8,0:0:0:0:
0,192,54633,1,8,0:0:0:0:
64,192,54933,1,8,0:0:0:0:
64,128,55232,5,2,0:0:0:0:
128,64,55682,1,0,0:0:0:0:
192,128,56131,1,2,0:0:0:0:
192,192,56430,1,0,0:0:0:0:
256,256,56880,1,0,0:0:0:0:
320,192,57329,1,0,0:0:0:0:
320,128,57628,5,2,0:0:0:0:
448,128,58227,1,4,0:0:0:0:
448,256,58826,1,8,0:0:0:0:
320,256,59425,1,0,0:3:0:0:
448,256,60024,5,2,0:0:0:0:
384,320,60474,1,0,0:0:0:0:
320,256,60923,1,8,0:0:0:0:
256,256,61222,1,8,0:0:0:0:
192,192,61672,1,4,0:3:0:0:
128,256,62121,1,4,0:3:0:0:
128,320,62420,5,2,0:0:0:0:
256,320,63019,1,4,0:0:0:0:
128,320,63618,1,8,0:0:0:0:
0,320,64217,1,4,0:3:0:0:
0,384,64517,1,0,0:0:0:0:
64,384,64816,5,2,0:0:0:0:
128,320,65266,1,8,0:2:0:0:
192,384,65715,1,2,0:0:0:0:
256,384,66014,1,0,0:0:0:0:
320,320,66464,1,4,0:2:0:0:
384,384,66913,1,0,0:0:0:0:
448,384,67212,5,12,0:3:0:0:
448,256,67811,1,12,0:3:0:0:
448,128,68410,1,4,0:0:0:0:
448,256,69009,1,0,0:0:0:0:
320,256,69608,5,2,0:0:0:0:
256,192,70058,1,8,0:3:0:0:
192,256,70507,1,12,0:3:0:0:
128,256,70806,1,4,0:0:0:0:
64,320,71256,1,12,0:3:0:0:
128,192,72004,5,4,0:0:0:0:
64,128,72454,1,8,0:3:0:0:
0,128,72753,1,4,0:0:0:0:
0,64,73053,1,2,0:0:0:0:
128,64,73652,5,2,0:3:0:0:
0,0,74400,5,2,0:0:0:0:
64,64,74850,1,4,0:0:0:0:
128,0,75299,1,2,0:3:0:0:
192,0,75598,1,4,0:0:0:0:
256,64,76048,1,0,0:0:0:0:
384,0,76796,5,2,0:0:0:0:
320,64,77246,1,4,0:0:0:0:
384,128,77695,1,4,0:0:0:0:
448,128,77994,1,12,0:3:0:0:
448,0,78593,5,12,0:3:0:0:
448,128,79192,5,2,0:0:0:0:
384,192,79642,1,0,0:0:0:0:
320,128,80091,1,4,0:0:0:0:
256,128,80390,1,8,0:0:0:0:
192,64,80840,1,2,0:0:0:0:
128,128,81289,1,8,0:0:0:0:
64,128,81588,5,2,0:0:0:0:
64,256,82187,1,4,0:0:0:0:
192,256,82786,1,8,0:3:0:0:
192,128,83385,1,0,0:0:0:0:
256,128,83685,1,0,0:0:0:0:
256,64,83984,5,2,0:0:0:0:
320,0,84434,1,0,0:0:0:0:
384,64,84883,1,4,0:0:0:0:
384,128,85182,1,0,0:0:0:0:
448,192,85632,1,0,0:0:0:0:
512,128,86081,1,8,0:3:0:0:
512,64,86380,5,2,0:0:0:0:
384,64,86979,1,12,0:3:0:0:
256,64,87578,1,4,0:0:0:0:
256,192,88177,1,4,0:0:0:0:
256,256,88477,1,0,0:0:0:0:
256,320,88776,5,4,0:0:0:0:
