osu file format v14

[General]
AudioFilename: audio.mp3
AudioLeadIn: 0
PreviewTime: 28850
Countdown: 0
SampleSet: Soft
StackLeniency: 0.7
Mode: 0
LetterboxInBreaks: 0
WidescreenStoryboard: 0

[Editor]
Bookmarks: 52696
DistanceSpacing: 1
BeatDivisor: 4
GridSize: 8
TimelineZoom: 1

[Metadata]
Title:Great Fairy's Fountain
TitleUnicode:Great Fairy's Fountain
Artist:Koji Kondo
ArtistUnicode:Koji Kondo
Creator:iiOkward
Version:MH's Normal
Source:The Legend of Zelda: Ocarina of Time
Tags:tloz oot masterherobrine
BeatmapID:1095041
BeatmapSetID:515301

[Difficulty]
HPDrainRate:4
CircleSize:3
OverallDifficulty:3
ApproachRate:5
SliderMultiplier:1.60000000596046
SliderTickRate:2

[Events]
//Background and Video events
0,0,"GFF3.jpg",0,0
//Break Periods
//Storyboard Layer 0 (Background)
//Storyboard Layer 1 (Fail)
//Storyboard Layer 2 (Pass)
//Storyboard Layer 3 (Foreground)
//Storyboard Sound Samples

[TimingPoints]
4235,769.230769230769,4,2,0,75,1,0

[Colours]
Combo1 : 255,128,128
Combo2 : 255,255,128
Combo3 : 128,255,128
Combo4 : 128,255,255

[HitObjects]
112,184,4235,6,0,P|176:176|272:208,1,160.000000596046,2|0,0:0|0:0,0:0:0:0:
320,264,5388,1,0,0:0:0:0:
392,224,5773,2,0,P|392:168|328:88,1,160.000000596046
256,64,6927,1,0,0:0:0:0:
176,80,7311,5,2,0:0:0:0:
128,144,7696,1,0,0:0:0:0:
72,200,8081,2,0,B|136:256|208:208|208:208|262:230|320:208,1,240.000000894069
360,176,9619,1,2,0:0:0:0:
368,256,10004,1,0,0:0:0:0:
432,216,10388,6,0,P|448:160|312:80,1,240.000000894069,2|0,0:0|0:0,0:0:0:0:
256,128,11927,2,0,P|208:152|168:152,1,80.000000298023
120,104,12696,2,0,P|104:168|112:200,1,80.000000298023,2|0,0:0|0:0,0:0:0:0:
48,232,13465,6,0,P|112:256|144:240,1,80.000000298023
136,328,14234,2,0,P|192:280|192:248,1,80.000000298023
144,216,15004,2,0,P|184:208|296:248,1,160.000000596046,0|2,0:0|0:0,0:0:0:0:
448,224,16542,6,0,P|400:224|360:232,1,80.000000298023
320,296,17311,1,8,0:0:0:0:
240,312,17696,1,0,0:0:0:0:
160,336,18081,2,0,P|120:344|80:333,1,80.000000298023
40,264,18850,2,0,P|88:256|152:280,1,80.000000298023,8|0,0:0|0:0,0:0:0:0:
192,288,19619,6,0,P|200:232|192:192,1,80.000000298023
216,176,20196,1,0,0:0:0:0:
240,144,20388,2,0,P|320:136|360:160,1,120.000000447034
376,184,21158,2,0,P|384:232|352:304,1,120.000000447034
328,272,21927,2,0,P|288:256|216:256,1,80.000000298023,8|0,0:0|0:0,0:0:0:0:
160,232,22696,5,0,0:0:0:0:
112,168,23081,1,0,0:0:0:0:
136,96,23465,1,8,0:0:0:0:
216,80,23850,1,0,0:0:0:0:
264,144,24234,2,0,P|302:154|342:154,1,80.000000298023
424,144,25004,1,8,0:0:0:0:
488,192,25388,1,0,0:0:0:0:
440,256,25773,6,0,P|360:240|264:248,1,160.000000596046,0|8,0:0|0:0,0:0:0:0:
208,280,26927,1,0,0:0:0:0:
136,248,27311,2,0,P|128:176|168:88,1,160.000000596046,0|8,0:0|0:0,0:0:0:0:
216,40,28465,1,0,0:0:0:0:
256,112,28850,6,0,P|320:104|400:120,1,120.000000447034,6|0,0:0|0:0,0:0:0:0:
408,96,29619,2,0,P|400:32|344:-8,1,80.000000298023
320,48,30388,2,0,P|277:48|256:56,2,40.0000001490115
344,120,31158,2,0,P|352:168|376:224,1,80.000000298023,8|0,0:0|0:0,0:0:0:0:
392,272,31927,5,4,0:0:0:0:
424,200,32311,2,0,P|500:153|472:248,1,240.000000894069
424,296,33850,1,0,0:0:0:0:
344,280,34234,1,0,0:0:0:0:
304,208,34619,1,0,0:0:0:0:
320,128,35004,1,0,0:0:0:0:
376,72,35388,6,0,P|465:40|425:128,1,240.000000894069
376,192,36927,1,0,0:0:0:0:
360,272,37311,2,0,P|400:320|416:240,1,160.000000596046,8|4,0:0|0:0,0:0:0:0:
384,192,38465,1,0,0:0:0:0:
320,152,38850,6,0,P|264:152|232:160,1,80.000000298023,8|0,0:0|0:0,0:0:0:0:
160,168,39619,2,0,P|184:224|224:232,1,80.000000298023
264,272,40388,2,0,P|280:224|272:192,1,80.000000298023,8|0,0:0|0:0,0:0:0:0:
224,136,41158,6,8,P|264:128|336:144,1,80.000000298023
368,176,41927,1,0,0:0:0:0:
224,256,42696,5,0,0:0:0:0:
176,192,43081,2,0,P|128:184|80:184,1,80.000000298023,8|8,0:0|0:0,0:0:0:0:
16,200,43850,1,0,0:0:0:0:
56,272,44234,5,8,0:0:0:0:
136,296,44619,1,0,0:0:0:0:
208,264,45004,1,8,0:0:0:0:
176,192,45388,1,0,0:0:0:0:
232,136,45773,2,0,P|320:128|408:136,1,160.000000596046,0|8,0:0|0:0,0:0:0:0:
480,264,47311,6,0,P|400:248|432:216,1,160.000000596046,4|8,0:0|0:0,0:0:0:0:
488,176,48465,1,0,0:0:0:0:
424,120,48850,2,0,P|346:106|264:120,1,160.000000596046,0|8,0:0|0:0,0:0:0:0:
200,160,50004,1,0,0:0:0:0:
144,216,50388,6,0,P|80:248|-16:248,1,160.000000596046,4|8,0:0|0:0,0:0:0:0:
96,128,51927,2,0,P|120:96|224:128,1,160.000000596046,2|8,0:0|0:0,0:0:0:0:
224,200,53081,1,0,0:0:0:0:
232,280,53465,6,0,P|304:304|384:272,1,160.000000596046,4|8,0:0|0:0,0:0:0:0:
304,136,55004,1,0,0:0:0:0:
248,80,55388,1,0,0:0:0:0:
200,144,55773,2,0,P|104:128|32:136,1,160.000000596046,8|4,0:0|0:0,0:0:0:0:
40,296,57311,5,8,0:0:0:0:
104,336,57696,2,0,P|143:340|192:328,1,80.000000298023
240,280,58465,2,0,P|296:272|344:296,1,80.000000298023,0|8,0:0|0:0,0:0:0:0:
384,320,59234,1,0,0:0:0:0:
456,288,59619,1,4,0:0:0:0:
256,192,60004,12,4,65773,0:0:0:0:
