osu file format v14

[General]
AudioFilename: audio.mp3
AudioLeadIn: 0
PreviewTime: 28850
Countdown: 0
SampleSet: Soft
StackLeniency: 0.7
Mode: 0
LetterboxInBreaks: 0
WidescreenStoryboard: 1

[Editor]
DistanceSpacing: 2
BeatDivisor: 4
GridSize: 16
TimelineZoom: 1

[Metadata]
Title:Great Fairy's Fountain
TitleUnicode:Great Fairy's Fountain
Artist:Koji Kondo
ArtistUnicode:Koji Kondo
Creator:iiOkward
Version:Great Springs
Source:The Legend of Zelda: Ocarina of Time
Tags:tloz oot masterherobrine
BeatmapID:1183796
BeatmapSetID:515301

[Difficulty]
HPDrainRate:7
CircleSize:4.5
OverallDifficulty:8
ApproachRate:9
SliderMultiplier:2.50000000596046
SliderTickRate:2

[Events]
//Background and Video events
0,0,"GFF3.jpg",0,0
//Break Periods
//Storyboard Layer 0 (Background)
//Storyboard Layer 1 (Fail)
//Storyboard Layer 2 (Pass)
//Storyboard Layer 3 (Foreground)
//Storyboard Sound Samples

[TimingPoints]
4235,769.230769230769,4,2,0,75,1,0
4235,-66.6666666666667,4,2,0,75,0,0
4811,-50,4,2,0,75,0,0
5004,-100,4,2,0,75,0,0
6734,-100,4,2,0,75,0,0
16542,-66.6666666666667,4,2,0,75,0,0
16734,-100,4,2,0,75,0,0
25773,-50,4,2,0,75,0,0
26542,-66.6666666666667,4,2,0,75,0,0
27311,-100,4,2,0,75,0,0
28081,-133.333333333333,4,2,0,75,0,0
33658,-100,4,2,0,75,0,0
33850,-100,4,2,0,75,0,0
50196,-100,4,2,0,75,0,0
50581,-50,4,2,0,75,0,0
52696,-100,4,2,0,75,0,0
58081,-50,4,2,0,75,0,0
58273,-100,4,2,0,75,0,0
58465,-50,4,2,0,75,0,0
58658,-100,4,2,0,75,0,0
62696,-100,4,2,0,50,0,0
63465,-50,4,2,0,50,0,0
63658,-100,4,2,0,50,0,0
64811,-50,4,2,0,50,0,0
65773,-50,4,2,0,5,0,0

[Colours]
Combo1 : 255,128,128
Combo2 : 255,255,128
Combo3 : 128,255,128
Combo4 : 128,255,255

[HitObjects]
96,144,4235,5,0,0:0:0:0:
176,80,4427,1,0,0:0:0:0:
240,144,4619,1,0,0:0:0:0:
176,288,4811,1,0,0:0:0:0:
96,240,5004,1,0,0:0:0:0:
192,256,5196,1,0,0:0:0:0:
160,160,5388,1,0,0:0:0:0:
224,240,5581,1,0,0:0:0:0:
272,160,5773,1,0,0:0:0:0:
352,208,5965,1,0,0:0:0:0:
336,112,6158,1,0,0:0:0:0:
304,192,6350,1,0,0:0:0:0:
384,192,6542,1,0,0:0:0:0:
336,272,6734,1,0,0:0:0:0:
432,272,6927,1,0,0:0:0:0:
352,224,7119,1,0,0:0:0:0:
160,288,7311,6,4,P|96:320|64:304,1,62.5000001490115
32,256,7696,2,4,P|32:192|48:176,1,62.5000001490115
112,160,8081,1,0,0:0:0:0:
192,128,8273,1,0,0:0:0:0:
112,80,8465,1,0,0:0:0:0:
176,192,8658,1,0,0:0:0:0:
272,192,8850,2,4,P|240:128|224:112,1,62.5000001490115
224,224,9235,2,4,P|240:304|256:320,1,62.5000001490115
320,304,9619,1,0,0:0:0:0:
368,224,9811,1,0,0:0:0:0:
416,304,10004,1,0,0:0:0:0:
288,224,10196,1,0,0:0:0:0:
480,80,10388,6,2,P|432:32|400:32,1,62.5000001490115
416,128,10773,2,2,P|352:80|320:80,1,62.5000001490115
288,112,11158,1,0,0:0:0:0:
224,48,11350,1,0,0:0:0:0:
224,144,11542,1,0,0:0:0:0:
288,80,11735,1,0,0:0:0:0:
304,176,11927,2,2,P|272:256|256:256,1,62.5000001490115
304,336,12311,2,2,L|304:256,1,62.5000001490115
208,288,12696,1,0,0:0:0:0:
272,224,12888,1,0,0:0:0:0:
336,288,13081,1,0,0:0:0:0:
352,192,13273,1,0,0:0:0:0:
128,272,13465,6,4,P|64:224|64:208,1,62.5000001490115
48,160,13850,2,4,P|64:96|80:80,1,62.5000001490115
128,176,14234,1,0,0:0:0:0:
192,112,14427,1,0,0:0:0:0:
176,208,14619,1,0,0:0:0:0:
144,128,14811,1,0,0:0:0:0:
224,176,15004,1,4,0:0:0:0:
224,80,15196,1,4,0:0:0:0:
160,160,15388,1,4,0:0:0:0:
256,144,15581,1,4,0:0:0:0:
176,96,15773,1,0,0:0:0:0:
272,80,15965,1,0,0:0:0:0:
176,272,16158,6,0,P|208:336|240:336,1,62.5000001490115
224,192,16542,2,2,P|304:144|320:144,1,93.7500037997961
400,160,16927,2,2,P|384:240|368:256,1,62.5000001490115
336,288,17311,2,0,L|288:352,2,62.5000001490115
432,128,17888,1,2,0:0:0:0:
464,208,18081,1,2,0:0:0:0:
384,176,18273,1,2,0:0:0:0:
400,80,18465,1,2,0:0:0:0:
320,128,18658,1,2,0:0:0:0:
256,64,18850,2,0,P|176:64|160:80,1,62.5000001490115
128,128,19234,2,0,P|128:192|144:208,1,62.5000001490115
352,304,19619,5,4,0:0:0:0:
432,240,19811,1,4,0:0:0:0:
336,240,20004,1,4,0:0:0:0:
400,176,20196,1,4,0:0:0:0:
400,272,20388,1,0,0:0:0:0:
336,192,20581,1,0,0:0:0:0:
432,208,20773,1,0,0:0:0:0:
384,128,20965,1,4,0:0:0:0:
320,64,21158,2,4,P|320:112|272:144,1,62.5000001490115
240,176,21542,2,4,P|215:208|224:272,1,62.5000001490115
240,32,21927,5,0,0:0:0:0:
144,32,22119,1,0,0:0:0:0:
208,96,22311,1,0,0:0:0:0:
128,144,22504,1,0,0:0:0:0:
192,336,22696,2,2,P|256:336|288:304,1,62.5000001490115
336,288,23081,2,2,P|352:272|352:224,1,62.5000001490115
368,144,23465,1,0,0:0:0:0:
288,192,23658,1,0,0:0:0:0:
384,192,23850,1,0,0:0:0:0:
352,96,24042,1,0,0:0:0:0:
96,144,24234,6,2,P|80:224|96:240,1,62.5000001490115
80,272,24619,2,2,P|128:320|160:304,1,62.5000001490115
208,304,25004,1,0,0:0:0:0:
144,240,25196,1,0,0:0:0:0:
240,240,25388,1,0,0:0:0:0:
176,176,25581,1,0,0:0:0:0:
352,96,25773,5,4,0:0:0:0:
448,256,25965,1,4,0:0:0:0:
288,160,26158,1,4,0:0:0:0:
288,352,26350,1,4,0:0:0:0:
176,256,26542,1,4,0:0:0:0:
320,224,26734,1,4,0:0:0:0:
208,144,26927,1,4,0:0:0:0:
320,64,27119,1,4,0:0:0:0:
288,144,27311,5,2,0:0:0:0:
384,160,27504,1,2,0:0:0:0:
336,240,27696,1,2,0:0:0:0:
256,192,27888,1,2,0:0:0:0:
256,256,28081,1,2,0:0:0:0:
192,240,28273,1,2,0:0:0:0:
176,176,28465,1,2,0:0:0:0:
208,112,28658,1,2,0:0:0:0:
432,96,28850,6,0,P|464:144|448:160,1,46.875001899898
480,192,29234,2,0,P|464:240|448:256,1,46.875001899898
416,304,29619,1,0,0:0:0:0:
384,224,29811,1,0,0:0:0:0:
336,304,30004,1,0,0:0:0:0:
304,224,30196,1,0,0:0:0:0:
368,176,30388,1,0,0:0:0:0:
288,160,30581,1,0,0:0:0:0:
336,96,30773,1,0,0:0:0:0:
336,176,30965,1,0,0:0:0:0:
272,112,31158,1,0,0:0:0:0:
192,96,31350,2,0,P|145:103|112:128,1,46.875001899898
96,160,31734,1,0,0:0:0:0:
336,336,31927,6,0,P|384:320|400:304,1,46.875001899898
448,272,32311,2,0,P|464:224|448:208,1,46.875001899898
464,144,32696,1,0,0:0:0:0:
384,192,32888,1,0,0:0:0:0:
400,112,33081,1,0,0:0:0:0:
432,192,33273,1,0,0:0:0:0:
352,144,33465,1,0,0:0:0:0:
352,272,33658,1,0,0:0:0:0:
288,160,33850,1,0,0:0:0:0:
272,288,34042,1,0,0:0:0:0:
176,208,34234,2,0,L|144:272,1,62.5000001490115
144,144,34619,2,0,L|144:208,1,62.5000001490115
224,304,35004,6,0,P|304:272|304:256,1,62.5000001490115
400,256,35388,1,0,0:0:0:0:
288,224,35581,1,0,0:0:0:0:
384,160,35773,1,0,0:0:0:0:
336,256,35965,1,0,0:0:0:0:
320,144,36158,1,0,0:0:0:0:
224,80,36350,2,0,L|112:96,1,62.5000001490115
112,192,36734,2,0,L|176:240,1,62.5000001490115
240,304,37119,1,0,0:0:0:0:
352,288,37311,1,0,0:0:0:0:
256,224,37504,1,0,0:0:0:0:
304,320,37696,1,0,0:0:0:0:
368,224,37888,1,0,0:0:0:0:
464,80,38081,6,0,P|432:48|384:48,1,62.5000001490115
304,48,38465,2,0,P|224:64|208:80,1,62.5000001490115
192,160,38850,1,0,0:0:0:0:
304,192,39042,1,0,0:0:0:0:
256,96,39234,1,0,0:0:0:0:
240,208,39427,1,4,0:0:0:0:
144,160,39619,1,4,0:0:0:0:
176,272,39811,1,4,0:0:0:0:
208,160,40004,1,4,0:0:0:0:
288,240,40196,1,4,0:0:0:0:
256,128,40388,1,2,0:0:0:0:
368,80,40581,2,2,P|432:96|432:112,1,62.5000001490115
448,192,40965,1,2,0:0:0:0:
256,320,41158,6,0,P|192:320|176:304,1,62.5000001490115
112,240,41542,1,0,0:0:0:0:
48,144,41734,1,0,0:0:0:0:
160,208,41927,1,0,0:0:0:0:
176,80,42119,1,0,0:0:0:0:
96,176,42311,1,0,0:0:0:0:
224,144,42504,1,0,0:0:0:0:
112,96,42696,1,0,0:0:0:0:
192,192,42888,1,0,0:0:0:0:
240,80,43081,1,4,0:0:0:0:
304,192,43273,1,4,0:0:0:0:
336,64,43465,2,4,P|400:48|432:80,1,62.5000001490115
496,112,43850,2,4,P|496:128|464:176,1,62.5000001490115
336,288,44234,5,0,0:0:0:0:
368,176,44427,1,0,0:0:0:0:
272,256,44619,1,0,0:0:0:0:
224,144,44811,1,0,0:0:0:0:
224,272,45004,1,0,0:0:0:0:
128,192,45196,1,0,0:0:0:0:
192,304,45388,1,0,0:0:0:0:
240,192,45581,1,0,0:0:0:0:
112,224,45773,1,0,0:0:0:0:
208,144,45965,1,2,0:0:0:0:
64,128,46158,1,2,0:0:0:0:
160,64,46350,1,2,0:0:0:0:
112,176,46542,2,2,P|128:240|144:240,1,62.5000001490115
208,304,46927,2,2,P|272:304|304:288,1,62.5000001490115
224,192,47311,5,0,0:0:0:0:
320,256,47504,1,0,0:0:0:0:
320,128,47696,1,0,0:0:0:0:
256,240,47888,1,0,0:0:0:0:
368,192,48081,1,0,0:0:0:0:
240,160,48273,1,0,0:0:0:0:
192,272,48465,2,0,L|192:352,2,62.5000001490115
128,160,49042,1,0,0:0:0:0:
112,288,49234,1,0,0:0:0:0:
208,208,49427,1,0,0:0:0:0:
160,96,49619,1,0,0:0:0:0:
272,160,49811,1,0,0:0:0:0:
240,48,50004,2,0,L|224:128,1,62.5000001490115
208,240,50388,6,4,P|256:288|288:288,1,62.5000001490115
448,128,50773,1,4,0:0:0:0:
272,304,50965,1,4,0:0:0:0:
336,64,51158,1,4,0:0:0:0:
112,176,51350,1,4,0:0:0:0:
352,240,51542,1,4,0:0:0:0:
160,80,51734,1,2,0:0:0:0:
192,336,51927,1,2,0:0:0:0:
352,144,52119,1,2,0:0:0:0:
128,272,52311,1,2,0:0:0:0:
384,272,52504,1,2,0:0:0:0:
160,160,52696,2,2,P|112:112|128:96,1,62.5000001490115
192,48,53081,2,2,P|256:64|272:80,1,62.5000001490115
400,176,53465,5,0,0:0:0:0:
368,304,53658,1,0,0:0:0:0:
320,192,53850,1,0,0:0:0:0:
432,256,54042,1,0,0:0:0:0:
304,256,54234,2,0,P|240:288|192:288,1,62.5000001490115
128,272,54619,2,0,P|80:224|80:192,1,62.5000001490115
48,112,55004,1,0,0:0:0:0:
160,48,55196,1,0,0:0:0:0:
128,176,55388,1,0,0:0:0:0:
240,112,55581,1,2,0:0:0:0:
256,240,55773,1,2,0:0:0:0:
320,128,55965,1,2,0:0:0:0:
368,240,56158,2,2,P|352:288|304:304,1,62.5000001490115
144,288,56542,6,0,P|96:240|96:224,1,62.5000001490115
80,128,56927,1,0,0:0:0:0:
176,208,57119,1,0,0:0:0:0:
48,192,57311,1,0,0:0:0:0:
160,128,57504,1,0,0:0:0:0:
112,240,57696,2,0,P|160:288|176:272,1,62.5000001490115
368,176,58081,1,4,0:0:0:0:
240,192,58273,1,4,0:0:0:0:
464,80,58465,1,4,0:0:0:0:
448,208,58658,1,4,0:0:0:0:
352,128,58850,2,0,L|288:96,1,62.5000001490115
336,224,59234,2,0,L|384:272,1,62.5000001490115
192,176,59619,5,0,0:0:0:0:
144,288,59811,1,0,0:0:0:0:
272,272,60004,1,0,0:0:0:0:
160,224,60196,1,0,0:0:0:0:
224,320,60388,1,0,0:0:0:0:
240,192,60581,1,0,0:0:0:0:
112,192,60773,2,0,P|88:196|48:240,1,62.5000001490115
96,336,61158,2,0,P|128:336|160:320,1,62.5000001490115
240,224,61542,1,2,0:0:0:0:
112,256,61734,1,2,0:0:0:0:
176,144,61927,1,2,0:0:0:0:
224,256,62119,1,2,0:0:0:0:
256,144,62311,6,0,P|272:96|304:80,1,62.5000001490115
256,192,62696,12,4,65773,0:0:0:0:
