osu file format v14

[General]
AudioFilename: audio.mp3
AudioLeadIn: 0
PreviewTime: 28850
Countdown: 0
SampleSet: Soft
StackLeniency: 0.7
Mode: 0
LetterboxInBreaks: 0
WidescreenStoryboard: 1

[Editor]
DistanceSpacing: 1.6
BeatDivisor: 4
GridSize: 16
TimelineZoom: 1

[Metadata]
Title:Great Fairy's Fountain
TitleUnicode:Great Fairy's Fountain
Artist:Koji Kondo
ArtistUnicode:Koji Kondo
Creator:iiOkward
Version:Fountain
Source:The Legend of Zelda: Ocarina of Time
Tags:tloz oot masterherobrine
BeatmapID:1098146
BeatmapSetID:515301

[Difficulty]
HPDrainRate:7
CircleSize:4
OverallDifficulty:7
ApproachRate:8.5
SliderMultiplier:2.00000000596046
SliderTickRate:2

[Events]
//Background and Video events
0,0,"GFF3.jpg",0,0
//Break Periods
//Storyboard Layer 0 (Background)
//Storyboard Layer 1 (Fail)
//Storyboard Layer 2 (Pass)
//Storyboard Layer 3 (Foreground)
//Storyboard Sound Samples

[TimingPoints]
4235,769.230769230769,4,2,0,75,1,0
4235,-66.6666666666667,4,2,0,75,0,0
4811,-50,4,2,0,75,0,0
5004,-100,4,2,0,75,0,0
6734,-100,4,2,0,75,0,0
16542,-66.6666666666667,4,2,0,75,0,0
16734,-100,4,2,0,75,0,0
25773,-50,4,2,0,75,0,0
26542,-66.6666666666667,4,2,0,75,0,0
27311,-100,4,2,0,75,0,0
28081,-133.333333333333,4,2,0,75,0,0
33465,-50,4,2,0,75,0,0
33658,-100,4,2,0,75,0,0
33850,-100,4,2,0,75,0,0
50196,-100,4,2,0,75,0,0
50581,-50,4,2,0,75,0,0
52696,-100,4,2,0,75,0,0
58081,-50,4,2,0,75,0,0
58273,-100,4,2,0,75,0,0
58465,-50,4,2,0,75,0,0
58658,-100,4,2,0,75,0,0
62696,-100,4,2,0,50,0,0
63465,-50,4,2,0,50,0,0
63658,-100,4,2,0,50,0,0
64811,-50,4,2,0,50,0,0
65773,-50,4,2,0,5,0,0

[Colours]
Combo1 : 255,128,128
Combo2 : 255,255,128
Combo3 : 128,255,128
Combo4 : 128,255,255

[HitObjects]
161,85,4235,5,2,0:0:0:0:
205,196,4427,1,0,0:0:0:0:
97,142,4619,1,0,0:0:0:0:
256,130,4811,1,0,0:0:0:0:
330,160,5004,2,0,P|379:206|381:222,1,50.0000001490115
356,265,5388,1,0,0:0:0:0:
284,300,5581,1,0,0:0:0:0:
205,286,5773,6,0,L|119:274,1,50.0000001490115
96,224,6158,1,0,0:0:0:0:
96,144,6350,1,0,0:0:0:0:
160,96,6542,2,0,P|224:112|240:128,1,50.0000001490115
240,176,6927,1,0,0:0:0:0:
304,224,7119,1,0,0:0:0:0:
384,208,7311,5,2,0:0:0:0:
416,128,7504,1,0,0:0:0:0:
368,64,7696,1,0,0:0:0:0:
288,32,7888,2,0,P|237:55|231:62,1,50.0000001490115
192,112,8273,1,0,0:0:0:0:
144,176,8465,1,0,0:0:0:0:
160,256,8658,1,0,0:0:0:0:
240,288,8850,6,0,L|318:290,1,50.0000001490115
288,208,9235,2,0,L|225:208,2,50.0000001490115
369,193,9811,2,0,P|365:151|326:113,1,50.0000001490115
301,92,10196,1,0,0:0:0:0:
232,133,10388,5,2,0:0:0:0:
168,83,10581,2,0,P|108:77|99:79,2,50.0000001490115
232,133,11158,1,0,0:0:0:0:
171,185,11350,2,0,P|115:189|104:184,2,50.0000001490115
232,133,11927,5,0,0:0:0:0:
309,152,12119,1,0,0:0:0:0:
254,210,12311,1,0,0:0:0:0:
332,227,12504,1,0,0:0:0:0:
394,177,12696,2,0,L|402:107,3,50.0000001490115
338,75,13465,5,2,0:0:0:0:
268,114,13658,1,0,0:0:0:0:
198,74,13850,2,0,P|164:79|152:91,1,50.0000001490115
86,132,14234,1,0,0:0:0:0:
70,210,14427,1,0,0:0:0:0:
123,269,14619,2,0,L|174:289,1,50.0000001490115
249,284,15004,5,0,0:0:0:0:
319,246,15196,2,0,L|372:224,3,50.0000001490115
401,155,15965,1,0,0:0:0:0:
358,87,16158,1,0,0:0:0:0:
279,73,16350,1,0,0:0:0:0:
180,141,16542,5,2,0:0:0:0:
105,169,16734,2,0,P|147:212|175:220,2,50.0000001490115
46,224,17311,1,2,0:0:0:0:
88,293,17504,2,0,P|139:316|145:315,1,50.0000001490115
208,298,17888,1,0,0:0:0:0:
270,247,18081,5,0,0:0:0:0:
349,243,18273,2,0,P|406:240|416:230,1,50.0000001490115
452,186,18658,1,0,0:0:0:0:
432,108,18850,1,2,0:0:0:0:
372,161,19042,2,0,P|304:132|295:134,1,50.0000001490115
257,102,19427,1,0,0:0:0:0:
203,42,19619,5,2,0:0:0:0:
132,78,19811,1,0,0:0:0:0:
114,156,20004,1,0,0:0:0:0:
126,234,20196,1,0,0:0:0:0:
181,291,20388,1,2,0:0:0:0:
260,305,20581,1,0,0:0:0:0:
337,284,20773,1,0,0:0:0:0:
384,219,20965,1,0,0:0:0:0:
374,139,21158,6,0,L|311:140,3,50.0000001490115,2|0|0|0,0:0|0:0|0:0|0:0,0:0:0:0:
250,106,21927,2,0,L|175:106,3,50.0000001490115,2|0|0|0,0:0|0:0|0:0|0:0,0:0:0:0:
156,173,22696,5,2,0:0:0:0:
129,248,22888,1,0,0:0:0:0:
208,234,23081,2,0,P|274:229|294:233,1,50.0000001490115
336,217,23465,1,2,0:0:0:0:
415,202,23658,1,0,0:0:0:0:
363,141,23850,2,0,P|322:87|309:83,1,50.0000001490115
259,102,24234,5,2,0:0:0:0:
179,112,24427,1,0,0:0:0:0:
99,120,24619,1,0,0:0:0:0:
177,134,24811,1,0,0:0:0:0:
256,141,25004,5,2,0:0:0:0:
334,153,25196,1,0,0:0:0:0:
256,172,25388,1,0,0:0:0:0:
175,177,25581,1,0,0:0:0:0:
280,296,25773,5,2,0:0:0:0:
120,305,25965,1,0,0:0:0:0:
271,250,26158,1,0,0:0:0:0:
111,263,26350,1,0,0:0:0:0:
224,300,26542,5,2,0:0:0:0:
104,312,26734,1,0,0:0:0:0:
214,264,26927,1,0,0:0:0:0:
94,263,27119,1,0,0:0:0:0:
162,304,27311,5,0,0:0:0:0:
81,309,27504,1,0,0:0:0:0:
152,273,27696,1,0,0:0:0:0:
72,268,27888,1,0,0:0:0:0:
118,306,28081,5,0,0:0:0:0:
58,307,28273,1,0,0:0:0:0:
107,272,28465,1,0,0:0:0:0:
46,269,28658,1,0,0:0:0:0:
43,209,28850,5,4,0:0:0:0:
70,155,29042,1,0,0:0:0:0:
114,115,29234,1,0,0:0:0:0:
168,89,29427,1,0,0:0:0:0:
227,81,29619,1,0,0:0:0:0:
285,91,29811,1,0,0:0:0:0:
337,120,30004,1,0,0:0:0:0:
379,162,30196,1,0,0:0:0:0:
392,220,30388,6,0,L|319:220,1,37.5000015422702
297,201,30773,2,0,L|354:200,1,37.5000015422702
355,256,31158,2,0,L|290:258,1,37.5000015422702
296,201,31542,2,0,L|360:200,1,37.5000015422702
393,200,31927,5,4,0:0:0:0:
388,140,32119,1,0,0:0:0:0:
360,86,32311,1,0,0:0:0:0:
300,75,32504,1,0,0:0:0:0:
258,118,32696,2,0,L|201:118,1,37.5000015422702
178,161,33081,2,0,L|242:160,1,37.5000015422702
128,304,33465,5,0,0:0:0:0:
208,320,33658,1,0,0:0:0:0:
288,304,33850,1,0,0:0:0:0:
352,256,34042,1,0,0:0:0:0:
416,208,34234,5,0,0:0:0:0:
352,160,34427,1,0,0:0:0:0:
272,154,34619,1,0,0:0:0:0:
192,155,34811,1,0,0:0:0:0:
111,155,35004,6,0,L|54:155,1,50.0000001490115,4|0,0:0|0:0,0:0:0:0:
78,232,35388,2,0,L|139:232,1,50.0000001490115
105,154,35773,2,0,L|28:155,1,50.0000001490115
88,227,36158,2,0,L|155:228,1,50.0000001490115
140,307,36542,5,0,0:0:0:0:
212,274,36734,1,0,0:0:0:0:
288,297,36927,1,0,0:0:0:0:
365,276,37119,1,0,0:0:0:0:
308,219,37311,5,0,0:0:0:0:
372,170,37504,1,0,0:0:0:0:
297,140,37696,1,0,0:0:0:0:
359,89,37888,1,0,0:0:0:0:
279,74,38081,6,0,L|216:80,1,50.0000001490115,4|0,0:0|0:0,0:0:0:0:
150,91,38465,2,0,L|88:97,1,50.0000001490115
43,152,38850,1,0,0:0:0:0:
60,229,39042,1,0,0:0:0:0:
108,292,39234,1,0,0:0:0:0:
185,311,39427,1,0,0:0:0:0:
261,287,39619,6,0,P|313:255|326:255,1,50.0000001490115
369,218,40004,2,0,P|325:183|301:178,1,50.0000001490115
390,131,40388,2,0,L|337:114,1,50.0000001490115
265,92,40773,2,0,L|209:103,1,50.0000001490115
159,158,41158,5,4,0:0:0:0:
86,192,41350,1,0,0:0:0:0:
100,270,41542,1,0,0:0:0:0:
172,237,41734,1,0,0:0:0:0:
238,191,41927,5,4,0:0:0:0:
316,207,42119,1,0,0:0:0:0:
302,286,42311,1,0,0:0:0:0:
223,268,42504,1,0,0:0:0:0:
143,272,42696,5,4,0:0:0:0:
129,193,42888,1,0,0:0:0:0:
209,187,43081,1,0,0:0:0:0:
223,268,43273,1,0,0:0:0:0:
302,257,43465,5,4,0:0:0:0:
377,251,43658,1,0,0:0:0:0:
369,172,43850,1,0,0:0:0:0:
289,176,44042,1,0,0:0:0:0:
243,110,44234,6,4,L|149:102,3,50.0000001490115,4|0|0|0,0:0|0:0|0:0|0:0,0:0:0:0:
132,158,45004,2,0,L|190:180,3,50.0000001490115,4|0|0|0,0:0|0:0|0:0|0:0,0:0:0:0:
142,247,45773,2,0,L|202:262,3,50.0000001490115,4|0|0|0,0:0|0:0|0:0|0:0,0:0:0:0:
205,337,46542,2,0,L|134:322,3,50.0000001490115,4|0|0|0,0:0|0:0|0:0|0:0,0:0:0:0:
81,298,47311,6,0,P|113:237|123:234,1,50.0000001490115,4|0,0:0|0:0,0:0:0:0:
146,191,47696,2,0,P|199:170|205:170,1,50.0000001490115
272,160,48081,2,0,P|329:151|341:143,1,50.0000001490115,4|0,0:0|0:0,0:0:0:0:
400,112,48465,2,0,P|419:180|417:200,1,50.0000001490115
432,240,48850,2,0,P|448:304|432:320,1,50.0000001490115,4|0,0:0|0:0,0:0:0:0:
400,336,49234,2,0,P|349:322|334:321,1,50.0000001490115
272,320,49619,2,0,P|188:317|185:315,1,50.0000001490115,4|0,0:0|0:0,0:0:0:0:
144,304,50004,2,0,P|112:256|112:224,1,50.0000001490115
128,192,50388,5,4,0:0:0:0:
272,234,50581,1,0,0:0:0:0:
212,85,50773,1,0,0:0:0:0:
182,242,50965,1,0,0:0:0:0:
296,129,51158,5,4,0:0:0:0:
321,286,51350,1,0,0:0:0:0:
218,163,51542,1,0,0:0:0:0:
374,193,51734,1,0,0:0:0:0:
225,254,51927,5,4,0:0:0:0:
296,129,52119,1,0,0:0:0:0:
349,279,52311,1,0,0:0:0:0:
231,169,52504,1,0,0:0:0:0:
164,124,52696,2,0,P|101:135|91:149,1,50.0000001490115,4|0,0:0|0:0,0:0:0:0:
148,197,53081,2,0,P|94:207|87:211,1,50.0000001490115
69,278,53465,5,2,0:0:0:0:
128,336,53658,1,0,0:0:0:0:
208,336,53850,1,0,0:0:0:0:
288,304,54042,2,0,P|336:288|368:288,2,50.0000001490115
224,272,54619,2,0,P|160:240|144:240,1,50.0000001490115
128,192,55004,1,0,0:0:0:0:
192,160,55196,1,0,0:0:0:0:
272,176,55388,2,0,P|256:128|240:112,1,50.0000001490115
240,48,55773,5,0,0:0:0:0:
160,64,55965,1,0,0:0:0:0:
96,112,56158,1,0,0:0:0:0:
80,192,56350,1,0,0:0:0:0:
128,256,56542,5,2,0:0:0:0:
176,320,56734,2,0,P|224:304|240:320,1,50.0000001490115
240,224,57119,1,0,0:0:0:0:
304,256,57311,2,0,P|352:240|368:224,1,50.0000001490115
400,176,57696,1,0,0:0:0:0:
400,96,57888,1,0,0:0:0:0:
240,96,58081,5,0,0:0:0:0:
320,80,58273,1,0,0:0:0:0:
160,112,58465,1,0,0:0:0:0:
80,128,58658,1,0,0:0:0:0:
32,192,58850,5,0,0:0:0:0:
48,272,59042,1,0,0:0:0:0:
96,336,59234,1,0,0:0:0:0:
176,304,59427,1,0,0:0:0:0:
256,272,59619,6,0,L|320:272,1,50.0000001490115,2|0,0:0|0:0,0:0:0:0:
320,192,60004,2,0,L|256:192,1,50.0000001490115
208,144,60388,1,0,0:0:0:0:
272,96,60581,1,0,0:0:0:0:
352,96,60773,1,0,0:0:0:0:
416,144,60965,1,0,0:0:0:0:
416,224,61158,6,0,L|416:288,1,50.0000001490115
336,256,61542,2,0,L|336:192,1,50.0000001490115
256,192,61927,2,0,L|256:256,1,50.0000001490115
176,224,62311,2,0,L|176:160,1,50.0000001490115
256,192,62696,12,4,65773,0:0:0:0:
