osu file format v14

[General]
AudioFilename: audio.mp3
AudioLeadIn: 0
PreviewTime: 28850
Countdown: 0
SampleSet: Soft
StackLeniency: 0.7
Mode: 0
LetterboxInBreaks: 0
WidescreenStoryboard: 0

[Editor]
Bookmarks: 30773
DistanceSpacing: 1.6
BeatDivisor: 4
GridSize: 8
TimelineZoom: 1

[Metadata]
Title:Great Fairy's Fountain
TitleUnicode:Great Fairy's Fountain
Artist:Koji Kondo
ArtistUnicode:Koji Kondo
Creator:iiOkward
Version:Collab Hard
Source:The Legend of Zelda: Ocarina of Time
Tags:tloz oot masterherobrine
BeatmapID:1095181
BeatmapSetID:515301

[Difficulty]
HPDrainRate:5
CircleSize:4
OverallDifficulty:6
ApproachRate:7.5
SliderMultiplier:2.00000000596046
SliderTickRate:2

[Events]
//Background and Video events
0,0,"GFF3.jpg",0,0
//Break Periods
//Storyboard Layer 0 (Background)
//Storyboard Layer 1 (Fail)
//Storyboard Layer 2 (Pass)
//Storyboard Layer 3 (Foreground)
//Storyboard Sound Samples

[TimingPoints]
4235,769.230769230769,4,2,0,75,1,0
4235,-200,4,2,0,75,0,0
19619,-133.333333333333,4,2,0,75,0,0
24427,-200,4,2,0,75,0,0
47696,-133.333333333333,4,2,0,75,0,0
48658,-200,4,2,0,75,0,0
53273,-133.333333333333,4,2,0,75,0,0
54042,-200,4,2,0,75,0,0

[Colours]
Combo1 : 255,128,128
Combo2 : 255,255,128
Combo3 : 128,255,128
Combo4 : 128,255,255

[HitObjects]
72,96,4235,5,2,0:0:0:0:
112,104,4427,1,0,0:0:0:0:
136,136,4619,1,0,0:0:0:0:
144,176,4811,1,0,0:0:0:0:
168,200,5004,2,0,L|200:224,3,25.0000000745058
224,232,5773,5,0,0:0:0:0:
264,240,5965,1,0,0:0:0:0:
304,240,6158,1,0,0:0:0:0:
336,224,6350,1,0,0:0:0:0:
352,184,6542,1,2,0:0:0:0:
352,144,6734,1,0,0:0:0:0:
344,104,6927,1,0,0:0:0:0:
312,80,7119,1,0,0:0:0:0:
272,88,7311,6,0,L|224:104,1,50.0000001490115,2|2,0:0|0:0,0:0:0:0:
280,168,8081,2,0,L|236:221,1,50.0000001490115,2|2,0:0|0:0,0:0:0:0:
256,288,8850,5,2,0:0:0:0:
216,296,9042,1,0,0:0:0:0:
176,288,9235,1,0,0:0:0:0:
136,272,9427,1,0,0:0:0:0:
120,232,9619,5,2,0:0:0:0:
120,192,9811,1,0,0:0:0:0:
128,152,10004,1,0,0:0:0:0:
152,120,10196,1,0,0:0:0:0:
192,112,10388,6,0,L|248:112,1,50.0000001490115,2|0,0:0|0:0,0:0:0:0:
320,128,11158,2,0,P|336:168|328:192,1,50.0000001490115
352,248,11927,2,0,P|336:288|320:296,1,50.0000001490115
248,288,12696,2,0,P|208:272|192:256,1,50.0000001490115,2|0,0:0|0:0,0:0:0:0:
176,192,13465,5,2,0:0:0:0:
136,200,13658,1,0,0:0:0:0:
112,232,13850,1,0,0:0:0:0:
112,272,14042,1,0,0:0:0:0:
128,304,14234,5,2,0:0:0:0:
160,328,14427,1,0,0:0:0:0:
200,336,14619,1,0,0:0:0:0:
240,328,14811,1,0,0:0:0:0:
280,320,15004,6,0,L|344:288,1,50.0000001490115,0|2,0:0|0:0,0:0:0:0:
376,232,15774,2,0,L|320:216,1,50.0000001490115,0|2,0:0|0:0,0:0:0:0:
256,184,16542,5,0,0:0:0:0:
216,184,16734,1,0,0:0:0:0:
176,200,16926,1,0,0:0:0:0:
160,232,17118,1,0,0:0:0:0:
168,272,17310,1,0,0:0:0:0:
200,296,17504,1,0,0:0:0:0:
240,312,17696,2,0,P|288:320|304:320,1,50.0000001490115
360,288,18465,5,0,0:0:0:0:
376,248,18658,1,0,0:0:0:0:
376,208,18850,1,2,0:0:0:0:
368,168,19042,1,0,0:0:0:0:
344,136,19234,1,0,0:0:0:0:
304,120,19427,1,0,0:0:0:0:
256,152,19619,6,0,B|200:152|176:136|152:136,1,75.0000030845403
80,200,20388,2,0,P|104:256|120:256,1,75.0000030845403
224,248,21158,2,0,P|312:224|328:224,1,75.0000030845403
376,136,21927,2,0,P|312:112|304:112,1,75.0000030845403
184,104,22696,6,0,L|216:192,1,75.0000030845403
96,144,23465,2,0,L|136:216,1,75.0000030845403,2|0,0:0|0:0,0:0:0:0:
200,312,24234,5,0,0:0:0:0:
216,272,24427,1,0,0:0:0:0:
232,240,24619,1,0,0:0:0:0:
256,208,24811,1,0,0:0:0:0:
280,176,25004,1,2,0:0:0:0:
312,160,25196,1,0,0:0:0:0:
352,168,25388,1,0,0:0:0:0:
376,200,25581,1,0,0:0:0:0:
384,240,25773,6,0,P|384:288|328:296,1,100.000000298023
264,320,26927,1,0,0:0:0:0:
184,312,27311,2,0,L|144:264,1,50.0000001490115
184,200,28081,2,0,L|176:128,1,50.0000001490115
248,112,28850,5,4,2:0:0:0:
280,88,29042,1,0,0:0:0:0:
312,72,29234,1,0,0:0:0:0:
352,56,29427,1,0,0:0:0:0:
392,72,29619,2,0,B|416:128|368:176|368:176|384:184|400:216,1,150.000000447035
424,248,31158,1,0,0:0:0:0:
408,280,31350,1,0,0:0:0:0:
376,304,31542,1,0,0:0:0:0:
344,320,31734,1,0,0:0:0:0:
304,312,31927,6,0,L|248:272,1,50.0000001490115,4|0,0:0|0:0,0:0:0:0:
288,208,32696,2,0,P|248:208|224:216,1,50.0000001490115
208,136,33465,2,0,P|168:120|144:120,1,50.0000001490115
88,160,34234,2,0,P|80:200|88:216,1,50.0000001490115
152,248,35004,6,0,B|232:288|232:288|264:240|296:240,1,150.000000447035,4|0,0:0|0:0,0:0:0:0:
304,224,36350,1,0,0:0:0:0:
344,208,36542,1,0,0:0:0:0:
384,216,36734,1,0,0:0:0:0:
424,216,36927,1,0,0:0:0:0:
456,192,37119,1,0,0:0:0:0:
472,152,37311,1,2,0:0:0:0:
448,120,37504,1,0,0:0:0:0:
416,96,37696,1,0,0:0:0:0:
376,80,37888,1,0,0:0:0:0:
336,80,38081,6,0,B|312:80|288:104|288:104|256:80|232:80,1,100.000000298023,4|0,0:0|0:0,0:0:0:0:
176,120,39234,2,0,L|192:144,2,25.0000000745058
136,192,40004,2,0,L|112:184,2,25.0000000745058
96,264,40773,1,0,0:0:0:0:
168,296,41158,5,0,0:0:0:0:
208,304,41350,1,0,0:0:0:0:
248,304,41542,1,0,0:0:0:0:
288,296,41734,1,0,0:0:0:0:
328,280,41927,1,0,0:0:0:0:
360,248,42119,1,0,0:0:0:0:
384,216,42311,1,0,0:0:0:0:
392,176,42504,1,0,0:0:0:0:
376,144,42696,2,0,L|344:112,3,25.0000000745058
320,120,43465,2,0,P|288:120|224:152,1,100.000000298023
192,168,44427,5,0,0:0:0:0:
152,152,44619,1,0,0:0:0:0:
120,128,44811,1,0,0:0:0:0:
80,120,45004,2,0,P|40:120|24:128,2,50.0000001490115
112,144,45965,5,0,0:0:0:0:
128,176,46158,1,0,0:0:0:0:
144,208,46350,1,0,0:0:0:0:
168,240,46542,1,0,0:0:0:0:
200,264,46734,1,0,0:0:0:0:
240,280,46927,1,0,0:0:0:0:
280,280,47119,1,0,0:0:0:0:
320,272,47311,6,0,L|352:272,2,25.0000000745058,2|0|0,0:0|0:0|0:0,0:0:0:0:
320,208,47888,1,0,0:0:0:0:
288,160,48081,1,0,0:0:0:0:
176,120,48465,1,0,0:0:0:0:
224,56,48850,5,0,0:0:0:0:
264,40,49042,1,0,0:0:0:0:
304,48,49234,2,0,L|336:72,3,25.0000000745058,0|0|2|0,0:0|0:0|0:0|0:0,0:0:0:0:
352,96,50004,1,0,0:0:0:0:
368,136,50196,1,0,0:0:0:0:
376,176,50388,6,0,L|320:208,1,50.0000001490115
288,272,51158,2,0,L|232:288,1,50.0000001490115
224,208,51927,2,0,P|184:184|160:184,1,50.0000001490115
104,152,52696,2,0,P|80:184|80:216,1,50.0000001490115
144,296,53465,6,0,P|184:288|224:272,1,75.0000030845403,2|0,0:0|0:0,0:0:0:0:
296,256,54234,1,0,0:0:0:0:
328,232,54427,1,0,0:0:0:0:
360,208,54619,1,0,0:0:0:0:
368,168,54811,1,0,0:0:0:0:
344,128,55004,1,0,0:0:0:0:
280,80,55388,5,0,0:0:0:0:
240,88,55581,1,0,0:0:0:0:
208,112,55773,1,0,0:0:0:0:
176,136,55965,1,0,0:0:0:0:
144,160,56158,1,0,0:0:0:0:
128,200,56350,1,0,0:0:0:0:
144,240,56542,1,2,0:0:0:0:
216,280,56927,5,0,0:0:0:0:
256,272,57119,1,0,0:0:0:0:
296,256,57311,1,0,0:0:0:0:
344,192,57696,1,0,0:0:0:0:
376,120,58081,1,0,0:0:0:0:
304,80,58465,5,0,0:0:0:0:
264,72,58658,1,0,0:0:0:0:
224,80,58850,1,2,0:0:0:0:
200,112,59042,1,0,0:0:0:0:
184,152,59234,1,0,0:0:0:0:
192,192,59427,1,0,0:0:0:0:
216,224,59619,1,0,0:0:0:0:
296,240,60004,2,0,L|320:184,2,50.0000001490115
312,280,60965,1,0,0:0:0:0:
288,312,61158,5,0,0:0:0:0:
248,320,61350,1,0,0:0:0:0:
208,312,61542,1,0,0:0:0:0:
176,288,61734,1,0,0:0:0:0:
152,256,61927,1,2,0:0:0:0:
144,216,62119,1,0,0:0:0:0:
152,176,62311,1,0,0:0:0:0:
176,144,62504,1,0,0:0:0:0:
216,128,62696,1,0,0:0:0:0:
256,192,62888,12,4,65773,0:0:0:0:
