osu file format v14

[General]
AudioFilename: 79 - Last Battle.mp3
AudioLeadIn: 0
PreviewTime: 24922
Countdown: 0
SampleSet: Normal
StackLeniency: 0.7
Mode: 3
LetterboxInBreaks: 0
SpecialStyle: 0
WidescreenStoryboard: 0

[Editor]
DistanceSpacing: 0.8
BeatDivisor: 2
GridSize: 32
TimelineZoom: 2.3

[Metadata]
Title:Final Battle
TitleUnicode:Final Battle
Artist:Koji Kondo
ArtistUnicode:Koji Kondo
Creator:Gekido-
Version:Challenge
Source:The Legend of Zelda: Ocarina of Time
Tags:The Legend of Zelda Ocarina of Time OST Ganon Final Battle lemonguy etterna stepmania dump pack
BeatmapID:1606916
BeatmapSetID:764165

[Difficulty]
HPDrainRate:8
CircleSize:4
OverallDifficulty:8
ApproachRate:5
SliderMultiplier:1.4
SliderTickRate:1

[Events]
//Background and Video events
0,0,"finalganon.jpg",0,0
//Break Periods
//Storyboard Layer 0 (Background)
//Storyboard Layer 1 (Fail)
//Storyboard Layer 2 (Pass)
//Storyboard Layer 3 (Foreground)
//Storyboard Sound Samples

[TimingPoints]
328,416.666667,4,1,0,40,1,0
10328,405.405405,4,1,0,40,1,0

[HitObjects]
192,192,328,128,0,536:0:0:0:0:
320,192,328,128,0,536:0:0:0:0:
448,192,328,128,0,536:0:0:0:0:
64,192,745,128,0,953:0:0:0:0:
320,192,745,128,0,953:0:0:0:0:
448,192,745,128,0,953:0:0:0:0:
64,192,1161,128,0,2620:0:0:0:0:
192,192,1161,128,0,2620:0:0:0:0:
448,192,1161,128,0,2620:0:0:0:0:
64,192,2828,128,0,3036:0:0:0:0:
320,192,2828,128,0,3036:0:0:0:0:
448,192,2828,128,0,3036:0:0:0:0:
64,192,3245,128,0,3453:0:0:0:0:
192,192,3245,128,0,3453:0:0:0:0:
448,192,3245,128,0,3453:0:0:0:0:
192,192,3661,128,0,3870:0:0:0:0:
320,192,3661,128,0,3870:0:0:0:0:
448,192,3661,128,0,3870:0:0:0:0:
64,192,4078,128,0,4807:0:0:0:0:
192,192,4078,128,0,4807:0:0:0:0:
320,192,4078,128,0,4807:0:0:0:0:
64,192,4911,128,0,5328:0:0:0:0:
192,192,4911,128,0,5328:0:0:0:0:
448,192,4911,128,0,5328:0:0:0:0:
64,192,5745,128,0,5953:0:0:0:0:
320,192,5745,128,0,5953:0:0:0:0:
448,192,5745,128,0,5953:0:0:0:0:
64,192,6161,128,0,10189:0:0:0:0:
192,192,6161,128,0,6995:0:0:0:0:
320,192,6161,128,0,6891:0:0:0:0:
448,192,6161,128,0,10189:0:0:0:0:
320,192,6995,1,0,0:0:0:0:
192,192,7099,1,0,0:0:0:0:
320,192,7203,1,0,0:0:0:0:
192,192,7307,1,0,0:0:0:0:
320,192,7411,1,0,0:0:0:0:
192,192,7516,1,0,0:0:0:0:
320,192,7620,1,0,0:0:0:0:
192,192,7724,1,0,0:0:0:0:
320,192,7828,1,0,0:0:0:0:
192,192,7932,1,0,0:0:0:0:
320,192,8036,1,0,0:0:0:0:
192,192,8141,1,0,0:0:0:0:
320,192,8245,1,0,0:0:0:0:
192,192,8349,1,0,0:0:0:0:
320,192,8453,1,0,0:0:0:0:
192,192,8557,1,0,0:0:0:0:
320,192,8661,1,0,0:0:0:0:
192,192,8766,1,0,0:0:0:0:
320,192,8870,1,0,0:0:0:0:
192,192,8974,1,0,0:0:0:0:
320,192,9078,1,0,0:0:0:0:
192,192,9182,1,0,0:0:0:0:
320,192,9286,1,0,0:0:0:0:
192,192,9391,1,0,0:0:0:0:
320,192,9495,1,0,0:0:0:0:
192,192,9634,1,0,0:0:0:0:
320,192,9772,1,0,0:0:0:0:
192,192,9911,1,0,0:0:0:0:
320,192,10050,1,0,0:0:0:0:
192,192,10189,1,0,0:0:0:0:
64,192,10328,1,0,0:0:0:0:
448,192,10328,1,0,0:0:0:0:
320,192,10379,1,0,0:0:0:0:
192,192,10429,1,0,0:0:0:0:
320,192,10480,1,0,0:0:0:0:
64,192,10531,1,0,0:0:0:0:
448,192,10581,1,0,0:0:0:0:
192,192,10632,1,0,0:0:0:0:
448,192,10683,1,0,0:0:0:0:
64,192,10733,1,0,0:0:0:0:
320,192,10784,1,0,0:0:0:0:
192,192,10835,1,0,0:0:0:0:
320,192,10885,1,0,0:0:0:0:
64,192,10936,1,0,0:0:0:0:
448,192,10987,1,0,0:0:0:0:
192,192,11037,1,0,0:0:0:0:
320,192,11088,1,0,0:0:0:0:
448,192,11139,1,0,0:0:0:0:
192,192,11189,1,0,0:0:0:0:
320,192,11240,1,0,0:0:0:0:
192,192,11291,1,0,0:0:0:0:
448,192,11342,1,0,0:0:0:0:
64,192,11392,1,0,0:0:0:0:
320,192,11443,1,0,0:0:0:0:
64,192,11494,1,0,0:0:0:0:
448,192,11544,1,0,0:0:0:0:
192,192,11595,1,0,0:0:0:0:
320,192,11646,1,0,0:0:0:0:
192,192,11696,1,0,0:0:0:0:
448,192,11747,1,0,0:0:0:0:
64,192,11798,1,0,0:0:0:0:
320,192,11848,1,0,0:0:0:0:
192,192,11899,1,0,0:0:0:0:
64,192,11950,1,0,0:0:0:0:
320,192,11950,1,0,0:0:0:0:
448,192,11950,1,0,0:0:0:0:
192,192,12051,1,0,0:0:0:0:
320,192,12152,1,0,0:0:0:0:
192,192,12254,1,0,0:0:0:0:
320,192,12355,1,0,0:0:0:0:
192,192,12456,1,0,0:0:0:0:
320,192,12558,1,0,0:0:0:0:
192,192,12659,1,0,0:0:0:0:
448,192,12760,1,0,0:0:0:0:
448,192,12862,1,0,0:0:0:0:
448,192,12963,1,0,0:0:0:0:
64,192,13064,1,0,0:0:0:0:
320,192,13166,1,0,0:0:0:0:
320,192,13267,1,0,0:0:0:0:
64,192,13369,1,0,0:0:0:0:
64,192,13470,1,0,0:0:0:0:
320,192,13571,1,0,0:0:0:0:
320,192,13673,1,0,0:0:0:0:
320,192,13774,1,0,0:0:0:0:
64,192,13875,1,0,0:0:0:0:
192,192,13977,1,0,0:0:0:0:
192,192,14078,1,0,0:0:0:0:
192,192,14179,1,0,0:0:0:0:
320,192,14281,1,0,0:0:0:0:
448,192,14382,1,0,0:0:0:0:
448,192,14483,1,0,0:0:0:0:
64,192,14585,1,0,0:0:0:0:
64,192,14686,1,0,0:0:0:0:
320,192,14787,1,0,0:0:0:0:
320,192,14889,1,0,0:0:0:0:
64,192,14990,1,0,0:0:0:0:
64,192,15092,1,0,0:0:0:0:
64,192,15193,1,0,0:0:0:0:
192,192,15193,1,0,0:0:0:0:
448,192,15193,1,0,0:0:0:0:
320,192,15260,1,0,0:0:0:0:
448,192,15328,1,0,0:0:0:0:
64,192,15396,1,0,0:0:0:0:
320,192,15463,1,0,0:0:0:0:
64,192,15531,1,0,0:0:0:0:
448,192,15598,1,0,0:0:0:0:
192,192,15666,1,0,0:0:0:0:
448,192,15733,1,0,0:0:0:0:
64,192,15801,1,0,0:0:0:0:
192,192,15869,1,0,0:0:0:0:
64,192,15936,1,0,0:0:0:0:
320,192,16004,1,0,0:0:0:0:
448,192,16071,1,0,0:0:0:0:
320,192,16139,1,0,0:0:0:0:
192,192,16206,1,0,0:0:0:0:
320,192,16274,1,0,0:0:0:0:
64,192,16342,1,0,0:0:0:0:
320,192,16409,1,0,0:0:0:0:
192,192,16477,1,0,0:0:0:0:
320,192,16544,1,0,0:0:0:0:
64,192,16612,1,0,0:0:0:0:
192,192,16679,1,0,0:0:0:0:
64,192,16747,1,0,0:0:0:0:
448,192,16814,1,0,0:0:0:0:
320,192,16882,1,0,0:0:0:0:
448,192,16950,1,0,0:0:0:0:
192,192,17017,1,0,0:0:0:0:
64,192,17085,1,0,0:0:0:0:
192,192,17152,1,0,0:0:0:0:
320,192,17220,1,0,0:0:0:0:
448,192,17220,1,0,0:0:0:0:
320,192,17321,1,0,0:0:0:0:
64,192,17423,1,0,0:0:0:0:
192,192,17423,1,0,0:0:0:0:
192,192,17524,1,0,0:0:0:0:
320,192,17625,1,0,0:0:0:0:
64,192,17693,1,0,0:0:0:0:
320,192,17760,1,0,0:0:0:0:
192,192,17828,1,0,0:0:0:0:
320,192,17896,1,0,0:0:0:0:
448,192,17963,1,0,0:0:0:0:
192,192,18031,1,0,0:0:0:0:
64,192,18098,1,0,0:0:0:0:
192,192,18166,1,0,0:0:0:0:
320,192,18233,1,0,0:0:0:0:
64,192,18301,1,0,0:0:0:0:
320,192,18369,1,0,0:0:0:0:
448,192,18436,1,0,0:0:0:0:
192,192,18504,1,0,0:0:0:0:
448,192,18571,1,0,0:0:0:0:
64,192,18639,1,0,0:0:0:0:
320,192,18706,1,0,0:0:0:0:
192,192,18774,1,0,0:0:0:0:
320,192,18842,1,0,0:0:0:0:
64,192,18909,1,0,0:0:0:0:
320,192,18977,1,0,0:0:0:0:
448,192,19044,1,0,0:0:0:0:
320,192,19112,1,0,0:0:0:0:
192,192,19179,1,0,0:0:0:0:
64,192,19247,1,0,0:0:0:0:
448,192,19298,1,0,0:0:0:0:
64,192,19348,1,0,0:0:0:0:
320,192,19399,1,0,0:0:0:0:
192,192,19450,1,0,0:0:0:0:
448,192,19500,1,0,0:0:0:0:
192,192,19551,1,0,0:0:0:0:
320,192,19602,1,0,0:0:0:0:
448,192,19652,1,0,0:0:0:0:
64,192,19703,1,0,0:0:0:0:
448,192,19754,1,0,0:0:0:0:
192,192,19804,1,0,0:0:0:0:
320,192,19855,1,0,0:0:0:0:
64,192,19906,1,0,0:0:0:0:
320,192,19956,1,0,0:0:0:0:
192,192,20007,1,0,0:0:0:0:
64,192,20058,1,0,0:0:0:0:
448,192,20058,1,0,0:0:0:0:
320,192,20125,1,0,0:0:0:0:
448,192,20193,1,0,0:0:0:0:
64,192,20260,1,0,0:0:0:0:
448,192,20328,1,0,0:0:0:0:
192,192,20396,1,0,0:0:0:0:
64,192,20463,1,0,0:0:0:0:
448,192,20531,1,0,0:0:0:0:
64,192,20598,1,0,0:0:0:0:
320,192,20666,1,0,0:0:0:0:
64,192,20733,1,0,0:0:0:0:
192,192,20801,1,0,0:0:0:0:
448,192,20869,1,0,0:0:0:0:
320,192,20936,1,0,0:0:0:0:
448,192,21004,1,0,0:0:0:0:
64,192,21071,1,0,0:0:0:0:
192,192,21139,1,0,0:0:0:0:
64,192,21206,1,0,0:0:0:0:
320,192,21274,1,0,0:0:0:0:
448,192,21274,1,0,0:0:0:0:
448,192,21375,1,0,0:0:0:0:
64,192,21477,1,0,0:0:0:0:
192,192,21477,1,0,0:0:0:0:
64,192,21578,1,0,0:0:0:0:
64,192,21679,1,0,0:0:0:0:
320,192,21679,1,0,0:0:0:0:
448,192,21679,1,0,0:0:0:0:
192,192,21747,1,0,0:0:0:0:
448,192,21814,1,0,0:0:0:0:
64,192,21882,1,0,0:0:0:0:
448,192,21950,1,0,0:0:0:0:
64,192,22017,1,0,0:0:0:0:
192,192,22085,1,0,0:0:0:0:
320,192,22152,1,0,0:0:0:0:
192,192,22220,1,0,0:0:0:0:
448,192,22287,1,0,0:0:0:0:
64,192,22355,1,0,0:0:0:0:
320,192,22389,1,0,0:0:0:0:
448,192,22389,1,0,0:0:0:0:
320,192,22490,1,0,0:0:0:0:
64,192,22592,1,0,0:0:0:0:
192,192,22592,1,0,0:0:0:0:
192,192,22693,1,0,0:0:0:0:
320,192,22760,1,0,0:0:0:0:
64,192,22828,1,0,0:0:0:0:
448,192,22896,1,0,0:0:0:0:
192,192,22963,1,0,0:0:0:0:
448,192,23031,1,0,0:0:0:0:
320,192,23098,1,0,0:0:0:0:
448,192,23166,1,0,0:0:0:0:
64,192,23233,1,0,0:0:0:0:
320,192,23301,1,0,0:0:0:0:
192,192,23352,1,0,0:0:0:0:
320,192,23402,1,0,0:0:0:0:
64,192,23453,1,0,0:0:0:0:
448,192,23504,1,0,0:0:0:0:
192,192,23554,1,0,0:0:0:0:
448,192,23605,1,0,0:0:0:0:
64,192,23656,1,0,0:0:0:0:
320,192,23706,1,0,0:0:0:0:
192,192,23757,1,0,0:0:0:0:
320,192,23808,1,0,0:0:0:0:
64,192,23858,1,0,0:0:0:0:
448,192,23909,1,0,0:0:0:0:
192,192,23960,1,0,0:0:0:0:
448,192,24010,1,0,0:0:0:0:
64,192,24061,1,0,0:0:0:0:
192,192,24112,1,0,0:0:0:0:
320,192,24162,1,0,0:0:0:0:
192,192,24213,1,0,0:0:0:0:
448,192,24264,1,0,0:0:0:0:
64,192,24314,1,0,0:0:0:0:
320,192,24365,1,0,0:0:0:0:
64,192,24416,1,0,0:0:0:0:
448,192,24467,1,0,0:0:0:0:
192,192,24517,1,0,0:0:0:0:
320,192,24568,1,0,0:0:0:0:
192,192,24619,1,0,0:0:0:0:
448,192,24669,1,0,0:0:0:0:
64,192,24720,1,0,0:0:0:0:
320,192,24771,1,0,0:0:0:0:
64,192,24821,1,0,0:0:0:0:
192,192,24872,1,0,0:0:0:0:
320,192,24923,1,0,0:0:0:0:
448,192,24923,1,0,0:0:0:0:
64,192,24973,1,0,0:0:0:0:
448,192,25024,1,0,0:0:0:0:
192,192,25075,1,0,0:0:0:0:
448,192,25125,1,0,0:0:0:0:
64,192,25176,1,0,0:0:0:0:
192,192,25227,1,0,0:0:0:0:
448,192,25277,1,0,0:0:0:0:
64,192,25328,1,0,0:0:0:0:
320,192,25379,1,0,0:0:0:0:
64,192,25429,1,0,0:0:0:0:
448,192,25480,1,0,0:0:0:0:
64,192,25531,1,0,0:0:0:0:
320,192,25581,1,0,0:0:0:0:
448,192,25632,1,0,0:0:0:0:
192,192,25683,1,0,0:0:0:0:
320,192,25733,1,0,0:0:0:0:
64,192,25784,1,0,0:0:0:0:
320,192,25835,1,0,0:0:0:0:
192,192,25885,1,0,0:0:0:0:
320,192,25936,1,0,0:0:0:0:
64,192,25987,1,0,0:0:0:0:
448,192,26037,1,0,0:0:0:0:
320,192,26088,1,0,0:0:0:0:
192,192,26139,1,0,0:0:0:0:
64,192,26189,1,0,0:0:0:0:
192,192,26240,1,0,0:0:0:0:
320,192,26291,1,0,0:0:0:0:
448,192,26342,1,0,0:0:0:0:
64,192,26392,1,0,0:0:0:0:
448,192,26443,1,0,0:0:0:0:
320,192,26494,1,0,0:0:0:0:
64,192,26544,1,0,0:0:0:0:
448,192,26595,1,0,0:0:0:0:
64,192,26646,1,0,0:0:0:0:
320,192,26696,1,0,0:0:0:0:
192,192,26747,1,0,0:0:0:0:
448,192,26798,1,0,0:0:0:0:
192,192,26848,1,0,0:0:0:0:
320,192,26899,1,0,0:0:0:0:
64,192,26950,1,0,0:0:0:0:
448,192,27000,1,0,0:0:0:0:
64,192,27051,1,0,0:0:0:0:
192,192,27102,1,0,0:0:0:0:
448,192,27152,1,0,0:0:0:0:
320,192,27203,1,0,0:0:0:0:
448,192,27254,1,0,0:0:0:0:
64,192,27304,1,0,0:0:0:0:
192,192,27355,1,0,0:0:0:0:
320,192,27406,1,0,0:0:0:0:
192,192,27456,1,0,0:0:0:0:
64,192,27507,1,0,0:0:0:0:
448,192,27558,1,0,0:0:0:0:
192,192,27608,1,0,0:0:0:0:
448,192,27659,1,0,0:0:0:0:
320,192,27710,1,0,0:0:0:0:
64,192,27760,1,0,0:0:0:0:
192,192,27811,1,0,0:0:0:0:
64,192,27862,1,0,0:0:0:0:
448,192,27912,1,0,0:0:0:0:
320,192,27963,1,0,0:0:0:0:
192,192,28014,1,0,0:0:0:0:
320,192,28064,1,0,0:0:0:0:
448,192,28115,1,0,0:0:0:0:
64,192,28166,1,0,0:0:0:0:
192,192,28166,1,0,0:0:0:0:
320,192,28217,1,0,0:0:0:0:
64,192,28267,1,0,0:0:0:0:
448,192,28318,1,0,0:0:0:0:
320,192,28369,1,0,0:0:0:0:
64,192,28419,1,0,0:0:0:0:
192,192,28470,1,0,0:0:0:0:
320,192,28521,1,0,0:0:0:0:
448,192,28571,1,0,0:0:0:0:
192,192,28622,1,0,0:0:0:0:
448,192,28673,1,0,0:0:0:0:
64,192,28723,1,0,0:0:0:0:
320,192,28774,1,0,0:0:0:0:
192,192,28825,1,0,0:0:0:0:
320,192,28875,1,0,0:0:0:0:
64,192,28926,1,0,0:0:0:0:
448,192,28977,1,0,0:0:0:0:
192,192,29027,1,0,0:0:0:0:
448,192,29078,1,0,0:0:0:0:
64,192,29129,1,0,0:0:0:0:
320,192,29179,1,0,0:0:0:0:
192,192,29230,1,0,0:0:0:0:
448,192,29281,1,0,0:0:0:0:
320,192,29331,1,0,0:0:0:0:
64,192,29382,1,0,0:0:0:0:
448,192,29433,1,0,0:0:0:0:
64,192,29483,1,0,0:0:0:0:
320,192,29534,1,0,0:0:0:0:
64,192,29585,1,0,0:0:0:0:
448,192,29635,1,0,0:0:0:0:
192,192,29686,1,0,0:0:0:0:
320,192,29737,1,0,0:0:0:0:
64,192,29787,1,0,0:0:0:0:
448,192,29787,1,0,0:0:0:0:
192,192,29838,1,0,0:0:0:0:
448,192,29889,1,0,0:0:0:0:
64,192,29939,1,0,0:0:0:0:
320,192,29990,1,0,0:0:0:0:
192,192,30041,1,0,0:0:0:0:
320,192,30092,1,0,0:0:0:0:
64,192,30142,1,0,0:0:0:0:
448,192,30193,1,0,0:0:0:0:
192,192,30244,1,0,0:0:0:0:
448,192,30294,1,0,0:0:0:0:
64,192,30345,1,0,0:0:0:0:
320,192,30396,1,0,0:0:0:0:
192,192,30446,1,0,0:0:0:0:
320,192,30497,1,0,0:0:0:0:
448,192,30548,1,0,0:0:0:0:
64,192,30598,1,0,0:0:0:0:
320,192,30649,1,0,0:0:0:0:
64,192,30700,1,0,0:0:0:0:
448,192,30750,1,0,0:0:0:0:
192,192,30801,1,0,0:0:0:0:
320,192,30852,1,0,0:0:0:0:
192,192,30902,1,0,0:0:0:0:
448,192,30953,1,0,0:0:0:0:
64,192,31004,1,0,0:0:0:0:
320,192,31054,1,0,0:0:0:0:
64,192,31105,1,0,0:0:0:0:
448,192,31156,1,0,0:0:0:0:
192,192,31206,1,0,0:0:0:0:
320,192,31257,1,0,0:0:0:0:
192,192,31308,1,0,0:0:0:0:
64,192,31358,1,0,0:0:0:0:
448,192,31409,1,0,0:0:0:0:
320,192,31510,1,0,0:0:0:0:
448,192,31510,1,0,0:0:0:0:
192,192,31612,1,0,0:0:0:0:
64,192,31713,1,0,0:0:0:0:
192,192,31713,1,0,0:0:0:0:
320,192,31814,1,0,0:0:0:0:
448,192,31865,1,0,0:0:0:0:
320,192,31916,1,0,0:0:0:0:
64,192,31967,1,0,0:0:0:0:
320,192,32017,1,0,0:0:0:0:
192,192,32068,1,0,0:0:0:0:
448,192,32119,1,0,0:0:0:0:
320,192,32169,1,0,0:0:0:0:
64,192,32220,1,0,0:0:0:0:
448,192,32271,1,0,0:0:0:0:
64,192,32321,1,0,0:0:0:0:
320,192,32372,1,0,0:0:0:0:
64,192,32423,1,0,0:0:0:0:
192,192,32473,1,0,0:0:0:0:
448,192,32524,1,0,0:0:0:0:
64,192,32575,1,0,0:0:0:0:
320,192,32625,1,0,0:0:0:0:
192,192,32676,1,0,0:0:0:0:
320,192,32727,1,0,0:0:0:0:
448,192,32777,1,0,0:0:0:0:
64,192,32828,1,0,0:0:0:0:
192,192,32879,1,0,0:0:0:0:
64,192,32929,1,0,0:0:0:0:
320,192,32980,1,0,0:0:0:0:
448,192,33031,1,0,0:0:0:0:
192,192,33081,1,0,0:0:0:0:
448,192,33132,1,0,0:0:0:0:
320,192,33183,1,0,0:0:0:0:
192,192,33233,1,0,0:0:0:0:
64,192,33284,1,0,0:0:0:0:
320,192,33335,1,0,0:0:0:0:
192,192,33385,1,0,0:0:0:0:
320,192,33436,1,0,0:0:0:0:
64,192,33487,1,0,0:0:0:0:
320,192,33537,1,0,0:0:0:0:
448,192,33588,1,0,0:0:0:0:
64,192,33639,1,0,0:0:0:0:
192,192,33689,1,0,0:0:0:0:
320,192,33740,1,0,0:0:0:0:
448,192,33791,1,0,0:0:0:0:
192,192,33842,1,0,0:0:0:0:
320,192,33892,1,0,0:0:0:0:
192,192,33943,1,0,0:0:0:0:
448,192,33994,1,0,0:0:0:0:
192,192,34044,1,0,0:0:0:0:
64,192,34095,1,0,0:0:0:0:
320,192,34146,1,0,0:0:0:0:
192,192,34196,1,0,0:0:0:0:
448,192,34247,1,0,0:0:0:0:
64,192,34298,1,0,0:0:0:0:
448,192,34348,1,0,0:0:0:0:
192,192,34399,1,0,0:0:0:0:
448,192,34450,1,0,0:0:0:0:
64,192,34500,1,0,0:0:0:0:
192,192,34551,1,0,0:0:0:0:
448,192,34602,1,0,0:0:0:0:
64,192,34652,1,0,0:0:0:0:
320,192,34703,1,0,0:0:0:0:
64,192,34754,1,0,0:0:0:0:
448,192,34804,1,0,0:0:0:0:
192,192,34855,1,0,0:0:0:0:
320,192,34906,1,0,0:0:0:0:
192,192,34956,1,0,0:0:0:0:
448,192,35007,1,0,0:0:0:0:
64,192,35058,1,0,0:0:0:0:
320,192,35108,1,0,0:0:0:0:
64,192,35159,1,0,0:0:0:0:
192,192,35210,1,0,0:0:0:0:
320,192,35260,1,0,0:0:0:0:
448,192,35311,1,0,0:0:0:0:
192,192,35362,1,0,0:0:0:0:
320,192,35412,1,0,0:0:0:0:
64,192,35463,1,0,0:0:0:0:
448,192,35463,1,0,0:0:0:0:
64,192,35564,1,0,0:0:0:0:
192,192,35564,1,0,0:0:0:0:
448,192,35666,1,0,0:0:0:0:
192,192,35717,1,0,0:0:0:0:
448,192,35767,1,0,0:0:0:0:
64,192,35818,1,0,0:0:0:0:
320,192,35869,1,0,0:0:0:0:
192,192,35919,1,0,0:0:0:0:
320,192,35970,1,0,0:0:0:0:
64,192,36021,1,0,0:0:0:0:
192,192,36071,1,0,0:0:0:0:
448,192,36071,1,0,0:0:0:0:
320,192,36173,1,0,0:0:0:0:
64,192,36274,1,0,0:0:0:0:
448,192,36274,1,0,0:0:0:0:
192,192,36342,1,0,0:0:0:0:
64,192,36409,1,0,0:0:0:0:
320,192,36477,1,0,0:0:0:0:
64,192,36544,1,0,0:0:0:0:
192,192,36612,1,0,0:0:0:0:
448,192,36679,1,0,0:0:0:0:
320,192,36747,1,0,0:0:0:0:
448,192,36814,1,0,0:0:0:0:
64,192,36882,1,0,0:0:0:0:
192,192,36950,1,0,0:0:0:0:
448,192,37017,1,0,0:0:0:0:
192,192,37085,1,0,0:0:0:0:
320,192,37152,1,0,0:0:0:0:
192,192,37220,1,0,0:0:0:0:
448,192,37287,1,0,0:0:0:0:
320,192,37355,1,0,0:0:0:0:
448,192,37423,1,0,0:0:0:0:
64,192,37490,1,0,0:0:0:0:
192,192,37558,1,0,0:0:0:0:
64,192,37625,1,0,0:0:0:0:
320,192,37693,1,0,0:0:0:0:
64,192,37760,1,0,0:0:0:0:
448,192,37828,1,0,0:0:0:0:
320,192,37896,1,0,0:0:0:0:
64,192,37963,1,0,0:0:0:0:
320,192,38031,1,0,0:0:0:0:
192,192,38098,1,0,0:0:0:0:
448,192,38166,1,0,0:0:0:0:
192,192,38233,1,0,0:0:0:0:
64,192,38301,1,0,0:0:0:0:
320,192,38369,1,0,0:0:0:0:
64,192,38436,1,0,0:0:0:0:
448,192,38504,1,0,0:0:0:0:
320,192,38571,1,0,0:0:0:0:
448,192,38639,1,0,0:0:0:0:
64,192,38706,1,0,0:0:0:0:
192,192,38706,1,0,0:0:0:0:
320,192,38774,1,0,0:0:0:0:
192,192,38842,1,0,0:0:0:0:
448,192,38909,1,0,0:0:0:0:
192,192,38977,1,0,0:0:0:0:
320,192,39044,1,0,0:0:0:0:
64,192,39112,1,0,0:0:0:0:
448,192,39179,1,0,0:0:0:0:
64,192,39247,1,0,0:0:0:0:
320,192,39314,1,0,0:0:0:0:
192,192,39382,1,0,0:0:0:0:
320,192,39450,1,0,0:0:0:0:
448,192,39517,1,0,0:0:0:0:
64,192,39585,1,0,0:0:0:0:
448,192,39652,1,0,0:0:0:0:
192,192,39720,1,0,0:0:0:0:
448,192,39787,1,0,0:0:0:0:
64,192,39855,1,0,0:0:0:0:
448,192,39923,1,0,0:0:0:0:
192,192,39990,1,0,0:0:0:0:
448,192,40058,1,0,0:0:0:0:
64,192,40125,1,0,0:0:0:0:
320,192,40193,1,0,0:0:0:0:
64,192,40260,1,0,0:0:0:0:
448,192,40328,1,0,0:0:0:0:
192,192,40396,1,0,0:0:0:0:
448,192,40463,1,0,0:0:0:0:
320,192,40531,1,0,0:0:0:0:
64,192,40598,1,0,0:0:0:0:
448,192,40666,1,0,0:0:0:0:
64,192,40733,1,0,0:0:0:0:
320,192,40801,1,0,0:0:0:0:
64,192,40869,1,0,0:0:0:0:
448,192,40936,1,0,0:0:0:0:
192,192,41004,1,0,0:0:0:0:
320,192,41071,1,0,0:0:0:0:
64,192,41139,1,0,0:0:0:0:
192,192,41139,1,0,0:0:0:0:
448,192,41139,1,0,0:0:0:0:
320,192,41206,1,0,0:0:0:0:
64,192,41274,1,0,0:0:0:0:
448,192,41342,1,0,0:0:0:0:
64,192,41409,1,0,0:0:0:0:
192,192,41477,1,0,0:0:0:0:
320,192,41544,1,0,0:0:0:0:
64,192,41612,1,0,0:0:0:0:
448,192,41612,1,0,0:0:0:0:
320,192,41679,1,0,0:0:0:0:
192,192,41747,1,0,0:0:0:0:
64,192,41814,1,0,0:0:0:0:
192,192,41882,1,0,0:0:0:0:
448,192,41950,1,0,0:0:0:0:
64,192,42017,1,0,0:0:0:0:
448,192,42085,1,0,0:0:0:0:
192,192,42152,1,0,0:0:0:0:
448,192,42220,1,0,0:0:0:0:
320,192,42287,1,0,0:0:0:0:
64,192,42355,1,0,0:0:0:0:
192,192,42423,1,0,0:0:0:0:
64,192,42490,1,0,0:0:0:0:
320,192,42558,1,0,0:0:0:0:
64,192,42625,1,0,0:0:0:0:
448,192,42693,1,0,0:0:0:0:
320,192,42760,1,0,0:0:0:0:
64,192,42828,1,0,0:0:0:0:
320,192,42896,1,0,0:0:0:0:
192,192,42963,1,0,0:0:0:0:
448,192,43031,1,0,0:0:0:0:
192,192,43098,1,0,0:0:0:0:
320,192,43166,1,0,0:0:0:0:
64,192,43233,1,0,0:0:0:0:
320,192,43301,1,0,0:0:0:0:
192,192,43369,1,0,0:0:0:0:
448,192,43436,1,0,0:0:0:0:
64,192,43504,1,0,0:0:0:0:
320,192,43571,1,0,0:0:0:0:
448,192,43571,1,0,0:0:0:0:
192,192,43639,1,0,0:0:0:0:
448,192,43706,1,0,0:0:0:0:
64,192,43774,1,0,0:0:0:0:
448,192,43842,1,0,0:0:0:0:
320,192,43909,1,0,0:0:0:0:
192,192,43977,1,0,0:0:0:0:
448,192,44044,1,0,0:0:0:0:
192,192,44112,1,0,0:0:0:0:
320,192,44179,1,0,0:0:0:0:
64,192,44247,1,0,0:0:0:0:
320,192,44314,1,0,0:0:0:0:
448,192,44382,1,0,0:0:0:0:
64,192,44433,1,0,0:0:0:0:
448,192,44483,1,0,0:0:0:0:
192,192,44534,1,0,0:0:0:0:
320,192,44585,1,0,0:0:0:0:
64,192,44635,1,0,0:0:0:0:
320,192,44686,1,0,0:0:0:0:
192,192,44737,1,0,0:0:0:0:
448,192,44787,1,0,0:0:0:0:
64,192,44838,1,0,0:0:0:0:
448,192,44889,1,0,0:0:0:0:
192,192,44939,1,0,0:0:0:0:
320,192,44990,1,0,0:0:0:0:
64,192,45041,1,0,0:0:0:0:
320,192,45092,1,0,0:0:0:0:
192,192,45142,1,0,0:0:0:0:
64,192,45193,1,0,0:0:0:0:
448,192,45244,1,0,0:0:0:0:
64,192,45294,1,0,0:0:0:0:
320,192,45345,1,0,0:0:0:0:
192,192,45396,1,0,0:0:0:0:
448,192,45446,1,0,0:0:0:0:
192,192,45497,1,0,0:0:0:0:
320,192,45548,1,0,0:0:0:0:
64,192,45598,1,0,0:0:0:0:
448,192,45649,1,0,0:0:0:0:
64,192,45700,1,0,0:0:0:0:
320,192,45750,1,0,0:0:0:0:
192,192,45801,1,0,0:0:0:0:
448,192,45852,1,0,0:0:0:0:
192,192,45902,1,0,0:0:0:0:
320,192,45953,1,0,0:0:0:0:
64,192,46004,1,0,0:0:0:0:
448,192,46004,1,0,0:0:0:0:
192,192,46071,1,0,0:0:0:0:
64,192,46139,1,0,0:0:0:0:
448,192,46206,1,0,0:0:0:0:
192,192,46274,1,0,0:0:0:0:
448,192,46342,1,0,0:0:0:0:
320,192,46409,1,0,0:0:0:0:
64,192,46477,1,0,0:0:0:0:
320,192,46544,1,0,0:0:0:0:
192,192,46612,1,0,0:0:0:0:
320,192,46679,1,0,0:0:0:0:
64,192,46747,1,0,0:0:0:0:
320,192,46814,1,0,0:0:0:0:
192,192,46882,1,0,0:0:0:0:
320,192,46950,1,0,0:0:0:0:
64,192,47017,1,0,0:0:0:0:
192,192,47085,1,0,0:0:0:0:
448,192,47152,1,0,0:0:0:0:
192,192,47220,1,0,0:0:0:0:
320,192,47287,1,0,0:0:0:0:
192,192,47355,1,0,0:0:0:0:
64,192,47423,1,0,0:0:0:0:
320,192,47490,1,0,0:0:0:0:
192,192,47558,1,0,0:0:0:0:
64,192,47625,1,0,0:0:0:0:
320,192,47625,1,0,0:0:0:0:
448,192,47625,1,0,0:0:0:0:
192,192,47693,1,0,0:0:0:0:
448,192,47760,1,0,0:0:0:0:
64,192,47828,1,0,0:0:0:0:
448,192,47896,1,0,0:0:0:0:
320,192,47963,1,0,0:0:0:0:
192,192,48031,1,0,0:0:0:0:
448,192,48098,1,0,0:0:0:0:
192,192,48166,1,0,0:0:0:0:
64,192,48233,1,0,0:0:0:0:
320,192,48301,1,0,0:0:0:0:
64,192,48369,1,0,0:0:0:0:
320,192,48436,1,0,0:0:0:0:
448,192,48436,1,0,0:0:0:0:
192,192,48537,1,0,0:0:0:0:
320,192,48537,1,0,0:0:0:0:
320,192,48639,1,0,0:0:0:0:
448,192,48639,1,0,0:0:0:0:
64,192,48706,1,0,0:0:0:0:
192,192,48774,1,0,0:0:0:0:
448,192,48842,1,0,0:0:0:0:
64,192,48909,1,0,0:0:0:0:
448,192,48977,1,0,0:0:0:0:
192,192,49044,1,0,0:0:0:0:
320,192,49112,1,0,0:0:0:0:
192,192,49179,1,0,0:0:0:0:
64,192,49247,1,0,0:0:0:0:
448,192,49314,1,0,0:0:0:0:
64,192,49382,1,0,0:0:0:0:
320,192,49450,1,0,0:0:0:0:
192,192,49517,1,0,0:0:0:0:
320,192,49585,1,0,0:0:0:0:
64,192,49652,1,0,0:0:0:0:
192,192,49652,1,0,0:0:0:0:
192,192,49754,1,0,0:0:0:0:
320,192,49754,1,0,0:0:0:0:
64,192,49855,1,0,0:0:0:0:
192,192,49855,1,0,0:0:0:0:
448,192,49923,1,0,0:0:0:0:
320,192,49990,1,0,0:0:0:0:
192,192,50058,1,0,0:0:0:0:
64,192,50125,1,0,0:0:0:0:
320,192,50159,1,0,0:0:0:0:
448,192,50159,1,0,0:0:0:0:
192,192,50260,1,0,0:0:0:0:
320,192,50260,1,0,0:0:0:0:
320,192,50362,1,0,0:0:0:0:
448,192,50362,1,0,0:0:0:0:
64,192,50396,1,0,0:0:0:0:
192,192,50463,1,0,0:0:0:0:
320,192,50531,1,0,0:0:0:0:
448,192,50598,1,0,0:0:0:0:
64,192,50666,1,0,0:0:0:0:
192,192,50666,1,0,0:0:0:0:
192,192,50767,1,0,0:0:0:0:
320,192,50767,1,0,0:0:0:0:
64,192,50869,1,0,0:0:0:0:
192,192,50869,1,0,0:0:0:0:
448,192,50936,1,0,0:0:0:0:
64,192,51004,1,0,0:0:0:0:
320,192,51071,1,0,0:0:0:0:
64,192,51139,1,0,0:0:0:0:
192,192,51206,1,0,0:0:0:0:
448,192,51274,1,0,0:0:0:0:
320,192,51342,1,0,0:0:0:0:
448,192,51409,1,0,0:0:0:0:
64,192,51477,1,0,0:0:0:0:
192,192,51544,1,0,0:0:0:0:
64,192,51612,1,0,0:0:0:0:
448,192,51679,1,0,0:0:0:0:
192,192,51747,1,0,0:0:0:0:
448,192,51814,1,0,0:0:0:0:
64,192,51882,1,0,0:0:0:0:
320,192,51950,1,0,0:0:0:0:
192,192,52017,1,0,0:0:0:0:
320,192,52085,1,0,0:0:0:0:
64,192,52152,1,0,0:0:0:0:
320,192,52220,1,0,0:0:0:0:
448,192,52287,1,0,0:0:0:0:
192,192,52355,1,0,0:0:0:0:
320,192,52423,1,0,0:0:0:0:
64,192,52490,1,0,0:0:0:0:
192,192,52490,1,0,0:0:0:0:
448,192,52490,1,0,0:0:0:0:
320,192,52558,1,0,0:0:0:0:
64,192,52625,1,0,0:0:0:0:
448,192,52693,1,0,0:0:0:0:
192,192,52760,1,0,0:0:0:0:
320,192,52828,1,0,0:0:0:0:
192,192,52896,1,0,0:0:0:0:
448,192,52963,1,0,0:0:0:0:
192,192,53031,1,0,0:0:0:0:
64,192,53098,1,0,0:0:0:0:
320,192,53166,1,0,0:0:0:0:
448,192,53233,1,0,0:0:0:0:
64,192,53301,1,0,0:0:0:0:
192,192,53369,1,0,0:0:0:0:
64,192,53436,1,0,0:0:0:0:
448,192,53504,1,0,0:0:0:0:
64,192,53571,1,0,0:0:0:0:
320,192,53639,1,0,0:0:0:0:
448,192,53706,1,0,0:0:0:0:
192,192,53774,1,0,0:0:0:0:
448,192,53842,1,0,0:0:0:0:
64,192,53909,1,0,0:0:0:0:
448,192,53977,1,0,0:0:0:0:
192,192,54044,1,0,0:0:0:0:
448,192,54112,1,0,0:0:0:0:
64,192,54179,1,0,0:0:0:0:
448,192,54247,1,0,0:0:0:0:
192,192,54314,1,0,0:0:0:0:
320,192,54382,1,0,0:0:0:0:
192,192,54450,1,0,0:0:0:0:
448,192,54517,1,0,0:0:0:0:
64,192,54585,1,0,0:0:0:0:
448,192,54652,1,0,0:0:0:0:
192,192,54720,1,0,0:0:0:0:
320,192,54787,1,0,0:0:0:0:
192,192,54855,1,0,0:0:0:0:
448,192,54923,1,0,0:0:0:0:
64,192,54973,1,0,0:0:0:0:
448,192,55024,1,0,0:0:0:0:
192,192,55075,1,0,0:0:0:0:
320,192,55125,1,0,0:0:0:0:
64,192,55176,1,0,0:0:0:0:
320,192,55227,1,0,0:0:0:0:
192,192,55277,1,0,0:0:0:0:
64,192,55328,1,0,0:0:0:0:
448,192,55379,1,0,0:0:0:0:
64,192,55429,1,0,0:0:0:0:
320,192,55480,1,0,0:0:0:0:
192,192,55531,1,0,0:0:0:0:
448,192,55581,1,0,0:0:0:0:
192,192,55632,1,0,0:0:0:0:
320,192,55683,1,0,0:0:0:0:
64,192,55733,1,0,0:0:0:0:
448,192,55733,1,0,0:0:0:0:
192,192,55784,1,0,0:0:0:0:
448,192,55835,1,0,0:0:0:0:
64,192,55885,1,0,0:0:0:0:
448,192,55936,1,0,0:0:0:0:
192,192,55987,1,0,0:0:0:0:
320,192,56037,1,0,0:0:0:0:
64,192,56088,1,0,0:0:0:0:
192,192,56139,1,0,0:0:0:0:
320,192,56189,1,0,0:0:0:0:
192,192,56240,1,0,0:0:0:0:
448,192,56291,1,0,0:0:0:0:
192,192,56342,1,0,0:0:0:0:
320,192,56392,1,0,0:0:0:0:
64,192,56443,1,0,0:0:0:0:
192,192,56494,1,0,0:0:0:0:
320,192,56544,1,0,0:0:0:0:
64,192,56595,1,0,0:0:0:0:
320,192,56646,1,0,0:0:0:0:
192,192,56696,1,0,0:0:0:0:
320,192,56747,1,0,0:0:0:0:
64,192,56798,1,0,0:0:0:0:
448,192,56848,1,0,0:0:0:0:
320,192,56899,1,0,0:0:0:0:
192,192,56950,1,0,0:0:0:0:
448,192,57000,1,0,0:0:0:0:
192,192,57051,1,0,0:0:0:0:
320,192,57102,1,0,0:0:0:0:
64,192,57152,1,0,0:0:0:0:
448,192,57203,1,0,0:0:0:0:
64,192,57254,1,0,0:0:0:0:
320,192,57304,1,0,0:0:0:0:
192,192,57355,1,0,0:0:0:0:
448,192,57406,1,0,0:0:0:0:
192,192,57456,1,0,0:0:0:0:
320,192,57507,1,0,0:0:0:0:
448,192,57558,1,0,0:0:0:0:
192,192,57608,1,0,0:0:0:0:
64,192,57659,1,0,0:0:0:0:
320,192,57710,1,0,0:0:0:0:
64,192,57760,1,0,0:0:0:0:
448,192,57811,1,0,0:0:0:0:
64,192,57862,1,0,0:0:0:0:
192,192,57912,1,0,0:0:0:0:
320,192,57963,1,0,0:0:0:0:
448,192,58014,1,0,0:0:0:0:
320,192,58064,1,0,0:0:0:0:
192,192,58115,1,0,0:0:0:0:
64,192,58166,1,0,0:0:0:0:
448,192,58166,1,0,0:0:0:0:
64,192,58267,1,0,0:0:0:0:
192,192,58267,1,0,0:0:0:0:
320,192,58369,1,0,0:0:0:0:
192,192,58419,1,0,0:0:0:0:
320,192,58470,1,0,0:0:0:0:
64,192,58521,1,0,0:0:0:0:
448,192,58571,1,0,0:0:0:0:
192,192,58622,1,0,0:0:0:0:
448,192,58673,1,0,0:0:0:0:
320,192,58723,1,0,0:0:0:0:
64,192,58774,1,0,0:0:0:0:
320,192,58825,1,0,0:0:0:0:
192,192,58875,1,0,0:0:0:0:
448,192,58926,1,0,0:0:0:0:
64,192,58977,1,0,0:0:0:0:
320,192,59027,1,0,0:0:0:0:
64,192,59078,1,0,0:0:0:0:
448,192,59129,1,0,0:0:0:0:
192,192,59179,1,0,0:0:0:0:
320,192,59230,1,0,0:0:0:0:
64,192,59281,1,0,0:0:0:0:
192,192,59281,1,0,0:0:0:0:
64,192,59382,1,0,0:0:0:0:
448,192,59382,1,0,0:0:0:0:
448,192,59483,1,0,0:0:0:0:
64,192,59534,1,0,0:0:0:0:
320,192,59585,1,0,0:0:0:0:
192,192,59635,1,0,0:0:0:0:
320,192,59686,1,0,0:0:0:0:
64,192,59737,1,0,0:0:0:0:
320,192,59787,1,0,0:0:0:0:
448,192,59787,1,0,0:0:0:0:
64,192,59889,1,0,0:0:0:0:
192,192,59889,1,0,0:0:0:0:
64,192,59990,1,0,0:0:0:0:
448,192,60041,1,0,0:0:0:0:
192,192,60092,1,0,0:0:0:0:
64,192,60142,1,0,0:0:0:0:
320,192,60193,1,0,0:0:0:0:
448,192,60244,1,0,0:0:0:0:
320,192,60294,1,0,0:0:0:0:
64,192,60345,1,0,0:0:0:0:
192,192,60396,1,0,0:0:0:0:
448,192,60446,1,0,0:0:0:0:
192,192,60497,1,0,0:0:0:0:
64,192,60548,1,0,0:0:0:0:
320,192,60598,1,0,0:0:0:0:
448,192,60598,1,0,0:0:0:0:
64,192,60700,1,0,0:0:0:0:
448,192,60700,1,0,0:0:0:0:
448,192,60801,1,0,0:0:0:0:
192,192,60852,1,0,0:0:0:0:
320,192,60902,1,0,0:0:0:0:
64,192,60953,1,0,0:0:0:0:
192,192,61004,1,0,0:0:0:0:
320,192,61054,1,0,0:0:0:0:
192,192,61105,1,0,0:0:0:0:
448,192,61156,1,0,0:0:0:0:
320,192,61206,1,0,0:0:0:0:
192,192,61257,1,0,0:0:0:0:
64,192,61308,1,0,0:0:0:0:
320,192,61358,1,0,0:0:0:0:
64,192,61409,1,0,0:0:0:0:
448,192,61460,1,0,0:0:0:0:
64,192,61510,1,0,0:0:0:0:
320,192,61561,1,0,0:0:0:0:
192,192,61612,1,0,0:0:0:0:
448,192,61662,1,0,0:0:0:0:
320,192,61713,1,0,0:0:0:0:
64,192,61764,1,0,0:0:0:0:
320,192,61814,1,0,0:0:0:0:
192,192,61865,1,0,0:0:0:0:
448,192,61916,1,0,0:0:0:0:
64,192,61967,1,0,0:0:0:0:
448,192,62017,1,0,0:0:0:0:
320,192,62068,1,0,0:0:0:0:
64,192,62119,1,0,0:0:0:0:
192,192,62169,1,0,0:0:0:0:
320,192,62220,1,0,0:0:0:0:
64,192,62271,1,0,0:0:0:0:
320,192,62321,1,0,0:0:0:0:
448,192,62372,1,0,0:0:0:0:
192,192,62423,1,0,0:0:0:0:
320,192,62473,1,0,0:0:0:0:
64,192,62524,1,0,0:0:0:0:
448,192,62575,1,0,0:0:0:0:
64,192,62625,1,0,0:0:0:0:
320,192,62676,1,0,0:0:0:0:
192,192,62727,1,0,0:0:0:0:
448,192,62777,1,0,0:0:0:0:
192,192,62828,1,0,0:0:0:0:
64,192,62879,1,0,0:0:0:0:
320,192,62929,1,0,0:0:0:0:
192,192,62980,1,0,0:0:0:0:
448,192,63031,1,0,0:0:0:0:
64,192,63081,1,0,0:0:0:0:
448,192,63132,1,0,0:0:0:0:
192,192,63183,1,0,0:0:0:0:
448,192,63233,1,0,0:0:0:0:
320,192,63284,1,0,0:0:0:0:
192,192,63335,1,0,0:0:0:0:
64,192,63385,1,0,0:0:0:0:
320,192,63436,1,0,0:0:0:0:
448,192,63487,1,0,0:0:0:0:
320,192,63537,1,0,0:0:0:0:
192,192,63588,1,0,0:0:0:0:
64,192,63639,1,0,0:0:0:0:
448,192,63689,1,0,0:0:0:0:
64,192,63740,1,0,0:0:0:0:
192,192,63791,1,0,0:0:0:0:
320,192,63842,1,0,0:0:0:0:
64,192,63892,1,0,0:0:0:0:
320,192,63943,1,0,0:0:0:0:
192,192,63994,1,0,0:0:0:0:
448,192,64044,1,0,0:0:0:0:
64,192,64095,1,0,0:0:0:0:
448,192,64146,1,0,0:0:0:0:
192,192,64196,1,0,0:0:0:0:
320,192,64247,1,0,0:0:0:0:
64,192,64298,1,0,0:0:0:0:
320,192,64348,1,0,0:0:0:0:
192,192,64399,1,0,0:0:0:0:
448,192,64450,1,0,0:0:0:0:
64,192,64500,1,0,0:0:0:0:
448,192,64551,1,0,0:0:0:0:
320,192,64602,1,0,0:0:0:0:
192,192,64652,1,0,0:0:0:0:
448,192,64703,1,0,0:0:0:0:
192,192,64754,1,0,0:0:0:0:
320,192,64804,1,0,0:0:0:0:
64,192,64855,1,0,0:0:0:0:
448,192,64906,1,0,0:0:0:0:
64,192,64956,1,0,0:0:0:0:
320,192,65007,1,0,0:0:0:0:
192,192,65058,1,0,0:0:0:0:
448,192,65108,1,0,0:0:0:0:
192,192,65159,1,0,0:0:0:0:
320,192,65210,1,0,0:0:0:0:
64,192,65260,1,0,0:0:0:0:
448,192,65311,1,0,0:0:0:0:
64,192,65362,1,0,0:0:0:0:
320,192,65412,1,0,0:0:0:0:
64,192,65463,1,0,0:0:0:0:
192,192,65463,1,0,0:0:0:0:
448,192,65463,1,0,0:0:0:0:
320,192,65531,1,0,0:0:0:0:
192,192,65598,1,0,0:0:0:0:
448,192,65666,1,0,0:0:0:0:
192,192,65733,1,0,0:0:0:0:
320,192,65801,1,0,0:0:0:0:
448,192,65869,1,0,0:0:0:0:
64,192,65936,1,0,0:0:0:0:
448,192,66004,1,0,0:0:0:0:
192,192,66071,1,0,0:0:0:0:
64,192,66139,1,0,0:0:0:0:
448,192,66206,1,0,0:0:0:0:
64,192,66274,1,0,0:0:0:0:
320,192,66342,1,0,0:0:0:0:
64,192,66409,1,0,0:0:0:0:
192,192,66477,1,0,0:0:0:0:
64,192,66544,1,0,0:0:0:0:
320,192,66612,1,0,0:0:0:0:
64,192,66679,1,0,0:0:0:0:
448,192,66747,1,0,0:0:0:0:
64,192,66814,1,0,0:0:0:0:
320,192,66882,1,0,0:0:0:0:
192,192,66950,1,0,0:0:0:0:
320,192,67017,1,0,0:0:0:0:
448,192,67085,1,0,0:0:0:0:
192,192,67152,1,0,0:0:0:0:
448,192,67220,1,0,0:0:0:0:
64,192,67287,1,0,0:0:0:0:
320,192,67355,1,0,0:0:0:0:
64,192,67423,1,0,0:0:0:0:
192,192,67490,1,0,0:0:0:0:
448,192,67558,1,0,0:0:0:0:
192,192,67625,1,0,0:0:0:0:
320,192,67693,1,0,0:0:0:0:
64,192,67760,1,0,0:0:0:0:
320,192,67828,1,0,0:0:0:0:
192,192,67896,1,0,0:0:0:0:
448,192,67896,1,0,0:0:0:0:
64,192,67963,1,0,0:0:0:0:
448,192,68031,1,0,0:0:0:0:
192,192,68098,1,0,0:0:0:0:
448,192,68166,1,0,0:0:0:0:
64,192,68233,1,0,0:0:0:0:
192,192,68301,1,0,0:0:0:0:
320,192,68369,1,0,0:0:0:0:
192,192,68436,1,0,0:0:0:0:
448,192,68504,1,0,0:0:0:0:
64,192,68571,1,0,0:0:0:0:
448,192,68639,1,0,0:0:0:0:
192,192,68706,1,0,0:0:0:0:
320,192,68706,1,0,0:0:0:0:
320,192,68808,1,0,0:0:0:0:
448,192,68808,1,0,0:0:0:0:
64,192,68909,1,0,0:0:0:0:
192,192,68909,1,0,0:0:0:0:
448,192,68977,1,0,0:0:0:0:
64,192,69044,1,0,0:0:0:0:
320,192,69112,1,0,0:0:0:0:
192,192,69179,1,0,0:0:0:0:
320,192,69247,1,0,0:0:0:0:
64,192,69314,1,0,0:0:0:0:
320,192,69382,1,0,0:0:0:0:
192,192,69450,1,0,0:0:0:0:
320,192,69517,1,0,0:0:0:0:
64,192,69585,1,0,0:0:0:0:
448,192,69652,1,0,0:0:0:0:
192,192,69720,1,0,0:0:0:0:
448,192,69787,1,0,0:0:0:0:
64,192,69855,1,0,0:0:0:0:
448,192,69923,1,0,0:0:0:0:
192,192,69990,1,0,0:0:0:0:
448,192,70058,1,0,0:0:0:0:
64,192,70125,1,0,0:0:0:0:
320,192,70193,1,0,0:0:0:0:
64,192,70260,1,0,0:0:0:0:
192,192,70328,1,0,0:0:0:0:
448,192,70328,1,0,0:0:0:0:
320,192,70396,1,0,0:0:0:0:
192,192,70463,1,0,0:0:0:0:
448,192,70531,1,0,0:0:0:0:
192,192,70598,1,0,0:0:0:0:
64,192,70666,1,0,0:0:0:0:
448,192,70733,1,0,0:0:0:0:
320,192,70801,1,0,0:0:0:0:
448,192,70869,1,0,0:0:0:0:
192,192,70936,1,0,0:0:0:0:
64,192,71004,1,0,0:0:0:0:
320,192,71071,1,0,0:0:0:0:
64,192,71139,1,0,0:0:0:0:
448,192,71206,1,0,0:0:0:0:
64,192,71274,1,0,0:0:0:0:
320,192,71342,1,0,0:0:0:0:
64,192,71409,1,0,0:0:0:0:
192,192,71477,1,0,0:0:0:0:
448,192,71544,1,0,0:0:0:0:
320,192,71612,1,0,0:0:0:0:
448,192,71679,1,0,0:0:0:0:
64,192,71747,1,0,0:0:0:0:
320,192,71814,1,0,0:0:0:0:
192,192,71882,1,0,0:0:0:0:
64,192,71950,1,0,0:0:0:0:
320,192,71950,1,0,0:0:0:0:
448,192,71950,1,0,0:0:0:0:
192,192,72017,1,0,0:0:0:0:
448,192,72085,1,0,0:0:0:0:
64,192,72152,1,0,0:0:0:0:
320,192,72220,1,0,0:0:0:0:
64,192,72287,1,0,0:0:0:0:
448,192,72355,1,0,0:0:0:0:
320,192,72423,1,0,0:0:0:0:
448,192,72490,1,0,0:0:0:0:
64,192,72558,1,0,0:0:0:0:
192,192,72625,1,0,0:0:0:0:
64,192,72693,1,0,0:0:0:0:
320,192,72760,1,0,0:0:0:0:
192,192,72828,1,0,0:0:0:0:
320,192,72896,1,0,0:0:0:0:
64,192,72963,1,0,0:0:0:0:
320,192,73031,1,0,0:0:0:0:
448,192,73098,1,0,0:0:0:0:
192,192,73166,1,0,0:0:0:0:
320,192,73233,1,0,0:0:0:0:
192,192,73301,1,0,0:0:0:0:
448,192,73369,1,0,0:0:0:0:
192,192,73436,1,0,0:0:0:0:
64,192,73504,1,0,0:0:0:0:
448,192,73571,1,0,0:0:0:0:
192,192,73639,1,0,0:0:0:0:
448,192,73706,1,0,0:0:0:0:
320,192,73774,1,0,0:0:0:0:
64,192,73842,1,0,0:0:0:0:
448,192,73909,1,0,0:0:0:0:
64,192,73977,1,0,0:0:0:0:
320,192,74044,1,0,0:0:0:0:
64,192,74112,1,0,0:0:0:0:
448,192,74179,1,0,0:0:0:0:
192,192,74247,1,0,0:0:0:0:
320,192,74314,1,0,0:0:0:0:
64,192,74382,1,0,0:0:0:0:
448,192,74433,1,0,0:0:0:0:
64,192,74483,1,0,0:0:0:0:
320,192,74534,1,0,0:0:0:0:
192,192,74585,1,0,0:0:0:0:
448,192,74635,1,0,0:0:0:0:
192,192,74686,1,0,0:0:0:0:
320,192,74737,1,0,0:0:0:0:
448,192,74787,1,0,0:0:0:0:
64,192,74838,1,0,0:0:0:0:
448,192,74889,1,0,0:0:0:0:
192,192,74939,1,0,0:0:0:0:
320,192,74990,1,0,0:0:0:0:
64,192,75041,1,0,0:0:0:0:
320,192,75092,1,0,0:0:0:0:
192,192,75142,1,0,0:0:0:0:
64,192,75193,1,0,0:0:0:0:
448,192,75193,1,0,0:0:0:0:
320,192,75260,1,0,0:0:0:0:
448,192,75328,1,0,0:0:0:0:
192,192,75396,1,0,0:0:0:0:
448,192,75463,1,0,0:0:0:0:
320,192,75531,1,0,0:0:0:0:
64,192,75598,1,0,0:0:0:0:
192,192,75666,1,0,0:0:0:0:
64,192,75733,1,0,0:0:0:0:
320,192,75801,1,0,0:0:0:0:
64,192,75869,1,0,0:0:0:0:
192,192,75936,1,0,0:0:0:0:
448,192,76004,1,0,0:0:0:0:
64,192,76071,1,0,0:0:0:0:
448,192,76139,1,0,0:0:0:0:
192,192,76206,1,0,0:0:0:0:
320,192,76274,1,0,0:0:0:0:
64,192,76342,1,0,0:0:0:0:
320,192,76409,1,0,0:0:0:0:
192,192,76477,1,0,0:0:0:0:
320,192,76544,1,0,0:0:0:0:
64,192,76612,1,0,0:0:0:0:
320,192,76679,1,0,0:0:0:0:
192,192,76747,1,0,0:0:0:0:
320,192,76814,1,0,0:0:0:0:
64,192,76882,1,0,0:0:0:0:
320,192,76950,1,0,0:0:0:0:
448,192,77017,1,0,0:0:0:0:
192,192,77085,1,0,0:0:0:0:
320,192,77152,1,0,0:0:0:0:
64,192,77220,1,0,0:0:0:0:
448,192,77287,1,0,0:0:0:0:
64,192,77355,1,0,0:0:0:0:
320,192,77423,1,0,0:0:0:0:
192,192,77490,1,0,0:0:0:0:
320,192,77558,1,0,0:0:0:0:
64,192,77625,1,0,0:0:0:0:
448,192,77625,1,0,0:0:0:0:
192,192,77693,1,0,0:0:0:0:
448,192,77760,1,0,0:0:0:0:
64,192,77828,1,0,0:0:0:0:
320,192,77896,1,0,0:0:0:0:
64,192,77963,1,0,0:0:0:0:
192,192,78031,1,0,0:0:0:0:
448,192,78098,1,0,0:0:0:0:
192,192,78166,1,0,0:0:0:0:
320,192,78233,1,0,0:0:0:0:
192,192,78301,1,0,0:0:0:0:
448,192,78369,1,0,0:0:0:0:
192,192,78436,1,0,0:0:0:0:
320,192,78504,1,0,0:0:0:0:
192,192,78571,1,0,0:0:0:0:
64,192,78639,1,0,0:0:0:0:
320,192,78706,1,0,0:0:0:0:
192,192,78774,1,0,0:0:0:0:
448,192,78842,1,0,0:0:0:0:
320,192,78909,1,0,0:0:0:0:
448,192,78977,1,0,0:0:0:0:
192,192,79044,1,0,0:0:0:0:
448,192,79112,1,0,0:0:0:0:
64,192,79179,1,0,0:0:0:0:
448,192,79247,1,0,0:0:0:0:
192,192,79314,1,0,0:0:0:0:
448,192,79382,1,0,0:0:0:0:
320,192,79450,1,0,0:0:0:0:
64,192,79517,1,0,0:0:0:0:
192,192,79585,1,0,0:0:0:0:
64,192,79652,1,0,0:0:0:0:
320,192,79720,1,0,0:0:0:0:
64,192,79787,1,0,0:0:0:0:
448,192,79855,1,0,0:0:0:0:
192,192,79923,1,0,0:0:0:0:
320,192,79990,1,0,0:0:0:0:
64,192,80058,1,0,0:0:0:0:
448,192,80058,1,0,0:0:0:0:
192,192,80125,1,0,0:0:0:0:
448,192,80193,1,0,0:0:0:0:
64,192,80260,1,0,0:0:0:0:
320,192,80328,1,0,0:0:0:0:
192,192,80396,1,0,0:0:0:0:
320,192,80463,1,0,0:0:0:0:
64,192,80531,1,0,0:0:0:0:
320,192,80598,1,0,0:0:0:0:
448,192,80666,1,0,0:0:0:0:
64,192,80733,1,0,0:0:0:0:
320,192,80801,1,0,0:0:0:0:
192,192,80869,1,0,0:0:0:0:
448,192,80936,1,0,0:0:0:0:
192,192,81004,1,0,0:0:0:0:
320,192,81071,1,0,0:0:0:0:
64,192,81139,1,0,0:0:0:0:
448,192,81206,1,0,0:0:0:0:
64,192,81274,1,0,0:0:0:0:
320,192,81342,1,0,0:0:0:0:
64,192,81409,1,0,0:0:0:0:
192,192,81477,1,0,0:0:0:0:
320,192,81544,1,0,0:0:0:0:
64,192,81612,1,0,0:0:0:0:
448,192,81679,1,0,0:0:0:0:
192,192,81747,1,0,0:0:0:0:
448,192,81814,1,0,0:0:0:0:
320,192,81882,1,0,0:0:0:0:
64,192,81899,1,0,0:0:0:0:
192,192,81899,1,0,0:0:0:0:
448,192,81950,1,0,0:0:0:0:
64,192,82017,1,0,0:0:0:0:
448,192,82085,1,0,0:0:0:0:
320,192,82152,1,0,0:0:0:0:
64,192,82203,1,0,0:0:0:0:
192,192,82203,1,0,0:0:0:0:
448,192,82220,1,0,0:0:0:0:
320,192,82287,1,0,0:0:0:0:
192,192,82355,1,0,0:0:0:0:
448,192,82423,1,0,0:0:0:0:
64,192,82490,1,0,0:0:0:0:
192,192,82490,1,0,0:0:0:0:
320,192,82490,1,0,0:0:0:0:
448,192,82558,1,0,0:0:0:0:
64,192,82625,1,0,0:0:0:0:
320,192,82693,1,0,0:0:0:0:
448,192,82760,1,0,0:0:0:0:
64,192,82777,1,0,0:0:0:0:
192,192,82777,1,0,0:0:0:0:
320,192,82828,1,0,0:0:0:0:
192,192,82896,1,0,0:0:0:0:
448,192,82963,1,0,0:0:0:0:
64,192,83022,1,0,0:0:0:0:
192,192,83022,1,0,0:0:0:0:
320,192,83031,1,0,0:0:0:0:
448,192,83098,1,0,0:0:0:0:
64,192,83166,1,0,0:0:0:0:
64,192,83250,1,0,0:0:0:0:
192,192,83250,1,0,0:0:0:0:
320,192,83301,1,0,0:0:0:0:
448,192,83301,1,0,0:0:0:0:
192,192,83369,1,0,0:0:0:0:
448,192,83436,1,0,0:0:0:0:
64,192,83461,1,0,0:0:0:0:
192,192,83461,1,0,0:0:0:0:
320,192,83504,1,0,0:0:0:0:
448,192,83571,1,0,0:0:0:0:
320,192,83639,1,0,0:0:0:0:
64,192,83664,1,0,0:0:0:0:
192,192,83664,1,0,0:0:0:0:
448,192,83706,1,0,0:0:0:0:
64,192,83774,1,0,0:0:0:0:
320,192,83842,1,0,0:0:0:0:
64,192,83850,1,0,0:0:0:0:
192,192,83850,1,0,0:0:0:0:
448,192,83909,1,0,0:0:0:0:
320,192,83977,1,0,0:0:0:0:
192,192,84044,1,0,0:0:0:0:
64,192,84112,1,0,0:0:0:0:
448,192,84112,1,0,0:0:0:0:
192,192,84162,1,0,0:0:0:0:
448,192,84213,1,0,0:0:0:0:
64,192,84264,1,0,0:0:0:0:
320,192,84314,1,0,0:0:0:0:
192,192,84365,1,0,0:0:0:0:
320,192,84416,1,0,0:0:0:0:
448,192,84467,1,0,0:0:0:0:
64,192,84517,1,0,0:0:0:0:
320,192,84568,1,0,0:0:0:0:
64,192,84619,1,0,0:0:0:0:
448,192,84669,1,0,0:0:0:0:
192,192,84720,1,0,0:0:0:0:
320,192,84771,1,0,0:0:0:0:
192,192,84821,1,0,0:0:0:0:
64,192,84872,1,0,0:0:0:0:
320,192,84923,1,0,0:0:0:0:
448,192,84923,1,0,0:0:0:0:
192,192,84973,1,0,0:0:0:0:
448,192,85024,1,0,0:0:0:0:
64,192,85075,1,0,0:0:0:0:
448,192,85125,1,0,0:0:0:0:
192,192,85176,1,0,0:0:0:0:
64,192,85227,1,0,0:0:0:0:
448,192,85277,1,0,0:0:0:0:
320,192,85328,1,0,0:0:0:0:
192,192,85379,1,0,0:0:0:0:
320,192,85429,1,0,0:0:0:0:
64,192,85480,1,0,0:0:0:0:
448,192,85531,1,0,0:0:0:0:
320,192,85581,1,0,0:0:0:0:
192,192,85632,1,0,0:0:0:0:
448,192,85683,1,0,0:0:0:0:
192,192,85733,1,0,0:0:0:0:
320,192,85784,1,0,0:0:0:0:
64,192,85835,1,0,0:0:0:0:
448,192,85885,1,0,0:0:0:0:
64,192,85936,1,0,0:0:0:0:
192,192,85987,1,0,0:0:0:0:
320,192,86037,1,0,0:0:0:0:
448,192,86088,1,0,0:0:0:0:
64,192,86139,1,0,0:0:0:0:
192,192,86189,1,0,0:0:0:0:
64,192,86240,1,0,0:0:0:0:
320,192,86291,1,0,0:0:0:0:
192,192,86342,1,0,0:0:0:0:
448,192,86392,1,0,0:0:0:0:
320,192,86443,1,0,0:0:0:0:
64,192,86494,1,0,0:0:0:0:
320,192,86544,1,0,0:0:0:0:
192,192,86595,1,0,0:0:0:0:
448,192,86646,1,0,0:0:0:0:
64,192,86696,1,0,0:0:0:0:
448,192,86747,1,0,0:0:0:0:
320,192,86798,1,0,0:0:0:0:
192,192,86848,1,0,0:0:0:0:
448,192,86899,1,0,0:0:0:0:
64,192,86950,1,0,0:0:0:0:
320,192,87000,1,0,0:0:0:0:
64,192,87051,1,0,0:0:0:0:
448,192,87102,1,0,0:0:0:0:
64,192,87152,1,0,0:0:0:0:
320,192,87203,1,0,0:0:0:0:
192,192,87254,1,0,0:0:0:0:
448,192,87304,1,0,0:0:0:0:
64,192,87355,1,0,0:0:0:0:
320,192,87355,1,0,0:0:0:0:
192,192,87406,1,0,0:0:0:0:
320,192,87456,1,0,0:0:0:0:
448,192,87507,1,0,0:0:0:0:
192,192,87558,1,0,0:0:0:0:
320,192,87608,1,0,0:0:0:0:
192,192,87659,1,0,0:0:0:0:
64,192,87710,1,0,0:0:0:0:
448,192,87760,1,0,0:0:0:0:
320,192,87811,1,0,0:0:0:0:
448,192,87862,1,0,0:0:0:0:
192,192,87912,1,0,0:0:0:0:
64,192,87963,1,0,0:0:0:0:
320,192,88014,1,0,0:0:0:0:
64,192,88064,1,0,0:0:0:0:
192,192,88115,1,0,0:0:0:0:
448,192,88166,1,0,0:0:0:0:
64,192,88217,1,0,0:0:0:0:
448,192,88267,1,0,0:0:0:0:
192,192,88318,1,0,0:0:0:0:
320,192,88369,1,0,0:0:0:0:
64,192,88419,1,0,0:0:0:0:
320,192,88470,1,0,0:0:0:0:
448,192,88521,1,0,0:0:0:0:
64,192,88571,1,0,0:0:0:0:
192,192,88571,1,0,0:0:0:0:
320,192,88673,1,0,0:0:0:0:
448,192,88673,1,0,0:0:0:0:
192,192,88774,1,0,0:0:0:0:
320,192,88825,1,0,0:0:0:0:
448,192,88875,1,0,0:0:0:0:
192,192,88926,1,0,0:0:0:0:
64,192,88977,1,0,0:0:0:0:
320,192,89027,1,0,0:0:0:0:
64,192,89078,1,0,0:0:0:0:
448,192,89129,1,0,0:0:0:0:
192,192,89179,1,0,0:0:0:0:
320,192,89230,1,0,0:0:0:0:
192,192,89281,1,0,0:0:0:0:
448,192,89331,1,0,0:0:0:0:
64,192,89382,1,0,0:0:0:0:
320,192,89433,1,0,0:0:0:0:
64,192,89483,1,0,0:0:0:0:
192,192,89534,1,0,0:0:0:0:
320,192,89585,1,0,0:0:0:0:
448,192,89585,1,0,0:0:0:0:
64,192,89686,1,0,0:0:0:0:
448,192,89686,1,0,0:0:0:0:
64,192,89787,1,0,0:0:0:0:
192,192,89787,1,0,0:0:0:0:
320,192,89889,1,0,0:0:0:0:
448,192,89939,1,0,0:0:0:0:
320,192,89990,1,0,0:0:0:0:
192,192,90041,1,0,0:0:0:0:
64,192,90092,1,0,0:0:0:0:
320,192,90142,1,0,0:0:0:0:
448,192,90193,1,0,0:0:0:0:
192,192,90244,1,0,0:0:0:0:
448,192,90294,1,0,0:0:0:0:
320,192,90345,1,0,0:0:0:0:
64,192,90396,1,0,0:0:0:0:
192,192,90446,1,0,0:0:0:0:
64,192,90497,1,0,0:0:0:0:
448,192,90548,1,0,0:0:0:0:
320,192,90598,1,0,0:0:0:0:
192,192,90649,1,0,0:0:0:0:
320,192,90700,1,0,0:0:0:0:
64,192,90750,1,0,0:0:0:0:
448,192,90801,1,0,0:0:0:0:
192,192,90852,1,0,0:0:0:0:
448,192,90902,1,0,0:0:0:0:
64,192,90953,1,0,0:0:0:0:
320,192,91004,1,0,0:0:0:0:
192,192,91054,1,0,0:0:0:0:
320,192,91105,1,0,0:0:0:0:
448,192,91156,1,0,0:0:0:0:
64,192,91206,1,0,0:0:0:0:
192,192,91206,1,0,0:0:0:0:
64,192,91308,1,0,0:0:0:0:
448,192,91308,1,0,0:0:0:0:
320,192,91409,1,0,0:0:0:0:
448,192,91409,1,0,0:0:0:0:
320,192,91510,1,0,0:0:0:0:
192,192,91561,1,0,0:0:0:0:
448,192,91612,1,0,0:0:0:0:
320,192,91662,1,0,0:0:0:0:
64,192,91713,1,0,0:0:0:0:
448,192,91764,1,0,0:0:0:0:
64,192,91814,1,0,0:0:0:0:
320,192,91865,1,0,0:0:0:0:
192,192,91916,1,0,0:0:0:0:
448,192,91967,1,0,0:0:0:0:
192,192,92017,1,0,0:0:0:0:
64,192,92068,1,0,0:0:0:0:
320,192,92119,1,0,0:0:0:0:
192,192,92169,1,0,0:0:0:0:
448,192,92220,1,0,0:0:0:0:
64,192,92271,1,0,0:0:0:0:
448,192,92321,1,0,0:0:0:0:
192,192,92372,1,0,0:0:0:0:
448,192,92423,1,0,0:0:0:0:
320,192,92473,1,0,0:0:0:0:
64,192,92524,1,0,0:0:0:0:
448,192,92575,1,0,0:0:0:0:
192,192,92625,1,0,0:0:0:0:
320,192,92676,1,0,0:0:0:0:
192,192,92727,1,0,0:0:0:0:
64,192,92777,1,0,0:0:0:0:
320,192,92828,1,0,0:0:0:0:
192,192,92879,1,0,0:0:0:0:
320,192,92929,1,0,0:0:0:0:
448,192,92980,1,0,0:0:0:0:
64,192,93031,1,0,0:0:0:0:
320,192,93081,1,0,0:0:0:0:
64,192,93132,1,0,0:0:0:0:
448,192,93183,1,0,0:0:0:0:
192,192,93233,1,0,0:0:0:0:
320,192,93284,1,0,0:0:0:0:
192,192,93335,1,0,0:0:0:0:
448,192,93385,1,0,0:0:0:0:
64,192,93436,1,0,0:0:0:0:
320,192,93487,1,0,0:0:0:0:
64,192,93537,1,0,0:0:0:0:
192,192,93588,1,0,0:0:0:0:
320,192,93639,1,0,0:0:0:0:
448,192,93689,1,0,0:0:0:0:
192,192,93740,1,0,0:0:0:0:
64,192,93791,1,0,0:0:0:0:
320,192,93842,1,0,0:0:0:0:
192,192,93892,1,0,0:0:0:0:
320,192,93943,1,0,0:0:0:0:
64,192,93994,1,0,0:0:0:0:
448,192,94044,1,0,0:0:0:0:
192,192,94095,1,0,0:0:0:0:
448,192,94146,1,0,0:0:0:0:
64,192,94196,1,0,0:0:0:0:
192,192,94247,1,0,0:0:0:0:
320,192,94298,1,0,0:0:0:0:
192,192,94348,1,0,0:0:0:0:
448,192,94399,1,0,0:0:0:0:
64,192,94450,1,0,0:0:0:0:
320,192,94500,1,0,0:0:0:0:
192,192,94551,1,0,0:0:0:0:
448,192,94602,1,0,0:0:0:0:
64,192,94652,1,0,0:0:0:0:
320,192,94652,1,0,0:0:0:0:
192,192,94720,1,0,0:0:0:0:
320,192,94787,1,0,0:0:0:0:
64,192,94855,1,0,0:0:0:0:
320,192,94923,1,0,0:0:0:0:
448,192,94990,1,0,0:0:0:0:
192,192,95058,1,0,0:0:0:0:
320,192,95125,1,0,0:0:0:0:
192,192,95193,1,0,0:0:0:0:
448,192,95260,1,0,0:0:0:0:
192,192,95328,1,0,0:0:0:0:
64,192,95396,1,0,0:0:0:0:
320,192,95463,1,0,0:0:0:0:
192,192,95531,1,0,0:0:0:0:
320,192,95598,1,0,0:0:0:0:
64,192,95666,1,0,0:0:0:0:
448,192,95733,1,0,0:0:0:0:
192,192,95801,1,0,0:0:0:0:
448,192,95869,1,0,0:0:0:0:
64,192,95936,1,0,0:0:0:0:
448,192,96004,1,0,0:0:0:0:
192,192,96071,1,0,0:0:0:0:
320,192,96139,1,0,0:0:0:0:
192,192,96206,1,0,0:0:0:0:
64,192,96274,1,0,0:0:0:0:
448,192,96342,1,0,0:0:0:0:
64,192,96409,1,0,0:0:0:0:
320,192,96477,1,0,0:0:0:0:
64,192,96544,1,0,0:0:0:0:
192,192,96612,1,0,0:0:0:0:
448,192,96679,1,0,0:0:0:0:
320,192,96747,1,0,0:0:0:0:
448,192,96814,1,0,0:0:0:0:
64,192,96882,1,0,0:0:0:0:
192,192,96950,1,0,0:0:0:0:
64,192,97017,1,0,0:0:0:0:
320,192,97085,1,0,0:0:0:0:
448,192,97085,1,0,0:0:0:0:
192,192,97152,1,0,0:0:0:0:
448,192,97220,1,0,0:0:0:0:
64,192,97287,1,0,0:0:0:0:
320,192,97355,1,0,0:0:0:0:
192,192,97423,1,0,0:0:0:0:
320,192,97490,1,0,0:0:0:0:
64,192,97558,1,0,0:0:0:0:
320,192,97625,1,0,0:0:0:0:
192,192,97693,1,0,0:0:0:0:
320,192,97760,1,0,0:0:0:0:
64,192,97828,1,0,0:0:0:0:
320,192,97896,1,0,0:0:0:0:
192,192,97963,1,0,0:0:0:0:
320,192,98031,1,0,0:0:0:0:
64,192,98098,1,0,0:0:0:0:
192,192,98166,1,0,0:0:0:0:
448,192,98233,1,0,0:0:0:0:
192,192,98301,1,0,0:0:0:0:
320,192,98369,1,0,0:0:0:0:
192,192,98436,1,0,0:0:0:0:
448,192,98504,1,0,0:0:0:0:
320,192,98571,1,0,0:0:0:0:
448,192,98639,1,0,0:0:0:0:
64,192,98706,1,0,0:0:0:0:
320,192,98774,1,0,0:0:0:0:
64,192,98842,1,0,0:0:0:0:
448,192,98909,1,0,0:0:0:0:
64,192,98977,1,0,0:0:0:0:
192,192,99044,1,0,0:0:0:0:
448,192,99112,1,0,0:0:0:0:
320,192,99179,1,0,0:0:0:0:
448,192,99247,1,0,0:0:0:0:
192,192,99314,1,0,0:0:0:0:
320,192,99382,1,0,0:0:0:0:
64,192,99450,1,0,0:0:0:0:
192,192,99517,1,0,0:0:0:0:
320,192,99517,1,0,0:0:0:0:
448,192,99517,1,0,0:0:0:0:
64,192,99585,1,0,0:0:0:0:
320,192,99652,1,0,0:0:0:0:
192,192,99720,1,0,0:0:0:0:
448,192,99787,1,0,0:0:0:0:
320,192,99855,1,0,0:0:0:0:
64,192,99923,1,0,0:0:0:0:
192,192,99990,1,0,0:0:0:0:
64,192,100058,1,0,0:0:0:0:
320,192,100125,1,0,0:0:0:0:
64,192,100193,1,0,0:0:0:0:
448,192,100260,1,0,0:0:0:0:
64,192,100328,1,0,0:0:0:0:
320,192,100396,1,0,0:0:0:0:
64,192,100463,1,0,0:0:0:0:
192,192,100531,1,0,0:0:0:0:
64,192,100598,1,0,0:0:0:0:
448,192,100666,1,0,0:0:0:0:
320,192,100733,1,0,0:0:0:0:
192,192,100801,1,0,0:0:0:0:
320,192,100869,1,0,0:0:0:0:
64,192,100936,1,0,0:0:0:0:
192,192,101004,1,0,0:0:0:0:
64,192,101071,1,0,0:0:0:0:
448,192,101139,1,0,0:0:0:0:
192,192,101206,1,0,0:0:0:0:
448,192,101274,1,0,0:0:0:0:
64,192,101342,1,0,0:0:0:0:
320,192,101409,1,0,0:0:0:0:
64,192,101477,1,0,0:0:0:0:
448,192,101544,1,0,0:0:0:0:
192,192,101612,1,0,0:0:0:0:
448,192,101679,1,0,0:0:0:0:
64,192,101747,1,0,0:0:0:0:
448,192,101814,1,0,0:0:0:0:
320,192,101882,1,0,0:0:0:0:
64,192,101950,1,0,0:0:0:0:
192,192,101950,1,0,0:0:0:0:
448,192,102017,1,0,0:0:0:0:
64,192,102085,1,0,0:0:0:0:
320,192,102152,1,0,0:0:0:0:
192,192,102220,1,0,0:0:0:0:
448,192,102287,1,0,0:0:0:0:
192,192,102355,1,0,0:0:0:0:
320,192,102423,1,0,0:0:0:0:
192,192,102490,1,0,0:0:0:0:
64,192,102558,1,0,0:0:0:0:
320,192,102625,1,0,0:0:0:0:
192,192,102693,1,0,0:0:0:0:
448,192,102760,1,0,0:0:0:0:
64,192,102811,1,0,0:0:0:0:
448,192,102862,1,0,0:0:0:0:
192,192,102912,1,0,0:0:0:0:
320,192,102963,1,0,0:0:0:0:
64,192,103014,1,0,0:0:0:0:
320,192,103064,1,0,0:0:0:0:
192,192,103115,1,0,0:0:0:0:
448,192,103166,1,0,0:0:0:0:
64,192,103217,1,0,0:0:0:0:
448,192,103267,1,0,0:0:0:0:
192,192,103318,1,0,0:0:0:0:
320,192,103369,1,0,0:0:0:0:
64,192,103419,1,0,0:0:0:0:
320,192,103470,1,0,0:0:0:0:
192,192,103521,1,0,0:0:0:0:
64,192,103571,1,0,0:0:0:0:
448,192,103622,1,0,0:0:0:0:
64,192,103673,1,0,0:0:0:0:
320,192,103723,1,0,0:0:0:0:
192,192,103774,1,0,0:0:0:0:
448,192,103825,1,0,0:0:0:0:
192,192,103875,1,0,0:0:0:0:
320,192,103926,1,0,0:0:0:0:
64,192,103977,1,0,0:0:0:0:
448,192,104027,1,0,0:0:0:0:
64,192,104078,1,0,0:0:0:0:
320,192,104129,1,0,0:0:0:0:
192,192,104179,1,0,0:0:0:0:
448,192,104230,1,0,0:0:0:0:
192,192,104281,1,0,0:0:0:0:
320,192,104331,1,0,0:0:0:0:
64,192,104382,1,0,0:0:0:0:
448,192,104382,1,0,0:0:0:0:
192,192,104450,1,0,0:0:0:0:
64,192,104517,1,0,0:0:0:0:
448,192,104585,1,0,0:0:0:0:
192,192,104652,1,0,0:0:0:0:
448,192,104720,1,0,0:0:0:0:
64,192,104787,1,0,0:0:0:0:
320,192,104855,1,0,0:0:0:0:
64,192,104923,1,0,0:0:0:0:
448,192,104990,1,0,0:0:0:0:
320,192,105058,1,0,0:0:0:0:
192,192,105125,1,0,0:0:0:0:
320,192,105193,1,0,0:0:0:0:
64,192,105260,1,0,0:0:0:0:
320,192,105328,1,0,0:0:0:0:
192,192,105396,1,0,0:0:0:0:
448,192,105463,1,0,0:0:0:0:
192,192,105531,1,0,0:0:0:0:
64,192,105598,1,0,0:0:0:0:
320,192,105666,1,0,0:0:0:0:
64,192,105733,1,0,0:0:0:0:
448,192,105801,1,0,0:0:0:0:
192,192,105869,1,0,0:0:0:0:
320,192,105936,1,0,0:0:0:0:
64,192,106004,1,0,0:0:0:0:
192,192,106004,1,0,0:0:0:0:
448,192,106004,1,0,0:0:0:0:
320,192,106071,1,0,0:0:0:0:
64,192,106139,1,0,0:0:0:0:
448,192,106206,1,0,0:0:0:0:
192,192,106274,1,0,0:0:0:0:
320,192,106342,1,0,0:0:0:0:
64,192,106409,1,0,0:0:0:0:
320,192,106477,1,0,0:0:0:0:
192,192,106544,1,0,0:0:0:0:
320,192,106612,1,0,0:0:0:0:
64,192,106679,1,0,0:0:0:0:
448,192,106747,1,0,0:0:0:0:
64,192,106814,1,0,0:0:0:0:
192,192,106814,1,0,0:0:0:0:
64,192,106916,1,0,0:0:0:0:
320,192,106916,1,0,0:0:0:0:
64,192,107017,1,0,0:0:0:0:
192,192,107017,1,0,0:0:0:0:
448,192,107085,1,0,0:0:0:0:
192,192,107152,1,0,0:0:0:0:
320,192,107220,1,0,0:0:0:0:
64,192,107287,1,0,0:0:0:0:
320,192,107355,1,0,0:0:0:0:
192,192,107423,1,0,0:0:0:0:
64,192,107490,1,0,0:0:0:0:
192,192,107558,1,0,0:0:0:0:
448,192,107625,1,0,0:0:0:0:
320,192,107693,1,0,0:0:0:0:
448,192,107760,1,0,0:0:0:0:
192,192,107828,1,0,0:0:0:0:
448,192,107896,1,0,0:0:0:0:
64,192,107963,1,0,0:0:0:0:
320,192,108031,1,0,0:0:0:0:
448,192,108031,1,0,0:0:0:0:
192,192,108132,1,0,0:0:0:0:
448,192,108132,1,0,0:0:0:0:
320,192,108233,1,0,0:0:0:0:
448,192,108233,1,0,0:0:0:0:
64,192,108301,1,0,0:0:0:0:
192,192,108369,1,0,0:0:0:0:
320,192,108436,1,0,0:0:0:0:
448,192,108504,1,0,0:0:0:0:
64,192,108537,1,0,0:0:0:0:
192,192,108537,1,0,0:0:0:0:
64,192,108639,1,0,0:0:0:0:
320,192,108639,1,0,0:0:0:0:
64,192,108740,1,0,0:0:0:0:
192,192,108740,1,0,0:0:0:0:
448,192,108774,1,0,0:0:0:0:
320,192,108842,1,0,0:0:0:0:
192,192,108909,1,0,0:0:0:0:
64,192,108977,1,0,0:0:0:0:
320,192,109044,1,0,0:0:0:0:
448,192,109044,1,0,0:0:0:0:
192,192,109146,1,0,0:0:0:0:
448,192,109146,1,0,0:0:0:0:
320,192,109247,1,0,0:0:0:0:
448,192,109247,1,0,0:0:0:0:
64,192,109314,1,0,0:0:0:0:
448,192,109382,1,0,0:0:0:0:
192,192,109450,1,0,0:0:0:0:
448,192,109517,1,0,0:0:0:0:
320,192,109585,1,0,0:0:0:0:
64,192,109652,1,0,0:0:0:0:
192,192,109720,1,0,0:0:0:0:
64,192,109787,1,0,0:0:0:0:
448,192,109855,1,0,0:0:0:0:
320,192,109923,1,0,0:0:0:0:
448,192,109990,1,0,0:0:0:0:
64,192,110058,1,0,0:0:0:0:
320,192,110125,1,0,0:0:0:0:
64,192,110193,1,0,0:0:0:0:
448,192,110260,1,0,0:0:0:0:
64,192,110328,1,0,0:0:0:0:
192,192,110396,1,0,0:0:0:0:
320,192,110463,1,0,0:0:0:0:
64,192,110531,1,0,0:0:0:0:
320,192,110598,1,0,0:0:0:0:
192,192,110666,1,0,0:0:0:0:
448,192,110733,1,0,0:0:0:0:
64,192,110801,1,0,0:0:0:0:
192,192,110869,1,0,0:0:0:0:
320,192,110869,1,0,0:0:0:0:
448,192,110869,1,0,0:0:0:0:
64,192,110936,1,0,0:0:0:0:
448,192,111004,1,0,0:0:0:0:
192,192,111071,1,0,0:0:0:0:
320,192,111139,1,0,0:0:0:0:
64,192,111206,1,0,0:0:0:0:
192,192,111274,1,0,0:0:0:0:
448,192,111342,1,0,0:0:0:0:
192,192,111409,1,0,0:0:0:0:
320,192,111477,1,0,0:0:0:0:
64,192,111544,1,0,0:0:0:0:
320,192,111612,1,0,0:0:0:0:
448,192,111679,1,0,0:0:0:0:
192,192,111747,1,0,0:0:0:0:
448,192,111814,1,0,0:0:0:0:
64,192,111882,1,0,0:0:0:0:
448,192,111950,1,0,0:0:0:0:
192,192,112017,1,0,0:0:0:0:
448,192,112085,1,0,0:0:0:0:
320,192,112152,1,0,0:0:0:0:
448,192,112220,1,0,0:0:0:0:
192,192,112287,1,0,0:0:0:0:
320,192,112355,1,0,0:0:0:0:
192,192,112423,1,0,0:0:0:0:
64,192,112490,1,0,0:0:0:0:
448,192,112558,1,0,0:0:0:0:
64,192,112625,1,0,0:0:0:0:
320,192,112693,1,0,0:0:0:0:
64,192,112760,1,0,0:0:0:0:
192,192,112828,1,0,0:0:0:0:
320,192,112896,1,0,0:0:0:0:
64,192,112963,1,0,0:0:0:0:
320,192,113031,1,0,0:0:0:0:
192,192,113098,1,0,0:0:0:0:
320,192,113166,1,0,0:0:0:0:
448,192,113233,1,0,0:0:0:0:
64,192,113301,1,0,0:0:0:0:
448,192,113352,1,0,0:0:0:0:
64,192,113402,1,0,0:0:0:0:
320,192,113453,1,0,0:0:0:0:
192,192,113504,1,0,0:0:0:0:
448,192,113554,1,0,0:0:0:0:
192,192,113605,1,0,0:0:0:0:
320,192,113656,1,0,0:0:0:0:
448,192,113706,1,0,0:0:0:0:
64,192,113757,1,0,0:0:0:0:
448,192,113808,1,0,0:0:0:0:
192,192,113858,1,0,0:0:0:0:
320,192,113909,1,0,0:0:0:0:
64,192,113960,1,0,0:0:0:0:
320,192,114010,1,0,0:0:0:0:
192,192,114061,1,0,0:0:0:0:
64,192,114112,1,0,0:0:0:0:
448,192,114112,1,0,0:0:0:0:
320,192,114162,1,0,0:0:0:0:
64,192,114213,1,0,0:0:0:0:
448,192,114264,1,0,0:0:0:0:
64,192,114314,1,0,0:0:0:0:
320,192,114365,1,0,0:0:0:0:
192,192,114416,1,0,0:0:0:0:
448,192,114467,1,0,0:0:0:0:
320,192,114517,1,0,0:0:0:0:
192,192,114568,1,0,0:0:0:0:
320,192,114619,1,0,0:0:0:0:
64,192,114669,1,0,0:0:0:0:
320,192,114720,1,0,0:0:0:0:
192,192,114771,1,0,0:0:0:0:
448,192,114821,1,0,0:0:0:0:
320,192,114872,1,0,0:0:0:0:
64,192,114923,1,0,0:0:0:0:
448,192,114973,1,0,0:0:0:0:
64,192,115024,1,0,0:0:0:0:
320,192,115075,1,0,0:0:0:0:
192,192,115125,1,0,0:0:0:0:
448,192,115176,1,0,0:0:0:0:
192,192,115227,1,0,0:0:0:0:
320,192,115277,1,0,0:0:0:0:
64,192,115328,1,0,0:0:0:0:
448,192,115379,1,0,0:0:0:0:
64,192,115429,1,0,0:0:0:0:
192,192,115480,1,0,0:0:0:0:
320,192,115531,1,0,0:0:0:0:
448,192,115581,1,0,0:0:0:0:
320,192,115632,1,0,0:0:0:0:
192,192,115683,1,0,0:0:0:0:
64,192,115733,1,0,0:0:0:0:
320,192,115784,1,0,0:0:0:0:
64,192,115835,1,0,0:0:0:0:
448,192,115885,1,0,0:0:0:0:
64,192,115936,1,0,0:0:0:0:
320,192,115987,1,0,0:0:0:0:
192,192,116037,1,0,0:0:0:0:
448,192,116088,1,0,0:0:0:0:
320,192,116139,1,0,0:0:0:0:
64,192,116189,1,0,0:0:0:0:
320,192,116240,1,0,0:0:0:0:
448,192,116291,1,0,0:0:0:0:
192,192,116342,1,0,0:0:0:0:
64,192,116392,1,0,0:0:0:0:
192,192,116443,1,0,0:0:0:0:
320,192,116494,1,0,0:0:0:0:
64,192,116544,1,0,0:0:0:0:
448,192,116544,1,0,0:0:0:0:
320,192,116646,1,0,0:0:0:0:
448,192,116646,1,0,0:0:0:0:
192,192,116747,1,0,0:0:0:0:
320,192,116798,1,0,0:0:0:0:
192,192,116848,1,0,0:0:0:0:
448,192,116899,1,0,0:0:0:0:
64,192,116950,1,0,0:0:0:0:
320,192,117000,1,0,0:0:0:0:
64,192,117051,1,0,0:0:0:0:
192,192,117102,1,0,0:0:0:0:
448,192,117152,1,0,0:0:0:0:
192,192,117203,1,0,0:0:0:0:
320,192,117254,1,0,0:0:0:0:
64,192,117304,1,0,0:0:0:0:
448,192,117355,1,0,0:0:0:0:
192,192,117406,1,0,0:0:0:0:
448,192,117456,1,0,0:0:0:0:
64,192,117507,1,0,0:0:0:0:
320,192,117558,1,0,0:0:0:0:
192,192,117608,1,0,0:0:0:0:
320,192,117659,1,0,0:0:0:0:
448,192,117659,1,0,0:0:0:0:
64,192,117760,1,0,0:0:0:0:
448,192,117760,1,0,0:0:0:0:
64,192,117862,1,0,0:0:0:0:
448,192,117912,1,0,0:0:0:0:
64,192,117963,1,0,0:0:0:0:
320,192,118014,1,0,0:0:0:0:
192,192,118064,1,0,0:0:0:0:
448,192,118115,1,0,0:0:0:0:
64,192,118166,1,0,0:0:0:0:
192,192,118166,1,0,0:0:0:0:
320,192,118267,1,0,0:0:0:0:
448,192,118267,1,0,0:0:0:0:
448,192,118369,1,0,0:0:0:0:
64,192,118419,1,0,0:0:0:0:
320,192,118470,1,0,0:0:0:0:
448,192,118521,1,0,0:0:0:0:
192,192,118571,1,0,0:0:0:0:
64,192,118622,1,0,0:0:0:0:
192,192,118673,1,0,0:0:0:0:
448,192,118723,1,0,0:0:0:0:
320,192,118774,1,0,0:0:0:0:
64,192,118825,1,0,0:0:0:0:
320,192,118875,1,0,0:0:0:0:
448,192,118926,1,0,0:0:0:0:
64,192,118977,1,0,0:0:0:0:
192,192,118977,1,0,0:0:0:0:
64,192,119078,1,0,0:0:0:0:
448,192,119078,1,0,0:0:0:0:
64,192,119179,1,0,0:0:0:0:
192,192,119230,1,0,0:0:0:0:
448,192,119281,1,0,0:0:0:0:
64,192,119331,1,0,0:0:0:0:
448,192,119382,1,0,0:0:0:0:
192,192,119433,1,0,0:0:0:0:
320,192,119483,1,0,0:0:0:0:
64,192,119534,1,0,0:0:0:0:
320,192,119585,1,0,0:0:0:0:
448,192,119635,1,0,0:0:0:0:
192,192,119686,1,0,0:0:0:0:
320,192,119737,1,0,0:0:0:0:
64,192,119787,1,0,0:0:0:0:
448,192,119838,1,0,0:0:0:0:
64,192,119889,1,0,0:0:0:0:
320,192,119939,1,0,0:0:0:0:
192,192,119990,1,0,0:0:0:0:
448,192,120041,1,0,0:0:0:0:
192,192,120092,1,0,0:0:0:0:
320,192,120142,1,0,0:0:0:0:
64,192,120193,1,0,0:0:0:0:
448,192,120244,1,0,0:0:0:0:
64,192,120294,1,0,0:0:0:0:
320,192,120345,1,0,0:0:0:0:
448,192,120396,1,0,0:0:0:0:
64,192,120446,1,0,0:0:0:0:
320,192,120497,1,0,0:0:0:0:
192,192,120548,1,0,0:0:0:0:
448,192,120598,1,0,0:0:0:0:
64,192,120649,1,0,0:0:0:0:
448,192,120700,1,0,0:0:0:0:
192,192,120750,1,0,0:0:0:0:
320,192,120801,1,0,0:0:0:0:
64,192,120852,1,0,0:0:0:0:
320,192,120902,1,0,0:0:0:0:
192,192,120953,1,0,0:0:0:0:
448,192,121004,1,0,0:0:0:0:
64,192,121054,1,0,0:0:0:0:
448,192,121105,1,0,0:0:0:0:
192,192,121156,1,0,0:0:0:0:
64,192,121206,1,0,0:0:0:0:
320,192,121257,1,0,0:0:0:0:
192,192,121308,1,0,0:0:0:0:
448,192,121358,1,0,0:0:0:0:
64,192,121409,1,0,0:0:0:0:
320,192,121460,1,0,0:0:0:0:
64,192,121510,1,0,0:0:0:0:
448,192,121561,1,0,0:0:0:0:
64,192,121612,1,0,0:0:0:0:
192,192,121662,1,0,0:0:0:0:
320,192,121713,1,0,0:0:0:0:
448,192,121764,1,0,0:0:0:0:
192,192,121814,1,0,0:0:0:0:
64,192,121865,1,0,0:0:0:0:
192,192,121916,1,0,0:0:0:0:
320,192,121967,1,0,0:0:0:0:
448,192,122017,1,0,0:0:0:0:
64,192,122068,1,0,0:0:0:0:
448,192,122119,1,0,0:0:0:0:
320,192,122169,1,0,0:0:0:0:
192,192,122220,1,0,0:0:0:0:
448,192,122271,1,0,0:0:0:0:
192,192,122321,1,0,0:0:0:0:
320,192,122372,1,0,0:0:0:0:
64,192,122423,1,0,0:0:0:0:
448,192,122473,1,0,0:0:0:0:
64,192,122524,1,0,0:0:0:0:
320,192,122575,1,0,0:0:0:0:
192,192,122625,1,0,0:0:0:0:
448,192,122676,1,0,0:0:0:0:
192,192,122727,1,0,0:0:0:0:
320,192,122777,1,0,0:0:0:0:
64,192,122828,1,0,0:0:0:0:
448,192,122879,1,0,0:0:0:0:
64,192,122929,1,0,0:0:0:0:
192,192,122980,1,0,0:0:0:0:
320,192,123031,1,0,0:0:0:0:
64,192,123081,1,0,0:0:0:0:
320,192,123132,1,0,0:0:0:0:
192,192,123183,1,0,0:0:0:0:
448,192,123233,1,0,0:0:0:0:
64,192,123284,1,0,0:0:0:0:
448,192,123335,1,0,0:0:0:0:
192,192,123385,1,0,0:0:0:0:
320,192,123436,1,0,0:0:0:0:
64,192,123487,1,0,0:0:0:0:
320,192,123537,1,0,0:0:0:0:
192,192,123588,1,0,0:0:0:0:
448,192,123639,1,0,0:0:0:0:
64,192,123689,1,0,0:0:0:0:
448,192,123740,1,0,0:0:0:0:
192,192,123791,1,0,0:0:0:0:
64,192,123842,1,0,0:0:0:0:
320,192,123842,1,0,0:0:0:0:
448,192,123842,1,0,0:0:0:0:
