osu file format v14

[General]
AudioFilename: audio.mp3
AudioLeadIn: 0
PreviewTime: 32041
Countdown: 0
SampleSet: Normal
StackLeniency: 0.7
Mode: 3
LetterboxInBreaks: 0
SpecialStyle: 0
WidescreenStoryboard: 0

[Editor]
Bookmarks: 4598,8684,28044,47227,81330
DistanceSpacing: 0.5
BeatDivisor: 6
GridSize: 8
TimelineZoom: 1.9

[Metadata]
Title:Dragon Roost Island Song
TitleUnicode:Dragon Roost Island Song
Artist:Koji Kondo
ArtistUnicode:Kōji Kondō
Creator:LinkTaylord
Version:Hard (WIP)
Source:The Legend of Zelda: Wind Waker
Tags:Kenta Nagata Hajime Wakai Toru Minegishi TLoZ WW
BeatmapID:1253547
BeatmapSetID:592460

[Difficulty]
HPDrainRate:8.6
CircleSize:7
OverallDifficulty:8.6
ApproachRate:5
SliderMultiplier:1
SliderTickRate:1

[Events]
//Background and Video events
0,0,"BG.jpg",0,0
//Break Periods
//Storyboard Layer 0 (Background)
//Storyboard Layer 1 (Fail)
//Storyboard Layer 2 (Pass)
//Storyboard Layer 3 (Foreground)
//Storyboard Sound Samples

[TimingPoints]
336,532.859680284192,4,1,1,50,1,0
62147,-100,4,1,1,50,0,1
81330,-100,4,1,1,50,0,0

[HitObjects]
36,192,336,5,0,0:0:0:0:
475,192,336,1,0,0:0:0:0:
256,192,336,1,0,0:0:0:0:
329,192,513,1,0,0:0:0:0:
402,192,513,1,0,0:0:0:0:
182,192,602,1,0,0:0:0:0:
109,192,602,1,0,0:0:0:0:
329,192,691,1,0,0:0:0:0:
402,192,691,1,0,0:0:0:0:
36,192,868,1,0,0:0:0:0:
256,192,868,1,0,0:0:0:0:
475,192,868,1,0,0:0:0:0:
329,192,1046,1,0,0:0:0:0:
329,192,1224,1,0,0:0:0:0:
36,192,1401,1,0,0:0:0:0:
182,192,1401,1,0,0:0:0:0:
329,192,1579,1,0,0:0:0:0:
475,192,1756,1,0,0:0:0:0:
36,192,1756,1,0,0:0:0:0:
182,192,1934,1,0,0:0:0:0:
329,192,2112,1,0,0:0:0:0:
475,192,2112,1,0,0:0:0:0:
109,192,2289,1,0,0:0:0:0:
256,192,2467,1,0,0:0:0:0:
402,192,2467,1,0,0:0:0:0:
36,192,2645,1,0,0:0:0:0:
402,192,2733,1,0,0:0:0:0:
36,192,2822,1,0,0:0:0:0:
182,192,3000,1,0,0:0:0:0:
329,192,3000,1,0,0:0:0:0:
475,192,3177,1,0,0:0:0:0:
256,192,3355,1,0,0:0:0:0:
36,192,3533,1,0,0:0:0:0:
182,192,3533,1,0,0:0:0:0:
475,192,3710,1,0,0:0:0:0:
109,192,3799,1,0,0:0:0:0:
475,192,3888,1,0,0:0:0:0:
329,192,3888,1,0,0:0:0:0:
256,192,4066,1,0,0:0:0:0:
182,192,4243,1,0,0:0:0:0:
329,192,4243,1,0,0:0:0:0:
109,192,4421,1,0,0:0:0:0:
402,192,4421,1,0,0:0:0:0:
109,192,4598,1,0,0:0:0:0:
256,192,4598,1,0,0:0:0:0:
402,192,4598,1,0,0:0:0:0:
329,192,4776,1,0,0:0:0:0:
182,192,4776,1,0,0:0:0:0:
402,192,4865,1,0,0:0:0:0:
109,192,4865,1,0,0:0:0:0:
475,192,4954,1,0,0:0:0:0:
36,192,4954,1,0,0:0:0:0:
109,192,5131,1,0,0:0:0:0:
256,192,5131,1,0,0:0:0:0:
402,192,5131,1,0,0:0:0:0:
182,192,5309,1,0,0:0:0:0:
329,192,5309,1,0,0:0:0:0:
36,192,5486,1,0,0:0:0:0:
109,192,5486,1,0,0:0:0:0:
402,192,5486,1,0,0:0:0:0:
182,192,5664,1,0,0:0:0:0:
475,192,5664,1,0,0:0:0:0:
256,192,5664,1,0,0:0:0:0:
329,192,5842,1,0,0:0:0:0:
36,192,5842,1,0,0:0:0:0:
402,192,5931,1,0,0:0:0:0:
109,192,5931,1,0,0:0:0:0:
256,192,6019,1,0,0:0:0:0:
475,192,6019,1,0,0:0:0:0:
182,192,6019,1,0,0:0:0:0:
36,192,6197,1,0,0:0:0:0:
256,192,6375,1,0,0:0:0:0:
475,192,6375,1,0,0:0:0:0:
182,192,6375,1,0,0:0:0:0:
109,192,6552,1,0,0:0:0:0:
256,192,6730,1,0,0:0:0:0:
36,192,6730,1,0,0:0:0:0:
402,192,6730,1,0,0:0:0:0:
329,192,6907,1,0,0:0:0:0:
329,192,7085,1,0,0:0:0:0:
36,192,7263,1,0,0:0:0:0:
475,192,7263,1,0,0:0:0:0:
402,192,7351,1,0,0:0:0:0:
109,192,7351,1,0,0:0:0:0:
329,192,7440,1,0,0:0:0:0:
182,192,7440,1,0,0:0:0:0:
402,192,7618,1,0,0:0:0:0:
475,192,7618,1,0,0:0:0:0:
109,192,7618,1,0,0:0:0:0:
36,192,7796,1,0,0:0:0:0:
256,192,7796,1,0,0:0:0:0:
329,192,7796,1,0,0:0:0:0:
182,192,7973,1,0,0:0:0:0:
402,192,8062,1,0,0:0:0:0:
329,192,8151,1,0,0:0:0:0:
256,192,8151,1,0,0:0:0:0:
36,192,8151,1,0,0:0:0:0:
182,192,8328,1,0,0:0:0:0:
475,192,8328,1,0,0:0:0:0:
109,192,8417,1,0,0:0:0:0:
402,192,8417,1,0,0:0:0:0:
329,192,8506,1,0,0:0:0:0:
36,192,8506,1,0,0:0:0:0:
256,192,8506,1,0,0:0:0:0:
182,192,8684,1,0,0:0:0:0:
109,192,8684,128,0,8861:0:0:0:0:
329,192,8861,128,0,9394:0:0:0:0:
475,192,8861,1,0,0:0:0:0:
36,192,8861,1,0,0:0:0:0:
402,192,8861,1,0,0:0:0:0:
256,192,9039,1,0,0:0:0:0:
109,192,9216,1,0,0:0:0:0:
182,192,9394,128,0,9572:0:0:0:0:
36,192,9394,1,0,0:0:0:0:
475,192,9394,1,0,0:0:0:0:
329,192,9572,128,0,9749:0:0:0:0:
402,192,9572,1,0,0:0:0:0:
36,192,9749,128,0,9927:0:0:0:0:
109,192,9749,1,0,0:0:0:0:
256,192,9749,1,0,0:0:0:0:
402,192,9927,128,0,10460:0:0:0:0:
329,192,9927,1,0,0:0:0:0:
182,192,9927,1,0,0:0:0:0:
475,192,9927,1,0,0:0:0:0:
36,192,10105,1,0,0:0:0:0:
182,192,10193,1,0,0:0:0:0:
329,192,10282,1,0,0:0:0:0:
475,192,10282,1,0,0:0:0:0:
36,192,10282,1,0,0:0:0:0:
256,192,10460,128,0,10993:0:0:0:0:
109,192,10460,1,0,0:0:0:0:
182,192,10460,1,0,0:0:0:0:
329,192,10637,1,0,0:0:0:0:
475,192,10637,1,0,0:0:0:0:
36,192,10637,1,0,0:0:0:0:
182,192,10815,1,0,0:0:0:0:
402,192,10815,1,0,0:0:0:0:
109,192,10993,128,0,12058:0:0:0:0:
329,192,10993,1,0,0:0:0:0:
475,192,10993,1,0,0:0:0:0:
36,192,10993,1,0,0:0:0:0:
402,192,11170,1,0,0:0:0:0:
182,192,11259,1,0,0:0:0:0:
402,192,11348,1,0,0:0:0:0:
182,192,11526,1,0,0:0:0:0:
256,192,11526,1,0,0:0:0:0:
475,192,11526,1,0,0:0:0:0:
329,192,11703,1,0,0:0:0:0:
36,192,11703,1,0,0:0:0:0:
182,192,11881,1,0,0:0:0:0:
402,192,11881,1,0,0:0:0:0:
475,192,11881,1,0,0:0:0:0:
36,192,12058,128,0,12769:0:0:0:0:
256,192,12058,1,0,0:0:0:0:
329,192,12058,1,0,0:0:0:0:
109,192,12236,1,0,0:0:0:0:
329,192,12325,1,0,0:0:0:0:
109,192,12414,1,0,0:0:0:0:
475,192,12414,1,0,0:0:0:0:
182,192,12414,1,0,0:0:0:0:
256,192,12591,1,0,0:0:0:0:
402,192,12591,1,0,0:0:0:0:
329,192,12769,1,0,0:0:0:0:
109,192,12769,1,0,0:0:0:0:
182,192,12947,128,0,13124:0:0:0:0:
402,192,12947,1,0,0:0:0:0:
475,192,12947,1,0,0:0:0:0:
475,192,13124,1,0,0:0:0:0:
36,192,13124,1,0,0:0:0:0:
256,192,13124,128,0,13657:0:0:0:0:
329,192,13124,1,0,0:0:0:0:
109,192,13302,1,0,0:0:0:0:
329,192,13479,1,0,0:0:0:0:
182,192,13657,128,0,13835:0:0:0:0:
475,192,13657,1,0,0:0:0:0:
36,192,13657,1,0,0:0:0:0:
329,192,13835,128,0,14012:0:0:0:0:
402,192,13835,1,0,0:0:0:0:
36,192,14012,128,0,14190:0:0:0:0:
109,192,14012,1,0,0:0:0:0:
182,192,14012,1,0,0:0:0:0:
256,192,14190,1,0,0:0:0:0:
402,192,14190,128,0,14723:0:0:0:0:
475,192,14190,1,0,0:0:0:0:
329,192,14190,1,0,0:0:0:0:
182,192,14367,1,0,0:0:0:0:
329,192,14545,1,0,0:0:0:0:
109,192,14545,1,0,0:0:0:0:
475,192,14723,128,0,15256:0:0:0:0:
256,192,14723,1,0,0:0:0:0:
36,192,14723,1,0,0:0:0:0:
329,192,14900,1,0,0:0:0:0:
182,192,14900,1,0,0:0:0:0:
402,192,15078,1,0,0:0:0:0:
36,192,15078,1,0,0:0:0:0:
109,192,15256,128,0,17032:0:0:0:0:
256,192,15256,1,0,0:0:0:0:
182,192,15256,1,0,0:0:0:0:
329,192,15256,1,0,0:0:0:0:
36,192,15433,1,0,0:0:0:0:
402,192,15611,1,0,0:0:0:0:
329,192,15788,1,0,0:0:0:0:
475,192,15788,1,0,0:0:0:0:
256,192,15877,1,0,0:0:0:0:
182,192,15966,1,0,0:0:0:0:
36,192,15966,1,0,0:0:0:0:
402,192,16144,1,0,0:0:0:0:
256,192,16321,1,0,0:0:0:0:
329,192,16321,1,0,0:0:0:0:
475,192,16321,1,0,0:0:0:0:
182,192,16499,1,0,0:0:0:0:
329,192,16588,1,0,0:0:0:0:
475,192,16677,1,0,0:0:0:0:
402,192,16677,1,0,0:0:0:0:
36,192,16677,1,0,0:0:0:0:
256,192,16854,1,0,0:0:0:0:
182,192,16854,1,0,0:0:0:0:
402,192,17032,128,0,17121:0:0:0:0:
36,192,17032,1,0,0:0:0:0:
402,192,17209,128,0,17298:0:0:0:0:
36,192,17209,1,0,0:0:0:0:
182,192,17387,128,0,17875:0:0:0:0:
256,192,17387,1,0,0:0:0:0:
475,192,17387,1,0,0:0:0:0:
109,192,17387,1,0,0:0:0:0:
329,192,17565,1,0,0:0:0:0:
402,192,17742,1,0,0:0:0:0:
36,192,17875,1,0,0:0:0:0:
182,192,17920,128,0,19163:0:0:0:0:
475,192,17920,1,0,0:0:0:0:
329,192,17920,1,0,0:0:0:0:
329,192,18097,1,0,0:0:0:0:
475,192,18097,1,0,0:0:0:0:
36,192,18275,1,0,0:0:0:0:
109,192,18275,1,0,0:0:0:0:
402,192,18275,1,0,0:0:0:0:
256,192,18453,1,0,0:0:0:0:
329,192,18453,1,0,0:0:0:0:
475,192,18453,1,0,0:0:0:0:
36,192,18630,1,0,0:0:0:0:
402,192,18719,1,0,0:0:0:0:
36,192,18808,1,0,0:0:0:0:
109,192,18808,1,0,0:0:0:0:
329,192,18986,1,0,0:0:0:0:
475,192,18986,1,0,0:0:0:0:
256,192,18986,1,0,0:0:0:0:
329,192,19163,128,0,19252:0:0:0:0:
109,192,19163,1,0,0:0:0:0:
402,192,19341,128,0,19430:0:0:0:0:
182,192,19341,1,0,0:0:0:0:
36,192,19341,1,0,0:0:0:0:
109,192,19518,128,0,20051:0:0:0:0:
256,192,19518,1,0,0:0:0:0:
475,192,19518,1,0,0:0:0:0:
329,192,19518,1,0,0:0:0:0:
402,192,19696,1,0,0:0:0:0:
182,192,19785,1,0,0:0:0:0:
402,192,19874,1,0,0:0:0:0:
36,192,20051,128,0,21295:0:0:0:0:
256,192,20051,1,0,0:0:0:0:
329,192,20051,1,0,0:0:0:0:
182,192,20229,1,0,0:0:0:0:
475,192,20229,1,0,0:0:0:0:
109,192,20407,1,0,0:0:0:0:
329,192,20407,1,0,0:0:0:0:
402,192,20407,1,0,0:0:0:0:
182,192,20584,1,0,0:0:0:0:
256,192,20584,1,0,0:0:0:0:
475,192,20584,1,0,0:0:0:0:
109,192,20762,1,0,0:0:0:0:
256,192,20851,1,0,0:0:0:0:
402,192,20939,1,0,0:0:0:0:
475,192,20939,1,0,0:0:0:0:
329,192,21117,1,0,0:0:0:0:
256,192,21206,1,0,0:0:0:0:
182,192,21295,128,0,21383:0:0:0:0:
475,192,21295,1,0,0:0:0:0:
329,192,21472,128,0,21561:0:0:0:0:
36,192,21472,1,0,0:0:0:0:
402,192,21472,1,0,0:0:0:0:
109,192,21650,1,0,0:0:0:0:
475,192,21650,128,0,22138:0:0:0:0:
182,192,21650,1,0,0:0:0:0:
256,192,21828,1,0,0:0:0:0:
402,192,22005,1,0,0:0:0:0:
36,192,22138,1,0,0:0:0:0:
475,192,22183,128,0,23604:0:0:0:0:
182,192,22183,1,0,0:0:0:0:
329,192,22183,1,0,0:0:0:0:
109,192,22360,1,0,0:0:0:0:
36,192,22538,1,0,0:0:0:0:
256,192,22538,1,0,0:0:0:0:
402,192,22538,1,0,0:0:0:0:
329,192,22716,1,0,0:0:0:0:
182,192,22716,1,0,0:0:0:0:
109,192,22716,1,0,0:0:0:0:
402,192,22938,1,0,0:0:0:0:
36,192,23071,1,0,0:0:0:0:
182,192,23071,1,0,0:0:0:0:
109,192,23071,1,0,0:0:0:0:
329,192,23248,1,0,0:0:0:0:
36,192,23426,1,0,0:0:0:0:
182,192,23426,1,0,0:0:0:0:
402,192,23426,1,0,0:0:0:0:
256,192,23604,128,0,23781:0:0:0:0:
329,192,23604,1,0,0:0:0:0:
36,192,23781,128,0,26978:0:0:0:0:
402,192,23781,1,0,0:0:0:0:
475,192,23781,1,0,0:0:0:0:
109,192,23781,1,0,0:0:0:0:
182,192,23959,1,0,0:0:0:0:
256,192,24137,1,0,0:0:0:0:
109,192,24314,1,0,0:0:0:0:
402,192,24314,1,0,0:0:0:0:
475,192,24314,1,0,0:0:0:0:
329,192,24403,1,0,0:0:0:0:
256,192,24492,1,0,0:0:0:0:
182,192,24492,1,0,0:0:0:0:
402,192,24669,1,0,0:0:0:0:
475,192,24669,1,0,0:0:0:0:
329,192,24669,1,0,0:0:0:0:
109,192,24847,1,0,0:0:0:0:
182,192,24847,1,0,0:0:0:0:
256,192,24847,1,0,0:0:0:0:
475,192,25025,1,0,0:0:0:0:
109,192,25113,1,0,0:0:0:0:
475,192,25202,1,0,0:0:0:0:
402,192,25202,1,0,0:0:0:0:
329,192,25202,1,0,0:0:0:0:
109,192,25380,1,0,0:0:0:0:
256,192,25380,1,0,0:0:0:0:
182,192,25380,1,0,0:0:0:0:
329,192,25558,1,0,0:0:0:0:
475,192,25558,1,0,0:0:0:0:
402,192,25558,1,0,0:0:0:0:
182,192,25735,1,0,0:0:0:0:
109,192,25913,1,0,0:0:0:0:
256,192,25913,1,0,0:0:0:0:
475,192,25913,1,0,0:0:0:0:
402,192,26090,1,0,0:0:0:0:
329,192,26268,1,0,0:0:0:0:
475,192,26268,1,0,0:0:0:0:
109,192,26446,1,0,0:0:0:0:
182,192,26534,1,0,0:0:0:0:
256,192,26623,1,0,0:0:0:0:
402,192,26623,1,0,0:0:0:0:
329,192,26801,1,0,0:0:0:0:
475,192,26801,1,0,0:0:0:0:
182,192,26801,1,0,0:0:0:0:
256,192,26978,1,0,0:0:0:0:
109,192,26978,1,0,0:0:0:0:
402,192,26978,1,0,0:0:0:0:
329,192,27156,1,0,0:0:0:0:
36,192,27245,1,0,0:0:0:0:
182,192,27334,1,0,0:0:0:0:
475,192,27334,1,0,0:0:0:0:
329,192,27334,1,0,0:0:0:0:
256,192,27511,1,0,0:0:0:0:
402,192,27511,1,0,0:0:0:0:
109,192,27511,1,0,0:0:0:0:
329,192,27689,1,0,0:0:0:0:
182,192,27689,1,0,0:0:0:0:
36,192,27689,1,0,0:0:0:0:
475,192,27689,1,0,0:0:0:0:
256,192,27867,1,0,0:0:0:0:
402,192,27867,1,0,0:0:0:0:
109,192,27867,1,0,0:0:0:0:
36,192,28044,1,0,0:0:0:0:
182,192,28044,1,0,0:0:0:0:
329,192,28044,1,0,0:0:0:0:
475,192,28044,1,0,0:0:0:0:
109,192,28222,1,0,0:0:0:0:
256,192,28399,1,0,0:0:0:0:
402,192,28399,1,0,0:0:0:0:
36,192,28577,1,0,0:0:0:0:
182,192,28577,1,0,0:0:0:0:
329,192,28577,1,0,0:0:0:0:
109,192,28755,1,0,0:0:0:0:
402,192,28755,1,0,0:0:0:0:
329,192,28932,1,0,0:0:0:0:
475,192,28932,1,0,0:0:0:0:
36,192,28932,1,0,0:0:0:0:
109,192,29110,1,0,0:0:0:0:
402,192,29110,1,0,0:0:0:0:
256,192,29110,1,0,0:0:0:0:
36,192,29288,1,0,0:0:0:0:
182,192,29288,1,0,0:0:0:0:
256,192,29376,1,0,0:0:0:0:
329,192,29465,1,0,0:0:0:0:
475,192,29465,1,0,0:0:0:0:
109,192,29465,1,0,0:0:0:0:
402,192,29643,1,0,0:0:0:0:
182,192,29643,1,0,0:0:0:0:
256,192,29820,1,0,0:0:0:0:
475,192,29820,1,0,0:0:0:0:
36,192,29820,1,0,0:0:0:0:
109,192,29998,1,0,0:0:0:0:
36,192,30176,1,0,0:0:0:0:
182,192,30176,1,0,0:0:0:0:
329,192,30176,1,0,0:0:0:0:
475,192,30176,1,0,0:0:0:0:
402,192,30353,1,0,0:0:0:0:
109,192,30442,1,0,0:0:0:0:
256,192,30531,1,0,0:0:0:0:
475,192,30531,1,0,0:0:0:0:
36,192,30709,1,0,0:0:0:0:
182,192,30709,1,0,0:0:0:0:
329,192,30709,1,0,0:0:0:0:
109,192,30886,1,0,0:0:0:0:
402,192,30886,1,0,0:0:0:0:
182,192,31064,1,0,0:0:0:0:
329,192,31064,1,0,0:0:0:0:
475,192,31064,1,0,0:0:0:0:
36,192,31241,1,0,0:0:0:0:
256,192,31241,1,0,0:0:0:0:
402,192,31241,1,0,0:0:0:0:
182,192,31419,1,0,0:0:0:0:
329,192,31508,1,0,0:0:0:0:
36,192,31597,1,0,0:0:0:0:
109,192,31597,1,0,0:0:0:0:
475,192,31597,1,0,0:0:0:0:
329,192,31774,1,0,0:0:0:0:
402,192,31774,1,0,0:0:0:0:
182,192,31863,1,0,0:0:0:0:
402,192,31952,1,0,0:0:0:0:
475,192,31952,1,0,0:0:0:0:
36,192,31952,1,0,0:0:0:0:
256,192,32129,1,0,0:0:0:0:
109,192,32129,128,0,32307:0:0:0:0:
329,192,32307,128,0,32840:0:0:0:0:
475,192,32307,1,0,0:0:0:0:
36,192,32307,1,0,0:0:0:0:
402,192,32307,1,0,0:0:0:0:
182,192,32485,1,0,0:0:0:0:
109,192,32662,1,0,0:0:0:0:
182,192,32840,128,0,33018:0:0:0:0:
36,192,32840,1,0,0:0:0:0:
475,192,32840,1,0,0:0:0:0:
329,192,33018,128,0,33195:0:0:0:0:
402,192,33018,1,0,0:0:0:0:
36,192,33195,128,0,33373:0:0:0:0:
109,192,33195,1,0,0:0:0:0:
182,192,33195,1,0,0:0:0:0:
402,192,33373,128,0,33906:0:0:0:0:
256,192,33373,1,0,0:0:0:0:
329,192,33373,1,0,0:0:0:0:
475,192,33373,1,0,0:0:0:0:
109,192,33550,1,0,0:0:0:0:
475,192,33639,1,0,0:0:0:0:
109,192,33728,1,0,0:0:0:0:
182,192,33728,1,0,0:0:0:0:
36,192,33728,1,0,0:0:0:0:
256,192,33906,128,0,34439:0:0:0:0:
329,192,33906,1,0,0:0:0:0:
402,192,34083,1,0,0:0:0:0:
475,192,34083,1,0,0:0:0:0:
36,192,34083,1,0,0:0:0:0:
182,192,34261,1,0,0:0:0:0:
109,192,34439,128,0,35504:0:0:0:0:
329,192,34439,1,0,0:0:0:0:
475,192,34439,1,0,0:0:0:0:
36,192,34439,1,0,0:0:0:0:
402,192,34616,1,0,0:0:0:0:
329,192,34705,1,0,0:0:0:0:
256,192,34794,1,0,0:0:0:0:
182,192,34971,1,0,0:0:0:0:
402,192,34971,1,0,0:0:0:0:
475,192,34971,1,0,0:0:0:0:
329,192,35149,1,0,0:0:0:0:
36,192,35149,1,0,0:0:0:0:
182,192,35327,1,0,0:0:0:0:
475,192,35327,1,0,0:0:0:0:
36,192,35504,128,0,36215:0:0:0:0:
329,192,35504,1,0,0:0:0:0:
402,192,35504,1,0,0:0:0:0:
182,192,35682,1,0,0:0:0:0:
256,192,35771,1,0,0:0:0:0:
402,192,35859,1,0,0:0:0:0:
475,192,35859,1,0,0:0:0:0:
329,192,35859,1,0,0:0:0:0:
182,192,36037,1,0,0:0:0:0:
109,192,36037,1,0,0:0:0:0:
329,192,36215,1,0,0:0:0:0:
256,192,36215,1,0,0:0:0:0:
109,192,36392,128,0,36570:0:0:0:0:
402,192,36392,1,0,0:0:0:0:
475,192,36570,1,0,0:0:0:0:
182,192,36570,1,0,0:0:0:0:
329,192,36570,128,0,37103:0:0:0:0:
256,192,36570,1,0,0:0:0:0:
109,192,36748,1,0,0:0:0:0:
182,192,36925,1,0,0:0:0:0:
256,192,37103,128,0,37280:0:0:0:0:
475,192,37103,1,0,0:0:0:0:
36,192,37103,1,0,0:0:0:0:
475,192,37280,128,0,37458:0:0:0:0:
402,192,37280,1,0,0:0:0:0:
36,192,37458,128,0,37636:0:0:0:0:
109,192,37458,1,0,0:0:0:0:
182,192,37458,1,0,0:0:0:0:
256,192,37636,1,0,0:0:0:0:
402,192,37636,128,0,38169:0:0:0:0:
475,192,37636,1,0,0:0:0:0:
329,192,37636,1,0,0:0:0:0:
182,192,37813,1,0,0:0:0:0:
36,192,37991,1,0,0:0:0:0:
109,192,37991,1,0,0:0:0:0:
475,192,38169,128,0,38701:0:0:0:0:
256,192,38169,1,0,0:0:0:0:
182,192,38346,1,0,0:0:0:0:
109,192,38346,1,0,0:0:0:0:
329,192,38524,1,0,0:0:0:0:
402,192,38524,1,0,0:0:0:0:
109,192,38701,128,0,40478:0:0:0:0:
182,192,38701,1,0,0:0:0:0:
256,192,38701,1,0,0:0:0:0:
36,192,38701,1,0,0:0:0:0:
329,192,38879,1,0,0:0:0:0:
402,192,39057,1,0,0:0:0:0:
182,192,39234,1,0,0:0:0:0:
475,192,39234,1,0,0:0:0:0:
256,192,39323,1,0,0:0:0:0:
329,192,39412,1,0,0:0:0:0:
36,192,39412,1,0,0:0:0:0:
402,192,39589,1,0,0:0:0:0:
256,192,39767,1,0,0:0:0:0:
329,192,39767,1,0,0:0:0:0:
475,192,39767,1,0,0:0:0:0:
182,192,39945,1,0,0:0:0:0:
329,192,40034,1,0,0:0:0:0:
475,192,40122,1,0,0:0:0:0:
402,192,40122,1,0,0:0:0:0:
36,192,40122,1,0,0:0:0:0:
256,192,40300,1,0,0:0:0:0:
182,192,40300,1,0,0:0:0:0:
329,192,40478,128,0,40566:0:0:0:0:
36,192,40478,1,0,0:0:0:0:
329,192,40655,128,0,40744:0:0:0:0:
36,192,40655,1,0,0:0:0:0:
182,192,40833,128,0,41321:0:0:0:0:
402,192,40833,1,0,0:0:0:0:
475,192,40833,1,0,0:0:0:0:
109,192,40833,1,0,0:0:0:0:
256,192,41010,1,0,0:0:0:0:
329,192,41188,1,0,0:0:0:0:
36,192,41321,1,0,0:0:0:0:
182,192,41366,128,0,42609:0:0:0:0:
475,192,41366,1,0,0:0:0:0:
402,192,41366,1,0,0:0:0:0:
329,192,41543,1,0,0:0:0:0:
256,192,41543,1,0,0:0:0:0:
36,192,41721,1,0,0:0:0:0:
475,192,41721,1,0,0:0:0:0:
402,192,41721,1,0,0:0:0:0:
256,192,41899,1,0,0:0:0:0:
329,192,41899,1,0,0:0:0:0:
109,192,41899,1,0,0:0:0:0:
475,192,42076,1,0,0:0:0:0:
329,192,42165,1,0,0:0:0:0:
36,192,42254,1,0,0:0:0:0:
109,192,42254,1,0,0:0:0:0:
329,192,42431,1,0,0:0:0:0:
475,192,42431,1,0,0:0:0:0:
256,192,42431,1,0,0:0:0:0:
109,192,42609,128,0,42698:0:0:0:0:
329,192,42609,1,0,0:0:0:0:
402,192,42787,128,0,42875:0:0:0:0:
182,192,42787,1,0,0:0:0:0:
109,192,42964,128,0,43497:0:0:0:0:
256,192,42964,1,0,0:0:0:0:
475,192,42964,1,0,0:0:0:0:
36,192,42964,1,0,0:0:0:0:
402,192,43142,1,0,0:0:0:0:
182,192,43231,1,0,0:0:0:0:
402,192,43320,1,0,0:0:0:0:
36,192,43497,128,0,44740:0:0:0:0:
329,192,43497,1,0,0:0:0:0:
475,192,43497,1,0,0:0:0:0:
402,192,43675,1,0,0:0:0:0:
256,192,43675,1,0,0:0:0:0:
475,192,43852,1,0,0:0:0:0:
329,192,43852,1,0,0:0:0:0:
182,192,43852,1,0,0:0:0:0:
109,192,44030,1,0,0:0:0:0:
256,192,44030,1,0,0:0:0:0:
402,192,44030,1,0,0:0:0:0:
182,192,44208,1,0,0:0:0:0:
329,192,44296,1,0,0:0:0:0:
109,192,44385,1,0,0:0:0:0:
475,192,44385,1,0,0:0:0:0:
329,192,44563,1,0,0:0:0:0:
256,192,44652,1,0,0:0:0:0:
182,192,44740,128,0,44829:0:0:0:0:
402,192,44740,1,0,0:0:0:0:
329,192,44918,128,0,45007:0:0:0:0:
109,192,44918,1,0,0:0:0:0:
36,192,45096,1,0,0:0:0:0:
475,192,45096,128,0,45584:0:0:0:0:
182,192,45096,1,0,0:0:0:0:
256,192,45273,1,0,0:0:0:0:
402,192,45451,1,0,0:0:0:0:
36,192,45584,1,0,0:0:0:0:
475,192,45629,128,0,47050:0:0:0:0:
182,192,45629,1,0,0:0:0:0:
329,192,45629,1,0,0:0:0:0:
256,192,45806,1,0,0:0:0:0:
36,192,45984,1,0,0:0:0:0:
109,192,45984,1,0,0:0:0:0:
402,192,45984,1,0,0:0:0:0:
329,192,46161,1,0,0:0:0:0:
182,192,46161,1,0,0:0:0:0:
256,192,46161,1,0,0:0:0:0:
402,192,46339,1,0,0:0:0:0:
36,192,46517,1,0,0:0:0:0:
182,192,46517,1,0,0:0:0:0:
109,192,46517,1,0,0:0:0:0:
329,192,46694,1,0,0:0:0:0:
256,192,46694,1,0,0:0:0:0:
36,192,46872,1,0,0:0:0:0:
182,192,46872,1,0,0:0:0:0:
402,192,46872,1,0,0:0:0:0:
256,192,47050,128,0,47227:0:0:0:0:
329,192,47050,1,0,0:0:0:0:
109,192,47050,1,0,0:0:0:0:
