osu file format v14

[General]
AudioFilename: 60. Bolero of Fire.mp3
AudioLeadIn: 0
PreviewTime: 12051
Countdown: 0
SampleSet: None
StackLeniency: 0.7
Mode: 2
LetterboxInBreaks: 0
WidescreenStoryboard: 0

[Editor]
DistanceSpacing: 1
BeatDivisor: 4
GridSize: 8
TimelineZoom: 1

[Metadata]
Title:Bolero of Fire
TitleUnicode:Bolero of Fire
Artist:Koji Kondo
ArtistUnicode:近藤浩治
Creator:DragonSlayer96
Version:Salad
Source:Zelda Reorchestrated
Tags:The Legend Ocarina Time Sheik Link Darunia Volgaria warp song temple goron mtn tloz oot DS96 Sharp Rain
BeatmapID:633719
BeatmapSetID:279937

[Difficulty]
HPDrainRate:4
CircleSize:3.5
OverallDifficulty:7
ApproachRate:7
SliderMultiplier:1.4
SliderTickRate:1

[Events]
//Background and Video events
0,0,"bolero of fire.png",0,0
//Break Periods
//Storyboard Layer 0 (Background)
//Storyboard Layer 1 (Fail)
//Storyboard Layer 2 (Pass)
//Storyboard Layer 3 (Foreground)
//Storyboard Sound Samples

[TimingPoints]
51,500,6,3,0,5,1,0
3551,-100,6,3,0,10,0,0
7051,-100,6,3,0,15,0,0
10051,-100,6,3,0,20,0,0
13051,-100,6,3,0,25,0,0
17051,-100,6,3,0,30,0,0
21051,-100,6,3,0,35,0,1
24051,-100,6,3,0,40,0,1
25051,-100,6,3,0,30,0,1
26051,-100,6,3,0,20,0,1
27051,-100,6,3,0,10,0,0

[Colours]
Combo1 : 255,255,0
Combo2 : 255,0,0
Combo3 : 255,128,0

[HitObjects]
96,192,51,5,0,0:0:0:0:
240,192,551,1,0,0:0:0:0:
304,112,717,1,0,0:0:0:0:
240,48,884,1,0,0:0:0:0:
176,116,1051,1,0,0:0:0:0:
304,112,1551,5,0,0:0:0:0:
240,176,1717,1,0,0:0:0:0:
336,224,1884,1,0,0:0:0:0:
432,288,2051,2,0,P|400:304|288:272,2,140
512,136,3551,5,0,0:0:0:0:
400,192,3717,1,0,0:0:0:0:
272,128,3884,1,0,0:0:0:0:
352,40,4051,1,0,0:0:0:0:
144,16,4551,5,0,0:0:0:0:
96,48,4717,1,0,0:0:0:0:
48,84,4884,1,0,0:0:0:0:
128,96,5051,1,0,0:0:0:0:
80,144,5217,1,0,0:0:0:0:
32,192,5384,1,0,0:0:0:0:
96,208,5551,5,0,0:0:0:0:
64,256,5717,1,0,0:0:0:0:
32,304,5884,1,0,0:0:0:0:
192,368,6051,1,8,0:0:0:0:
368,304,6551,5,0,0:0:0:0:
432,224,6717,1,0,0:0:0:0:
336,192,6884,1,0,0:0:0:0:
208,176,7051,1,8,0:0:0:0:
384,48,7551,5,0,0:0:0:0:
304,96,7717,1,0,0:0:0:0:
224,48,7884,1,0,0:0:0:0:
80,80,8051,2,0,P|48:160|96:224,2,140,8|0|8,0:0|0:0|0:0,0:0:0:0:
336,160,9551,5,0,0:0:0:0:
392,64,9717,1,0,0:0:0:0:
272,64,9884,1,0,0:0:0:0:
120,64,10051,1,8,0:0:0:0:
368,16,10551,5,0,0:0:0:0:
416,48,10717,1,0,0:0:0:0:
464,88,10884,1,0,0:0:0:0:
384,96,11051,1,8,0:0:0:0:
432,144,11217,1,0,0:0:0:0:
480,192,11384,1,0,0:0:0:0:
416,208,11551,5,8,0:0:0:0:
448,256,11717,1,0,0:0:0:0:
480,304,11884,1,0,0:0:0:0:
296,336,12051,6,0,L|240:256,3,69.9999999999999,8|0|0|0,0:0|0:0|0:0|0:0,0:0:0:0:
128,336,13051,2,0,L|168:256,3,69.9999999999999,8|0|0|0,0:0|0:0|0:0|0:0,0:0:0:0:
56,196,14051,1,8,0:0:0:0:
288,112,14551,1,0,0:0:0:0:
432,240,15051,6,0,L|368:304,1,69.9999999999999,8|0,0:0|0:0,0:0:0:0:
256,344,15551,1,0,0:0:0:0:
120,304,15801,1,0,0:0:0:0:
144,144,16051,2,0,L|208:96,1,69.9999999999999,8|0,0:0|0:0,0:0:0:0:
320,56,16551,1,0,0:0:0:0:
456,112,16801,1,0,0:0:0:0:
376,232,17051,1,8,0:0:0:0:
128,208,17551,1,8,0:0:0:0:
400,352,18051,6,0,L|336:272,3,69.9999999999999,8|0|0|0,0:0|0:0|0:0|0:0,0:0:0:0:
160,352,19051,2,0,L|224:272,3,69.9999999999999,8|0|0|0,0:0|0:0|0:0|0:0,0:0:0:0:
384,192,20051,1,0,0:0:0:0:
48,192,20551,1,8,0:0:0:0:
336,160,21051,6,0,L|400:80,1,69.9999999999999,8|0,0:0|0:0,0:0:0:0:
336,160,21551,1,0,0:0:0:0:
384,96,21801,1,0,0:0:0:0:
168,232,22051,6,0,L|208:304,1,69.9999999999999,8|0,0:0|0:0,0:0:0:0:
152,208,22551,1,0,0:0:0:0:
224,336,22801,1,0,0:0:0:0:
30,219,23051,6,0,L|96:144,1,69.9999999999999,8|0,0:0|0:0,0:0:0:0:
0,248,23551,1,0,0:0:0:0:
112,128,23801,1,0,0:0:0:0:
344,128,24051,6,0,L|248:128,1,69.9999999999999,8|0,0:0|0:0,0:0:0:0:
424,128,24551,1,0,0:0:0:0:
200,128,24801,1,0,0:0:0:0:
96,128,25051,6,0,L|144:208,1,69.9999999999999,8|0,0:0|0:0,0:0:0:0:
48,192,25551,1,0,0:0:0:0:
176,128,25801,1,0,0:0:0:0:
352,160,26051,6,0,L|257:201,1,69.9999999999999,8|0,0:0|0:0,0:0:0:0:
152,224,26551,1,8,0:0:0:0:
256,48,26801,1,0,0:0:0:0:
256,192,27051,12,0,30051,0:0:0:0:
