osu file format v14

[General]
AudioFilename: 60. Bolero of Fire.mp3
AudioLeadIn: 0
PreviewTime: 12051
Countdown: 0
SampleSet: None
StackLeniency: 0.7
Mode: 2
LetterboxInBreaks: 0
WidescreenStoryboard: 0

[Editor]
DistanceSpacing: 1
BeatDivisor: 6
GridSize: 4
TimelineZoom: 1

[Metadata]
Title:Bolero of Fire
TitleUnicode:Bolero of Fire
Artist:Koji Kondo
ArtistUnicode:近藤浩治
Creator:DragonSlayer96
Version:Platter
Source:Zelda Reorchestrated
Tags:The Legend Ocarina Time Sheik Link Darunia Volgaria warp song temple goron mtn tloz oot DS96 Sharp Rain
BeatmapID:633717
BeatmapSetID:279937

[Difficulty]
HPDrainRate:5
CircleSize:4
OverallDifficulty:8
ApproachRate:8
SliderMultiplier:1.6
SliderTickRate:2

[Events]
//Background and Video events
0,0,"bolero of fire.png",0,0
//Break Periods
//Storyboard Layer 0 (Background)
//Storyboard Layer 1 (Fail)
//Storyboard Layer 2 (Pass)
//Storyboard Layer 3 (Foreground)
//Storyboard Sound Samples

[TimingPoints]
51,500,6,3,0,5,1,0
3551,-100,6,3,0,10,0,0
7051,-100,6,3,0,15,0,0
10051,-100,6,3,0,20,0,0
13051,-100,6,3,0,25,0,0
17051,-100,6,3,0,30,0,0
21051,-100,6,3,0,35,0,1
24051,-100,6,3,0,40,0,1
25051,-100,6,3,0,30,0,1
26051,-100,6,3,0,20,0,1
27051,-100,6,3,0,10,0,0

[Colours]
Combo1 : 255,255,0
Combo2 : 255,0,0
Combo3 : 255,128,0

[HitObjects]
48,192,51,6,0,P|88:288|160:304,1,160
208,120,717,1,0,0:0:0:0:
284,56,884,1,0,0:0:0:0:
128,32,1051,2,0,P|56:88|96:160,1,160
184,256,1717,1,0,0:0:0:0:
260,200,1884,1,0,0:0:0:0:
408,212,2051,2,0,P|304:320|272:336,2,160
512,176,3551,5,0,0:0:0:0:
376,184,3717,1,0,0:0:0:0:
464,96,3884,1,0,0:0:0:0:
304,96,4051,2,0,P|248:144|296:200,1,160
144,32,4717,5,0,0:0:0:0:
192,80,4884,1,0,0:0:0:0:
244,124,5051,1,0,0:0:0:0:
416,160,5217,1,0,0:0:0:0:
368,208,5384,1,0,0:0:0:0:
312,256,5551,1,0,0:0:0:0:
168,284,5717,1,0,0:0:0:0:
112,324,5884,1,0,0:0:0:0:
16,256,6051,6,0,P|104:256|176:192,1,160,8|0,0:0|0:0,0:0:0:0:
256,56,6717,1,0,0:0:0:0:
320,88,6884,1,0,0:0:0:0:
408,128,7051,2,0,P|464:168|392:184,1,160,8|0,0:0|0:0,0:0:0:0:
328,208,7717,1,0,0:0:0:0:
264,240,7884,1,0,0:0:0:0:
448,128,8051,2,0,P|360:172|256:176,1,160,8|0,0:0|0:0,0:0:0:0:
48,192,9051,1,8,0:0:0:0:
160,176,9551,5,0,0:0:0:0:
240,112,9717,1,0,0:0:0:0:
176,48,9884,1,0,0:0:0:0:
41,83,10051,2,0,P|104:64|168:152,1,160,8|0,0:0|0:0,0:0:0:0:
352,32,10717,5,0,0:0:0:0:
400,84,10884,1,0,0:0:0:0:
352,128,11051,1,8,0:0:0:0:
80,144,11217,1,0,0:0:0:0:
32,196,11384,1,0,0:0:0:0:
80,240,11551,1,8,0:0:0:0:
480,304,11717,1,0,0:0:0:0:
432,352,11884,1,0,0:0:0:0:
400,288,12051,6,0,P|384:176|352:120,1,160,8|0,0:0|0:0,0:0:0:0:
272,112,12717,1,0,0:0:0:0:
362,135,12884,1,0,0:0:0:0:
166,176,13051,2,0,P|108:127|40:160,1,160,8|0,0:0|0:0,0:0:0:0:
132,52,13717,1,0,0:0:0:0:
276,64,13884,1,0,0:0:0:0:
368,140,14051,2,0,P|312:196|216:188,1,160,8|0,0:0|0:0,0:0:0:0:
160,144,15051,5,8,0:0:0:0:
384,192,15551,1,0,0:0:0:0:
448,144,15717,1,0,0:0:0:0:
384,112,15884,1,0,0:0:0:0:
64,176,16051,2,0,P|56:112|160:96,1,160,8|0,0:0|0:0,0:0:0:0:
224,48,16717,1,0,0:0:0:0:
320,32,16884,1,0,0:0:0:0:
432,64,17051,5,8,0:0:0:0:
496,160,17217,1,0,0:0:0:0:
448,272,17384,1,0,0:0:0:0:
336,304,17551,1,8,0:0:0:0:
240,288,17717,1,0,0:0:0:0:
144,176,17884,1,0,0:0:0:0:
384,272,18051,6,0,P|328:224|224:224,1,160,8|0,0:0|0:0,0:0:0:0:
144,80,18717,1,0,0:0:0:0:
224,160,18884,1,0,0:0:0:0:
496,192,19051,2,0,P|400:168|368:240,1,160,8|0,0:0|0:0,0:0:0:0:
496,48,19717,1,0,0:0:0:0:
400,176,19884,1,0,0:0:0:0:
288,288,20051,2,0,P|200:240|128:176,1,160,8|0,0:0|0:0,0:0:0:0:
160,128,21051,5,8,0:0:0:0:
96,96,21301,1,0,0:0:0:0:
156,48,21551,1,0,0:0:0:0:
88,24,21801,1,0,0:0:0:0:
432,128,22051,5,8,0:0:0:0:
512,208,22301,1,0,0:0:0:0:
432,256,22551,1,0,0:0:0:0:
512,208,22801,1,0,0:0:0:0:
192,256,23051,5,8,0:0:0:0:
144,192,23301,1,0,0:0:0:0:
64,192,23551,1,0,0:0:0:0:
0,144,23801,1,0,0:0:0:0:
432,96,24051,5,8,0:0:0:0:
504,160,24301,1,0,0:0:0:0:
360,160,24551,1,0,0:0:0:0:
432,224,24801,1,0,0:0:0:0:
80,96,25051,5,8,0:0:0:0:
208,176,25301,1,0,0:0:0:0:
160,112,25551,1,0,0:0:0:0:
80,96,25801,1,0,0:0:0:0:
496,192,26051,6,0,L|392:192,1,80,8|0,0:0|0:0,0:0:0:0:
16,192,26551,2,0,L|112:192,1,80,8|0,0:0|0:0,0:0:0:0:
256,192,27051,12,0,30051,0:0:0:0:
