osu file format v14

[General]
AudioFilename: audio.mp3
AudioLeadIn: 0
PreviewTime: 7205
Countdown: 1
SampleSet: None
StackLeniency: 0.2
Mode: 0
LetterboxInBreaks: 0
WidescreenStoryboard: 1

[Editor]
DistanceSpacing: 1
BeatDivisor: 4
GridSize: 32
TimelineZoom: 1

[Metadata]
Title:Arashi no Uta
TitleUnicode:嵐の歌
Artist:Koji Kondo
ArtistUnicode:近藤 浩治
Creator:Chriz
Version:2009 Insane
Source:
Tags:Song of Storms
BeatmapID:1620277
BeatmapSetID:770670

[Difficulty]
HPDrainRate:5
CircleSize:5.5
OverallDifficulty:10
ApproachRate:7.5
SliderMultiplier:2.54999990463256
SliderTickRate:2

[Events]
//Background and Video events
0,0,"Download.jpg",0,0
//Break Periods
//Storyboard Layer 0 (Background)
//Storyboard Layer 1 (Fail)
//Storyboard Layer 2 (Pass)
//Storyboard Layer 3 (Foreground)
//Storyboard Sound Samples

[TimingPoints]
7280,300,3,1,1,50,1,0
19880,-133.333333333333,3,3,1,50,0,0
27080,-100,3,2,1,50,0,0
39680,-133.333333333333,3,3,1,50,0,0
47030,-133.333333333333,3,1,0,50,0,0
47330,-133.333333333333,3,1,0,45,0,0
47630,-133.333333333333,3,1,0,40,0,0
47930,-133.333333333333,3,1,0,35,0,0
48230,-133.333333333333,3,1,0,30,0,0
48530,-133.333333333333,3,1,0,25,0,0
48830,-133.333333333333,3,1,0,20,0,0
49130,-133.333333333333,3,1,0,15,0,0
49430,-133.333333333333,3,1,0,10,0,0
49730,-133.333333333333,3,1,0,5,0,0

[Colours]
Combo1 : 245,136,16
Combo2 : 18,0,176
Combo3 : 18,124,255
Combo4 : 0,255,255
Combo5 : 238,250,10
Combo6 : 218,30,3

[HitObjects]
416,32,7280,69,0,0:0:0:0:
416,160,7430,1,0,0:0:0:0:
416,288,7580,2,0,B|224:288|224:288|224:224,1,254.999990463256
480,224,8180,69,0,0:0:0:0:
480,96,8330,1,0,0:0:0:0:
352,96,8480,2,0,B|128:96|128:96|128:160,1,254.999990463256
128,383,9080,22,0,B|128:207|128:207|128:127,1,254.999990463256
256,128,9530,1,0,0:0:0:0:
128,128,9680,1,0,0:0:0:0:
128,256,9830,1,0,0:0:0:0:
256,256,9980,1,0,0:0:0:0:
256,384,10130,1,0,0:0:0:0:
128,384,10280,2,0,B|320:384|320:384|320:320,1,254.999990463256,8|0,1:1|0:0,0:0:0:0:
320,64,10880,6,0,B|512:64|512:64|512:128,1,254.999990463256
512,384,11480,1,0,0:0:0:0:
384,384,11630,1,0,0:0:0:0:
256,384,11780,2,0,B|80:384|80:384|0:384,1,254.999990463256
0,128,12380,1,0,0:0:0:0:
256,128,12680,6,0,B|512:128,2,254.999990463256
128,128,13430,1,0,0:0:0:0:
256,128,13580,2,0,B|384:128|384:128|384:256,2,254.999990463256,0|8|0,0:0|0:3|0:0,0:0:0:0:
0,128,14480,37,0,0:0:0:0:
0,256,14630,1,0,0:0:0:0:
0,384,14780,2,0,B|128:384|128:384|128:224,1,254.999990463256
128,0,15380,69,0,0:0:0:0:
256,0,15530,1,0,0:0:0:0:
384,0,15680,2,0,B|512:0|512:0|512:128,1,254.999990463256
512,384,16280,22,0,B|384:384|384:384|384:224,1,254.999990463256
512,256,16730,1,0,0:0:0:0:
512,128,16880,1,0,0:0:0:0:
384,128,17030,1,0,0:0:0:0:
256,128,17180,1,0,0:0:0:0:
256,256,17330,1,0,0:0:0:0:
384,256,17480,2,0,B|256:256|256:256|256:128,1,254.999990463256,8|0,0:0|0:0,0:0:0:0:
0,128,18080,6,0,B|0:176|0:176|0:384,1,254.999990463256
256,384,18680,1,0,0:0:0:0:
256,256,18830,1,0,0:0:0:0:
256,128,18980,2,0,B|256:64|256:64|480:64,1,254.999990463256
448,320,19580,1,0,0:0:0:0:
256,320,19880,6,0,L|64:320,1,191.250000143051
64,128,20480,1,0,0:0:0:0:
448,128,20780,1,0,0:0:0:0:
352,128,20930,1,0,0:0:0:0:
256,128,21080,2,0,L|32:128,1,191.250000143051
64,320,21680,6,0,L|288:320,1,191.250000143051
448,320,22280,1,0,0:0:0:0:
448,128,22580,1,0,0:0:0:0:
352,128,22730,1,0,0:0:0:0:
256,128,22880,2,0,L|256:352,1,191.250000143051
64,320,23480,54,0,L|64:128,1,191.250000143051
448,128,24080,1,0,0:0:0:0:
64,128,24380,1,0,0:0:0:0:
160,128,24530,1,0,0:0:0:0:
256,128,24680,2,0,L|480:128,1,191.250000143051
448,320,25280,6,0,L|224:320,1,191.250000143051
256,128,25880,1,0,0:0:0:0:
64,128,26180,1,0,0:0:0:0:
64,224,26330,1,0,0:0:0:0:
64,320,26480,2,0,L|288:320,1,191.250000143051
512,320,27080,37,0,0:0:0:0:
512,192,27230,1,0,0:0:0:0:
384,192,27380,2,0,B|512:192|512:192|512:320,1,254.999990463256
256,320,27980,69,0,0:0:0:0:
128,320,28130,1,0,0:0:0:0:
0,320,28280,2,0,B|0:224|0:224|160:224,1,254.999990463256
416,224,28880,22,0,B|416:64|416:64|320:64,1,254.999990463256
192,64,29330,1,0,0:0:0:0:
192,192,29480,1,0,0:0:0:0:
320,192,29630,1,0,0:0:0:0:
320,64,29780,1,0,0:0:0:0:
192,64,29930,1,0,0:0:0:0:
192,192,30080,2,0,B|384:192|384:192|384:256,1,254.999990463256,8|0,2:1|0:0,0:0:0:0:
128,256,30680,6,0,B|64:256|64:256|64:64,1,254.999990463256
320,64,31280,1,0,0:0:0:0:
320,192,31430,1,0,0:0:0:0:
320,320,31580,2,0,B|144:320|144:320|64:320,1,254.999990463256
64,65,32180,1,0,0:0:0:0:
320,64,32480,6,0,B|320:256|320:256|256:256,1,254.999990463256
0,256,33080,1,0,0:0:0:0:
128,256,33230,1,0,0:0:0:0:
256,256,33380,2,0,B|64:256|64:256|-32:256,2,254.999990463256,0|8|0,0:0|2:3|0:0,0:0:0:0:
512,256,34280,37,0,0:0:0:0:
512,128,34430,1,0,0:0:0:0:
384,128,34580,2,0,B|256:128|256:128|256:288,1,254.999990463256
512,256,35180,69,0,0:0:0:0:
384,256,35330,1,0,0:0:0:0:
256,256,35480,2,0,B|32:256|32:256|0:256,1,254.999990463256
0,0,36080,22,0,B|256:0,1,254.999990463256
384,0,36530,1,0,0:0:0:0:
384,128,36680,1,0,0:0:0:0:
256,128,36830,1,0,0:0:0:0:
256,256,36980,1,0,0:0:0:0:
384,256,37130,1,0,0:0:0:0:
256,256,37280,2,0,B|312:256|312:256|544:256,1,254.999990463256,8|0,2:1|0:0,0:0:0:0:
512,0,37880,6,0,B|352:0|352:0|352:96,1,254.999990463256
352,352,38480,1,0,0:0:0:0:
224,352,38630,1,0,0:0:0:0:
96,352,38780,2,0,B|32:352|32:352|32:160,1,254.999990463256
288,160,39380,1,0,0:0:0:0:
288,352,39680,6,0,L|512:352,1,191.250000143051
480,160,40280,1,0,0:0:0:0:
96,160,40580,1,0,0:0:0:0:
192,160,40730,1,0,0:0:0:0:
288,160,40880,2,0,B|448:160|448:160|448:224,1,191.250000143051
448,384,41480,6,0,L|448:192,1,191.250000143051
448,0,42080,1,0,0:0:0:0:
64,0,42380,1,0,0:0:0:0:
160,0,42530,1,0,0:0:0:0:
256,0,42680,2,0,L|256:224,1,191.250000143051
256,384,43280,54,0,B|128:384|128:384|128:320,1,191.250000143051
128,128,43880,1,0,0:0:0:0:
512,128,44180,1,0,0:0:0:0:
416,128,44330,1,0,0:0:0:0:
320,128,44480,2,0,L|96:128,1,191.250000143051
128,320,45080,6,0,L|352:320,1,191.250000143051
512,320,45680,1,0,0:0:0:0:
512,128,45980,1,0,0:0:0:0:
416,128,46130,1,0,0:0:0:0:
512,128,46280,2,0,L|288:128,1,191.250000143051
128,128,46880,5,8,3:0:0:0:
256,192,47030,12,0,49880,0:0:0:0:
