osu file format v14

[General]
AudioFilename: audio.mp3
AudioLeadIn: 0
PreviewTime: 60918
Countdown: 0
SampleSet: Soft
StackLeniency: 0.7
Mode: 0
LetterboxInBreaks: 0
WidescreenStoryboard: 0

[Editor]
DistanceSpacing: 1.4
BeatDivisor: 4
GridSize: 4
TimelineZoom: 2.831998

[Metadata]
Title:Kodoku na Heaven
TitleUnicode:孤独なHeaven
Artist:Koizumi Hanayo(CV.Kubo Yurika)
ArtistUnicode:小泉花陽(CV.久保ユリカ)
Creator:Lily Bread
Version:Another
Source:Love Live! School idol project
Tags:lovelive ラブライブ! µ's 告白日和、です! デュオ·トリオ 畑亞貴 hata aki 若林充 wakabayashi mitsuru
BeatmapID:946065
BeatmapSetID:439600

[Difficulty]
HPDrainRate:6
CircleSize:4
OverallDifficulty:6.5
ApproachRate:8
SliderMultiplier:1.8
SliderTickRate:1

[Events]
//Background and Video events
0,0,"BG.jpeg",0,0
//Break Periods
2,109034,121418
//Storyboard Layer 0 (Background)
//Storyboard Layer 1 (Fail)
//Storyboard Layer 2 (Pass)
//Storyboard Layer 3 (Foreground)
//Storyboard Sound Samples

[TimingPoints]
2168,416.666666666667,4,2,1,40,1,0
7897,-100,4,2,1,50,0,0
8834,-100,4,2,1,75,0,0
20501,-100,4,2,1,50,0,0
60501,-181.818181818182,4,2,1,50,0,0
60918,-100,4,2,1,30,0,0
61126,-80,4,2,1,70,0,0
62168,-80,4,2,1,80,0,1
88313,-80,4,2,1,70,0,1
88834,-100,4,2,1,50,0,0
91959,-181.818181818182,4,2,1,50,0,0
94668,-100,4,2,1,75,0,0
95501,-133.333333333333,4,2,1,50,0,0
122168,-100,4,2,1,50,0,0
125501,-133.333333333333,4,2,1,30,0,0
137168,-80,4,2,1,75,0,0
138834,-80,4,2,1,80,0,1
155501,-100,4,2,1,75,0,0
157168,-100,4,2,1,70,0,0
170501,-114.942528735632,4,2,1,50,0,0
173001,-172.413793103448,4,2,1,50,0,0

[Colours]
Combo1 : 243,61,88
Combo2 : 0,225,0
Combo3 : 72,154,255

[HitObjects]
256,192,2168,5,2,0:0:0:0:
256,192,3834,5,2,0:0:0:0:
256,192,5501,5,2,0:0:0:0:
252,40,7168,6,0,L|400:40,2,135,2|2|2,0:0|0:0|0:0,0:0:0:0:
140,100,8001,6,0,L|92:100,3,45,8|0|8|0,0:0|0:0|0:0|0:0,0:0:0:0:
132,152,8417,2,0,L|200:152,3,45,8|0|0|0,0:0|0:0|0:0|0:0,0:0:0:0:
160,212,8834,6,0,P|148:256|168:320,1,90,4|0,0:0|0:0,0:0:0:0:
256,360,9251,1,8,0:0:0:0:
356,298,9459,1,0,0:0:0:0:
356,298,9563,1,0,0:0:0:0:
356,298,9667,2,0,P|363:255|352:212,1,90,0|0,0:0|0:0,0:0:0:0:
372,88,10084,1,8,0:0:0:0:
256,148,10292,2,0,L|256:103,1,45
140,88,10501,5,2,0:0:0:0:
68,192,10709,1,0,0:0:0:0:
140,296,10917,1,8,0:0:0:0:
256,192,11126,2,0,L|256:237,1,45
256,314,11334,2,0,L|256:362,2,45
180,224,11751,1,8,0:0:0:0:
372,296,12167,5,4,0:0:0:0:
444,192,12376,1,0,0:0:0:0:
372,88,12584,1,8,0:0:0:0:
260,188,12792,5,0,0:0:0:0:
260,188,12897,1,0,0:0:0:0:
260,188,13001,1,2,0:0:0:0:
328,295,13209,1,0,0:0:0:0:
328,295,13313,1,0,0:0:0:0:
328,295,13418,1,8,0:0:0:0:
184,88,13626,1,0,0:0:0:0:
184,88,13730,1,0,0:0:0:0:
184,88,13834,1,2,0:0:0:0:
184,295,14042,1,0,0:0:0:0:
184,295,14147,1,0,0:0:0:0:
184,295,14251,1,8,0:0:0:0:
256,192,14459,6,0,L|192:192,1,45,0|0,0:0|0:0,0:0:0:0:
76,120,14667,2,0,L|40:56,1,45,2|0,0:0|0:0,0:0:0:0:
162,256,14876,2,0,L|194:312,1,45,0|0,0:0|0:0,0:0:0:0:
162,128,15084,2,0,L|194:72,1,45,8|0,0:0|0:0,0:0:0:0:
76,264,15292,2,0,L|40:328,1,45,0|0,0:0|0:0,0:0:0:0:
76,120,15501,5,4,0:0:0:0:
360,124,15917,1,8,0:0:0:0:
360,260,16126,1,2,0:0:0:0:
76,264,16542,1,0,0:0:0:0:
76,120,16751,1,8,0:0:0:0:
328,192,17167,6,0,L|193:192,1,135,2|0,0:0|0:0,0:0:0:0:
164,192,17584,1,0,0:0:0:0:
136,192,17688,1,0,0:0:0:0:
108,192,17792,1,0,0:0:0:0:
80,192,17896,1,0,0:0:0:0:
52,192,18001,2,0,L|8:192,3,45,8|0|0|0,0:0|0:0|0:0|0:0,0:0:0:0:
28,252,18417,2,0,L|84:252,3,45,8|8|8|2,0:0|0:0|0:0|0:0,0:0:0:0:
256,192,18834,12,0,20084,0:0:0:0:
28,236,20501,5,4,0:0:0:0:
116,328,20709,1,0,0:0:0:0:
144,204,20917,1,8,0:0:0:0:
144,204,21542,1,0,0:0:0:0:
236,296,21751,1,8,0:0:0:0:
484,148,22167,5,0,0:0:0:0:
396,56,22376,1,0,0:0:0:0:
368,180,22584,1,8,0:0:0:0:
368,180,23209,1,0,0:0:0:0:
276,88,23418,1,8,0:0:0:0:
40,48,23834,5,4,0:0:0:0:
128,136,24042,1,0,0:0:0:0:
196,32,24251,1,8,0:0:0:0:
196,32,24876,2,0,L|296:32,1,90,0|8,0:0|0:0,0:0:0:0:
472,336,25501,5,0,0:0:0:0:
384,248,25709,1,0,0:0:0:0:
316,352,25917,1,8,0:0:0:0:
256,240,26126,1,0,0:0:0:0:
256,240,26542,2,0,L|256:136,1,90,0|8,0:0|0:0,0:0:0:0:
256,24,26959,1,0,0:0:0:0:
148,88,27167,6,0,P|116:120|52:140,1,90,4|0,0:0|0:0,0:0:0:0:
75,246,27584,2,0,P|116:264|148:296,1,90,8|0,0:0|0:0,0:0:0:0:
376,334,28001,2,0,P|293:363|208:340,1,180,0|8,0:0|0:0,0:0:0:0:
316,272,28626,6,0,P|399:242|484:266,1,180,0|0,0:0|0:0,0:0:0:0:
464,140,29251,2,0,P|436:96|436:44,1,90,8|0,0:0|0:0,0:0:0:0:
179,59,29876,2,0,P|173:103|148:140,1,90,0|8,0:0|0:0,0:0:0:0:
32,192,30292,1,0,0:0:0:0:
207,281,30501,2,0,P|163:292|120:284,1,90,4|0,0:0|0:0,0:0:0:0:
147,140,30917,1,8,0:0:0:0:
376,49,31334,2,0,P|293:20|208:44,1,180,0|8,0:0|0:0,0:0:0:0:
316,112,31959,6,0,P|399:141|484:117,1,180,4|0,0:0|0:0,0:0:0:0:
464,244,32584,1,8,0:0:0:0:
344,288,32793,1,0,0:0:0:0:
318,293,32897,1,0,0:0:0:0:
293,295,33001,1,0,0:0:0:0:
267,291,33105,1,0,0:0:0:0:
243,282,33209,1,0,0:0:0:0:
221,268,33313,1,0,0:0:0:0:
203,251,33417,1,8,0:0:0:0:
189,230,33522,1,0,0:0:0:0:
184,204,33626,2,0,L|184:152,1,45
64,144,33834,6,0,P|56:192|80:260,1,90,4|0,0:0|0:0,0:0:0:0:
64,231,34251,1,8,0:0:0:0:
216,36,34876,2,0,P|259:28|304:36,1,90,0|8,0:0|0:0,0:0:0:0:
448,240,35501,6,0,P|456:192|432:124,1,90,0|0,0:0|0:0,0:0:0:0:
447,152,35917,1,8,0:0:0:0:
296,348,36542,2,0,P|253:356|208:348,1,90,0|8,0:0|0:0,0:0:0:0:
160,100,37167,5,4,0:0:0:0:
184,224,37376,1,0,0:0:0:0:
248,121,37584,1,8,0:0:0:0:
352,284,38209,2,0,L|248:260,1,90,0|8,0:0|0:0,0:0:0:0:
348,96,38834,6,0,L|324:200,1,90,0|0,0:0|0:0,0:0:0:0:
272,80,39251,1,8,0:0:0:0:
272,80,39459,2,0,P|180:52|92:80,1,180,0|0,0:0|0:0,0:0:0:0:
104,192,40084,1,8,0:0:0:0:
176,296,40292,1,0,0:0:0:0:
252,196,40501,6,0,P|208:164|156:168,1,90,4|0,0:0|0:0,0:0:0:0:
348,288,40917,2,0,L|324:184,1,90,8|0,0:0|0:0,0:0:0:0:
272,304,41334,2,0,P|180:332|92:304,1,180,0|8,0:0|0:0,0:0:0:0:
24,108,41959,2,0,P|12:192|28:288,1,180,0|0,0:0|0:0,0:0:0:0:
200,192,42584,1,8,0:0:0:0:
440,116,43001,2,0,L|440:24,2,90,0|0|8,0:0|0:0|0:0,0:0:0:0:
440,268,43626,1,0,0:0:0:0:
340,192,43834,6,0,L|248:192,2,90,4|0|8,0:0|0:0|0:0,0:0:0:0:
136,44,44667,2,0,P|76:96|64:208,1,180,0|8,0:0|0:0,0:0:0:0:
104,312,45292,2,0,P|164:260|176:148,1,180,4|0,0:0|0:0,0:0:0:0:
252,60,45917,1,8,0:0:0:0:
368,112,46126,1,0,0:0:0:0:
368,112,46230,1,0,0:0:0:0:
368,112,46334,2,0,L|440:112,2,45,0|0|0,0:0|0:0|0:0,0:0:0:0:
468,192,46751,1,8,0:0:0:0:
368,268,46959,1,0,0:0:0:0:
268,192,47167,6,0,P|216:108|124:80,1,180,4|8,0:0|0:0,0:0:0:0:
56,172,47792,2,0,L|56:352,1,180,4|0,0:0|0:0,0:0:0:0:
180,372,48417,2,0,P|284:320|352:172,1,270,4|8,0:0|0:0,0:0:0:0:
404,72,49251,2,0,L|404:16,1,45,8|0,0:0|0:0,0:0:0:0:
280,28,49563,2,0,L|280:100,1,45,0|8,0:0|0:0,0:0:0:0:
156,48,49876,5,0,0:0:0:0:
156,48,49980,1,0,0:0:0:0:
156,48,50084,1,0,0:0:0:0:
156,48,50188,1,0,0:0:0:0:
156,48,50292,1,0,0:0:0:0:
156,48,50396,1,0,0:0:0:0:
156,48,50501,6,0,P|112:128|120:224,1,180,4|8,0:0|0:0,0:0:0:0:
188,320,51126,2,0,P|232:240|224:144,1,180,4|0,0:0|0:0,0:0:0:0:
280,28,51751,2,0,P|368:24|446:67,1,180,4|0,0:0|0:0,0:0:0:0:
492,184,52376,2,0,L|492:240,8,45,0|0|0|0|0|0|0|0|0,0:0|0:0|0:0|0:0|0:0|0:0|0:0|0:0|0:0,0:0:0:0:
446,316,53417,1,8,0:0:0:0:
410,343,53521,1,0,0:0:0:0:
368,359,53626,1,0,0:0:0:0:
324,364,53730,1,0,0:0:0:0:
279,355,53834,6,0,P|200:328|104:368,1,180,4|8,0:0|0:0,0:0:0:0:
52,248,54459,1,0,0:0:0:0:
52,248,54876,2,0,P|44:196|52:152,1,90,0|8,0:0|0:0,0:0:0:0:
112,52,55292,1,0,0:0:0:0:
143,175,55501,6,0,P|187:170|229:152,1,90,0|0,0:0|0:0,0:0:0:0:
244,128,55813,1,0,0:0:0:0:
272,116,55918,2,0,L|388:116,1,90,8|0,0:0|0:0,0:0:0:0:
362,116,56542,2,0,L|466:117,1,90,0|8,0:0|0:0,0:0:0:0:
427,234,56959,1,0,0:0:0:0:
257,168,57167,5,4,0:0:0:0:
167,313,57376,1,0,0:0:0:0:
308,259,57584,1,8,0:0:0:0:
106,216,57792,1,0,0:0:0:0:
196,116,58001,5,0,0:0:0:0:
408,160,58209,1,0,0:0:0:0:
251,215,58417,1,8,0:0:0:0:
349,57,58626,1,0,0:0:0:0:
263,137,58834,5,4,0:0:0:0:
91,47,59042,1,0,0:0:0:0:
91,232,59251,1,8,0:0:0:0:
224,236,59459,5,0,0:0:0:0:
252,236,59563,1,0,0:0:0:0:
280,228,59667,1,2,0:0:0:0:
304,216,59771,1,0,0:0:0:0:
328,200,59876,1,0,0:0:0:0:
336,172,59980,1,0,0:0:0:0:
340,144,60084,2,0,L|340:84,1,45,8|0,0:0|0:0,0:0:0:0:
256,24,60292,2,0,L|256:80,1,45
172,99,60501,6,0,L|172:203,1,99.0000030212403,4|0,0:1|0:0,0:0:0:0:
248,296,61126,5,0,0:0:0:0:
276,316,61230,1,0,0:0:0:0:
312,328,61334,2,0,P|356:340|436:324,1,112.5,0|0,0:0|0:0,0:0:0:0:
488,188,61751,2,0,P|460:144|468:80,1,112.5,8|8,0:0|0:0,0:0:0:0:
308,68,62167,6,0,P|288:116|232:147,1,112.5,4|0,0:0|0:0,0:0:0:0:
124,36,62584,1,8,0:0:0:0:
44,172,62792,1,0,0:0:0:0:
24,200,62896,1,0,0:0:0:0:
12,236,63001,2,0,P|0:280|16:360,1,112.5
168,344,63417,2,0,P|180:300|164:220,1,112.5,8|0,0:0|0:0,0:0:0:0:
328,220,63834,6,0,P|364:261|418:272,1,112.5,0|0,0:0|0:0,0:0:0:0:
440,116,64251,1,8,0:0:0:0:
284,112,64459,1,0,0:0:0:0:
252,128,64563,1,0,0:0:0:0:
220,144,64667,2,0,P|176:156|96:140,1,112.5,0|0,0:0|0:0,0:0:0:0:
224,36,65084,2,0,P|268:24|348:40,1,112.5,8|0,0:0|0:0,0:0:0:0:
465,222,65501,6,0,P|463:166|439:115,1,112.5,4|0,0:0|0:0,0:0:0:0:
304,160,65917,1,8,0:0:0:0:
304,160,66126,2,0,L|260:208,1,56.25,0|0,0:0|0:0,0:0:0:0:
192,232,66334,2,0,P|136:248|64:224,2,112.5,0|0|8,0:0|0:0|0:0,0:0:0:0:
304,160,66959,1,0,0:0:0:0:
256,276,67167,6,0,P|264:333|315:389,2,112.5,10|8|8,0:0|0:0|0:0,0:0:0:0:
227,125,67792,1,2,0:0:0:0:
80,232,68001,1,0,0:0:0:0:
136,58,68209,1,0,0:0:0:0:
192,232,68417,1,10,0:0:0:0:
45,125,68626,1,8,0:0:0:0:
216,44,68834,6,0,P|328:40|424:108,1,225,4|8,0:0|0:0,0:0:0:0:
392,332,69459,2,0,P|311:254|293:137,1,225,2|0,0:0|0:0,0:0:0:0:
416,196,70084,1,8,0:0:0:0:
256,308,70292,1,0,0:0:0:0:
159,145,70501,5,2,0:0:0:0:
139,319,70709,1,0,0:0:0:0:
46,168,70917,1,8,0:0:0:0:
23,347,71126,1,0,0:0:0:0:
147,234,71334,1,0,0:0:0:0:
166,60,71542,1,0,0:0:0:0:
259,211,71751,1,8,0:0:0:0:
283,33,71959,1,0,0:0:0:0:
418,283,72167,6,0,P|326:344|216:340,1,225,4|8,0:0|0:0,0:0:0:0:
72,196,72792,1,0,0:0:0:0:
220,237,73001,2,0,P|200:128|120:52,1,225,0|8,0:0|0:0,0:0:0:0:
119,51,73834,6,0,P|201:37|281:61,1,168.75,8|8,0:0|0:0,0:0:0:0:
456,204,74459,1,8,0:0:0:0:
457,239,74563,1,8,0:0:0:0:
451,275,74667,2,0,P|415:323|330:346,1,112.5
232,280,75084,2,0,L|232:136,1,112.5,8|8,0:0|0:0,0:0:0:0:
68,148,75501,6,0,P|73:212|94:264,2,112.5,4|0|8,0:0|0:0|0:0,0:0:0:0:
164,24,76126,1,0,0:0:0:0:
200,24,76230,1,0,0:0:0:0:
236,24,76334,2,0,L|352:24,1,112.5,0|0,0:0|0:0,0:0:0:0:
444,148,76751,2,0,P|439:212|418:264,1,112.5,8|0,0:0|0:0,0:0:0:0:
308,152,77167,6,0,P|248:138|186:159,2,112.5,0|0|8,0:0|0:0|0:0,0:0:0:0:
252,296,77792,1,0,0:0:0:0:
224,320,77896,1,0,0:0:0:0:
188,332,78001,2,0,P|132:344|72:332,1,112.5,0|0,0:0|0:0,0:0:0:0:
16,192,78417,2,0,P|72:176|152:204,1,112.5,8|0,0:0|0:0,0:0:0:0:
252,296,78834,6,0,P|347:343|484:312,1,225,4|8,0:0|0:0,0:0:0:0:
496,192,79459,2,0,P|440:176|360:204,1,112.5,0|0,0:0|0:0,0:0:0:0:
231,180,79876,2,0,P|178:194|123:185,1,112.5,0|8,0:0|0:0,0:0:0:0:
52,48,80292,1,0,0:0:0:0:
220,20,80501,6,0,P|274:5|329:15,1,112.5,10|8,0:0|0:0,0:0:0:0:
400,152,80917,1,8,0:0:0:0:
217,253,81126,1,2,0:0:0:0:
364,360,81334,1,0,0:0:0:0:
308,186,81542,1,0,0:0:0:0:
252,360,81751,1,10,0:0:0:0:
399,253,81959,1,8,0:0:0:0:
232,180,82167,6,0,P|180:172|120:180,1,112.5,4|0,0:0|0:0,0:0:0:0:
4,288,82584,1,8,0:0:0:0:
4,288,82792,2,0,L|68:288,1,56.25,2|0,0:0|0:0,0:0:0:0:
120,340,83001,2,0,P|175:347|231:339,2,112.5,0|0|8,0:0|0:0|0:0,0:0:0:0:
32,208,83626,1,0,0:0:0:0:
120,80,83834,6,0,P|175:72|231:80,2,112.5,2|0|8,0:0|0:0|0:0,0:0:0:0:
252,208,84459,1,2,0:0:0:0:
252,208,84563,1,0,0:0:0:0:
252,208,84667,1,0,0:0:0:0:
400,128,84876,1,0,0:0:0:0:
400,255,85084,1,8,0:0:0:0:
400,255,85292,1,0,0:0:0:0:
484,120,85501,6,0,L|500:8,2,112.5,4|0|8,0:0|0:0|0:0,0:0:0:0:
484,264,86126,1,2,0:0:0:0:
484,264,86230,1,0,0:0:0:0:
484,264,86334,2,0,L|500:376,2,112.5,0|0|8,0:0|0:0|0:0,0:0:0:0:
176,324,87167,6,0,P|92:336|8:312,1,168.75,8|8,0:0|0:0,0:0:0:0:
32,80,87792,1,8,0:0:0:0:
64,72,87896,1,0,0:0:0:0:
100,68,88001,2,0,P|164:76|208:100,1,112.5,0|0,0:0|0:0,0:0:0:0:
272,240,88417,2,0,P|329:208|355:158,1,112.5,8|8,0:0|0:0,0:0:0:0:
448,32,88834,5,4,0:0:0:0:
496,112,89459,1,4,0:0:0:0:
440,184,90084,1,4,0:0:0:0:
352,156,90709,1,4,0:0:0:0:
360,68,91334,1,4,0:0:0:0:
360,68,91959,6,0,B|304:200|304:200|56:216|56:216|40:92|112:20,1,594.000018127442,4|0,0:0|0:0,0:0:0:0:
192,52,94668,6,0,L|264:52,3,45,8|0|0|0,0:0|0:0|0:0|0:0,0:0:0:0:
236,184,95501,6,0,L|236:276,2,67.5000025749208,4|0|0,0:0|0:0|0:0,0:0:0:0:
300,180,96056,1,0,0:0:0:0:
332,124,96195,1,0,0:0:0:0:
292,72,96334,2,0,L|308:20,2,45.0000017166138
220,72,96751,2,0,L|204:20,2,45.0000017166138
160,112,97168,6,0,L|143:178,1,67.5000025749208,2|0,0:0|0:0,0:0:0:0:
64,232,97584,2,0,P|96:256|136:264,1,67.5000025749208
212,296,98001,2,0,L|212:248,3,33.7500012874604,0|0|0|0,0:0|0:0|0:0|0:0,0:0:0:0:
256,284,98418,2,0,L|344:284,1,67.5000025749208,0|0,0:0|0:0,0:0:0:0:
412,320,98834,6,0,P|424:276|408:244,1,67.5000025749208,2|0,0:0|0:0,0:0:0:0:
344,196,99251,2,0,P|337:163|349:132,1,67.5000025749208,0|0,0:0|0:0,0:0:0:0:
420,68,99668,2,0,L|420:4,3,33.7500012874604,0|0|0|0,0:0|0:0|0:0|0:0,0:0:0:0:
376,52,100084,2,0,L|288:52,1,67.5000025749208,0|0,0:0|0:0,0:0:0:0:
212,60,100501,6,0,P|179:68|157:92,1,67.5000025749208,2|0,0:0|0:0,0:0:0:0:
232,152,100918,2,0,P|209:176|177:184,1,67.5000025749208,0|0,0:0|0:0,0:0:0:0:
84,160,101334,2,0,L|28:160,3,33.7500012874604,0|0|0|0,0:0|0:0|0:0|0:0,0:0:0:0:
68,204,101751,2,0,L|68:288,1,67.5000025749208,0|0,0:0|0:0,0:0:0:0:
112,356,102168,6,0,P|152:320|160:288,1,67.5000025749208,4|0,0:0|0:0,0:0:0:0:
208,232,102584,2,0,P|240:228|300:240,1,67.5000025749208,0|0,0:0|0:0,0:0:0:0:
332,308,103001,2,0,L|380:308,3,33.7500012874604,0|0|0|0,0:0|0:0|0:0|0:0,0:0:0:0:
356,260,103418,2,0,P|360:216|344:184,1,67.5000025749208,0|0,0:0|0:0,0:0:0:0:
316,108,103834,6,0,L|224:88,1,67.5000025749208,2|0,0:0|0:0,0:0:0:0:
204,92,104147,2,0,P|148:96|116:132,1,101.250003862381,0|0,0:0|0:0,0:0:0:0:
120,172,104563,2,0,L|120:284,1,101.250003862381,0|0,0:0|0:0,0:0:0:0:
156,304,104980,2,0,P|192:332|256:336,1,101.250003862381,0|0,0:0|0:0,0:0:0:0:
272,320,105397,1,0,0:0:0:0:
304,320,105501,6,0,L|376:320,1,67.5000025749208,0|0,0:0|0:0,0:0:0:0:
436,248,105918,2,0,L|476:230,3,33.7500012874604,0|2|0|0,0:0|0:0|0:0|0:0,0:0:0:0:
440,207,106334,1,2,0:0:0:0:
434,185,106438,1,0,0:0:0:0:
420,167,106542,1,0,0:0:0:0:
402,154,106646,1,0,0:0:0:0:
381,149,106751,2,0,L|336:167,3,33.7500012874604,2|0|0|0,0:0|0:0|0:0|0:0,0:0:0:0:
352,120,107168,6,0,L|396:101,3,33.7500012874604,2|0|8|8,0:0|0:0|0:0|0:0,0:0:0:0:
348,76,107584,2,0,L|307:93,3,33.7500012874604,8|8|2|2,0:0|0:0|0:0|0:0,0:0:0:0:
320,44,108001,2,0,L|356:28,3,33.7500012874604,2|8|8|2,0:0|0:0|0:0|0:0,0:0:0:0:
284,60,108418,2,0,L|240:80,3,33.7500012874604,8|8|2|2,0:0|0:0|0:0|0:0,0:0:0:0:
252,32,108834,5,4,0:0:0:0:
256,296,122168,5,4,0:0:0:0:
193,102,122480,1,4,0:0:0:0:
357,221,122793,1,4,0:0:0:0:
154,221,123106,1,4,0:0:0:0:
319,102,123418,1,4,0:0:0:0:
32,132,125501,6,0,L|8:208,2,67.5000025749208,2|0|0,0:0|0:0|0:0,0:0:0:0:
100,196,126126,1,0,0:0:0:0:
100,196,126230,2,0,P|148:224|204:212,1,101.250003862381,0|0,0:0|0:0,0:0:0:0:
168,128,126751,2,0,L|220:56,1,67.5000025749208,0|0,0:0|0:0,0:0:0:0:
304,73,127168,6,0,L|344:128,1,67.5000025749208,0|0,0:0|0:0,0:0:0:0:
343,127,127584,1,0,0:0:0:0:
320,218,127793,1,0,0:0:0:0:
320,218,127897,2,0,P|370:222|412:196,1,101.250003862381,0|0,0:0|0:0,0:0:0:0:
480,132,128418,2,0,L|504:208,1,67.5000025749208,2|0,0:0|0:0,0:0:0:0:
488,292,128834,5,0,0:0:0:0:
400,328,129043,1,0,0:0:0:0:
312,296,129251,1,0,0:0:0:0:
228,340,129459,1,0,0:0:0:0:
228,340,129563,2,0,P|176:336|132:308,1,101.250003862381,0|2,0:0|0:0,0:0:0:0:
60,256,130084,2,0,P|108:216|132:212,1,67.5000025749208,0|0,0:0|0:0,0:0:0:0:
204,196,130501,6,0,P|233:180|255:155,2,67.5000025749208,0|0|0,0:0|0:0|0:0,0:0:0:0:
200,88,131126,1,0,0:0:0:0:
112,56,131334,1,0,0:0:0:0:
24,92,131543,1,0,0:0:0:0:
96,152,131751,2,0,L|140:152,3,33.7500012874604,0|0|0|0,0:0|0:0|0:0|0:0,0:0:0:0:
116,196,132168,6,0,L|116:280,2,67.5000025749208,2|0|0,0:0|0:0|0:0,0:0:0:0:
134,73,132793,1,0,0:0:0:0:
134,73,132897,2,0,P|177:47|227:43,1,101.250003862381,0|0,0:0|0:0,0:0:0:0:
300,104,133418,2,0,L|392:104,1,67.5000025749208,0|0,0:0|0:0,0:0:0:0:
396,196,133834,6,0,L|396:280,2,67.5000025749208,2|0|0,0:0|0:0|0:0,0:0:0:0:
460,128,134459,2,0,L|460:72,2,33.7500012874604,0|0|0,0:0|0:0|0:0,0:0:0:0:
496,216,134876,1,0,0:0:0:0:
468,304,135084,2,0,P|448:332|412:352,1,67.5000025749208,0|0,0:0|0:0,0:0:0:0:
367,280,135501,6,0,L|300:280,1,67.5000025749208,2|0,0:0|0:0,0:0:0:0:
232,348,135918,1,0,0:0:0:0:
168,280,136126,1,0,0:0:0:0:
168,280,136230,1,0,0:0:0:0:
168,280,136334,2,0,L|128:280,2,33.7500012874604,0|0|0,0:0|0:0|0:0,0:0:0:0:
232,212,136751,2,0,L|232:132,1,67.5000025749208,0|0,0:0|0:0,0:0:0:0:
168,36,137168,6,0,P|244:24|344:44,1,168.75,12|8,0:0|0:0,0:0:0:0:
368,140,137793,1,8,0:0:0:0:
372,168,137897,1,0,0:0:0:0:
372,196,138001,2,0,P|365:240|328:304,1,112.5,0|0,0:0|0:0,0:0:0:0:
179,299,138418,2,0,P|150:251|139:196,1,112.5,8|8,0:0|0:0,0:0:0:0:
256,244,138834,6,0,L|256:368,2,112.5,4|0|8,0:0|0:0|0:0,0:0:0:0:
252,88,139459,1,0,0:0:0:0:
216,76,139563,1,0,0:0:0:0:
181,65,139667,2,0,P|112:67|61:89,1,112.5,0|0,0:0|0:0,0:0:0:0:
331,65,140084,2,0,P|399:67|450:89,1,112.5,8|0,0:0|0:0,0:0:0:0:
368,224,140501,6,0,P|370:292|392:343,2,112.5,0|0|8,0:0|0:0|0:0,0:0:0:0:
252,296,141126,1,0,0:0:0:0:
216,308,141230,1,0,0:0:0:0:
181,319,141334,2,0,P|112:316|61:294,1,112.5,0|0,0:0|0:0,0:0:0:0:
188,192,141751,2,0,P|244:196|308:192,1,112.5,8|0,0:0|0:0,0:0:0:0:
140,88,142168,6,0,P|83:83|20:88,2,112.5,4|0|8,0:0|0:0|0:0,0:0:0:0:
300,96,142793,1,0,0:0:0:0:
336,92,142897,1,0,0:0:0:0:
372,88,143001,2,0,P|428:83|492:88,1,112.5,0|0,0:0|0:0,0:0:0:0:
424,232,143418,2,0,P|424:288|396:352,1,112.5,8|0,0:0|0:0,0:0:0:0:
220,232,143834,6,0,P|220:288|248:352,2,112.5,10|8|8,0:0|0:0|0:0,0:0:0:0:
164,58,144459,1,2,0:0:0:0:
108,232,144668,1,0,0:0:0:0:
255,125,144876,1,0,0:0:0:0:
73,125,145084,1,10,0:0:0:0:
220,232,145293,1,8,0:0:0:0:
372,156,145501,6,0,P|369:87|347:36,1,112.5,4|0,0:0|0:0,0:0:0:0:
212,40,145918,1,8,0:0:0:0:
140,156,146126,2,0,L|136:248,1,56.25,2|0,0:0|0:0,0:0:0:0:
92,280,146334,2,0,P|64:340|16:368,2,112.5,0|0|8,0:0|0:0|0:0,0:0:0:0:
140,156,146959,1,0,0:0:0:0:
172,284,147168,6,0,P|200:344|248:372,2,112.5,2|0|8,0:0|0:0|0:0,0:0:0:0:
300,192,147793,1,2,0:0:0:0:
300,192,147897,1,0,0:0:0:0:
300,192,148001,1,0,0:0:0:0:
436,268,148209,1,0,0:0:0:0:
436,268,148418,1,8,0:0:0:0:
436,116,148626,1,0,0:0:0:0:
316,120,148834,6,0,L|300:8,2,112.5,4|0|8,0:0|0:0|0:0,0:0:0:0:
316,264,149459,1,2,0:0:0:0:
316,264,149563,1,0,0:0:0:0:
316,264,149667,2,0,L|300:376,1,112.5,0|0,0:0|0:0,0:0:0:0:
416,192,150084,2,0,L|360:192,1,56.25,8|0,0:0|0:0,0:0:0:0:
176,324,150501,6,0,P|92:336|8:312,1,168.75,8|8,0:0|0:0,0:0:0:0:
32,80,151126,1,8,0:0:0:0:
64,72,151230,1,0,0:0:0:0:
100,68,151335,2,0,P|164:76|208:100,1,112.5,0|0,0:0|0:0,0:0:0:0:
316,208,151751,2,0,P|360:160|368:104,1,112.5,8|0,0:0|0:0,0:0:0:0:
508,192,152167,6,0,P|464:240|456:296,2,112.5,4|0|8,0:0|0:0|0:0,0:0:0:0:
376,276,152792,1,0,0:0:0:0:
376,276,152896,1,0,0:0:0:0:
376,276,153000,1,0,0:0:0:0:
216,276,153209,1,0,0:0:0:0:
216,276,153417,1,8,0:0:0:0:
48,88,153834,5,0,0:0:0:0:
48,88,154042,1,0,0:0:0:0:
48,88,154250,1,8,0:0:0:0:
168,132,154459,1,0,0:0:0:0:
168,132,154563,1,0,0:0:0:0:
168,132,154667,1,2,0:0:0:0:
204,132,154772,1,0,0:0:0:0:
240,132,154875,1,8,0:0:0:0:
276,132,154979,1,0,0:0:0:0:
312,132,155084,2,0,L|388:132,1,56.25,8|8,0:0|0:0,0:0:0:0:
420,56,155292,2,0,L|484:56,1,56.25,8|8,0:0|0:0,0:0:0:0:
444,192,155500,5,4,0:0:0:0:
208,276,157168,6,0,L|73:276,1,135,12|8,0:0|0:0,0:0:0:0:
144,120,157793,2,0,L|279:120,1,135,8|8,0:0|0:0,0:0:0:0:
335,152,158209,1,8,0:0:0:0:
335,152,158313,1,8,0:0:0:0:
335,152,158417,2,0,L|380:152,3,45,8|8|8|8,0:0|0:0|0:0|0:0,0:0:0:0:
352,212,158834,6,0,P|364:256|344:320,1,90,4|0,0:0|0:0,0:0:0:0:
256,360,159251,1,8,0:0:0:0:
156,298,159459,1,0,0:0:0:0:
156,298,159563,1,0,0:0:0:0:
156,298,159667,2,0,P|149:255|160:212,1,90,0|0,0:0|0:0,0:0:0:0:
256,136,160084,1,8,0:0:0:0:
372,88,160293,6,0,L|372:32,2,45,0|0|2,0:0|0:0|0:0,0:0:0:0:
444,192,160709,1,0,0:0:0:0:
372,296,160917,1,8,0:0:0:0:
256,192,161126,2,0,L|256:237,1,45
256,320,161334,2,0,L|256:368,2,45,0|0|0,0:0|0:0|0:0,0:0:0:0:
332,224,161751,1,8,0:0:0:0:
140,296,162167,5,4,0:0:0:0:
68,192,162376,1,0,0:0:0:0:
140,88,162584,1,8,0:0:0:0:
252,192,162793,6,0,L|324:192,2,45,0|0|2,0:0|0:0|0:0,0:0:0:0:
144,296,163209,2,0,L|100:296,2,45,0|0|8,0:0|0:0|0:0,0:0:0:0:
144,192,163626,2,0,L|76:192,2,45,0|0|2,0:0|0:0|0:0,0:0:0:0:
252,296,164043,2,0,L|300:296,2,45,0|0|8,0:0|0:0|0:0,0:0:0:0:
376,236,164459,1,0,0:0:0:0:
376,236,164563,1,0,0:0:0:0:
376,236,164668,2,0,L|456:236,3,45,2|0|0|0,0:0|0:0|0:0|0:0,0:0:0:0:
400,176,165084,2,0,L|336:176,3,45,8|0|0|0,0:0|0:0|0:0|0:0,0:0:0:0:
380,116,165501,5,4,0:0:0:0:
132,116,165917,1,8,0:0:0:0:
132,268,166126,1,4,0:0:0:0:
380,268,166542,1,0,0:0:0:0:
380,116,166751,1,8,0:0:0:0:
184,192,167167,6,0,L|319:192,1,135,4|0,0:0|0:0,0:0:0:0:
348,192,167584,1,0,0:0:0:0:
376,192,167688,1,0,0:0:0:0:
404,192,167792,1,0,0:0:0:0:
432,192,167896,1,0,0:0:0:0:
460,192,168001,2,0,L|504:192,3,45,8|0|0|0,0:0|0:0|0:0|0:0,0:0:0:0:
484,252,168417,2,0,L|428:252,3,45,8|8|8|2,0:0|0:0|0:0|0:0,0:0:0:0:
236,120,170501,6,0,B|204:100|144:104|120:184|196:252|220:272|244:268,1,234.900001971359,4|4,0:0|0:0,0:0:0:0:
276,120,171751,6,0,B|308:100|368:104|392:184|316:252|292:272|268:268,1,234.900001971359,4|4,0:0|0:0,0:0:0:0:
256,120,173001,6,0,B|244:176|244:176|264:228|264:228|256:284,1,156.600004779053,4|4,0:0|0:0,0:0:0:0:
