osu file format v14

[General]
AudioFilename: audio.mp3
AudioLeadIn: 0
PreviewTime: 60918
Countdown: 0
SampleSet: Soft
StackLeniency: 0.7
Mode: 0
LetterboxInBreaks: 0
WidescreenStoryboard: 0

[Editor]
DistanceSpacing: 1.2
BeatDivisor: 4
GridSize: 4
TimelineZoom: 2.231999

[Metadata]
Title:Kodoku na Heaven
TitleUnicode:孤独なHeaven
Artist:Koizumi Hanayo(CV.Kubo Yurika)
ArtistUnicode:小泉花陽(CV.久保ユリカ)
Creator:Lily Bread
Version:Advanced
Source:Love Live! School idol project
Tags:lovelive ラブライブ! µ's 告白日和、です! デュオ·トリオ 畑亞貴 hata aki 若林充 wakabayashi mitsuru
BeatmapID:959087
BeatmapSetID:439600

[Difficulty]
HPDrainRate:5
CircleSize:4
OverallDifficulty:5
ApproachRate:7
SliderMultiplier:1.6
SliderTickRate:1

[Events]
//Background and Video events
0,0,"BG.jpeg",0,0
//Break Periods
2,109034,121268
//Storyboard Layer 0 (Background)
//Storyboard Layer 1 (Fail)
//Storyboard Layer 2 (Pass)
//Storyboard Layer 3 (Foreground)
//Storyboard Sound Samples

[TimingPoints]
2168,416.666666666667,4,2,1,40,1,0
7897,-100,4,2,1,50,0,0
8834,-100,4,2,1,75,0,0
20501,-100,4,2,1,50,0,0
60501,-200,4,2,1,50,0,0
60918,-100,4,2,1,30,0,0
61126,-90.9090909090909,4,2,1,70,0,0
62168,-90.9090909090909,4,2,1,80,0,1
88313,-90.9090909090909,4,2,1,70,0,1
88834,-100,4,2,1,50,0,0
91959,-100,4,2,1,50,0,0
94668,-133.333333333333,4,2,1,75,0,0
95501,-133.333333333333,4,2,1,50,0,0
122168,-100,4,2,1,50,0,0
125501,-111.111111111111,4,2,1,30,0,0
137168,-90.9090909090909,4,2,1,75,0,0
138834,-90.9090909090909,4,2,1,80,0,1
155501,-100,4,2,1,75,0,0
157168,-100,4,2,1,70,0,0
170501,-100,4,2,1,50,0,0
173001,-153.846153846154,4,2,1,50,0,0

[Colours]
Combo1 : 243,61,88
Combo2 : 0,225,0
Combo3 : 72,154,255

[HitObjects]
256,192,2168,5,2,0:0:0:0:
256,192,3834,5,2,0:0:0:0:
256,192,5501,5,2,0:0:0:0:
256,144,7168,6,0,L|256:20,2,120,2|2|2,0:0|0:0|0:0,0:0:0:0:
164,176,8001,2,0,L|96:176,3,40,8|0|8|0,0:0|0:0|0:0|0:0,0:0:0:0:
152,216,8418,2,0,L|192:216,3,40,8|0|0|0,0:0|0:0|0:0|0:0,0:0:0:0:
176,260,8834,6,0,P|176:304|208:360,1,80,4|0,0:0|0:0,0:0:0:0:
256,284,9251,1,8,0:0:0:0:
323,336,9459,2,0,L|384:336,2,40,0|0|0,0:0|0:0|0:0,0:0:0:0:
336,260,9876,1,0,0:0:0:0:
296,184,10084,1,8,0:0:0:0:
384,168,10293,1,0,0:0:0:0:
384,168,10397,1,0,0:0:0:0:
384,168,10501,6,0,P|420:128|428:84,2,80,2|0|8,0:0|0:0|0:0,0:0:0:0:
332,88,11126,2,0,P|256:64|168:96,1,160,0|0,0:0|0:0,0:0:0:0:
127,167,11751,2,0,P|99:140|84:103,1,80,8|0,0:0|0:0,0:0:0:0:
24,176,12168,2,0,L|24:284,1,80,4|0,0:0|0:0,0:0:0:0:
92,324,12584,5,8,0:0:0:0:
168,264,12793,2,0,L|224:264,2,40,0|0|2,0:0|0:0|0:0,0:0:0:0:
224,184,13209,2,0,L|280:184,2,40,0|0|8,0:0|0:0|0:0,0:0:0:0:
288,264,13626,2,0,L|344:264,2,40,0|0|2,0:0|0:0|0:0,0:0:0:0:
344,344,14042,2,0,L|400:344,2,40,0|0|8,0:0|0:0|0:0,0:0:0:0:
408,264,14459,5,0,0:0:0:0:
408,264,14563,1,0,0:0:0:0:
408,264,14668,2,0,L|476:264,3,40,2|0|0|0,0:0|0:0|0:0|0:0,0:0:0:0:
428,220,15084,2,0,L|496:220,3,40,8|0|0|0,0:0|0:0|0:0|0:0,0:0:0:0:
452,176,15501,6,0,P|468:96|448:12,1,160,4|8,0:0|0:0,0:0:0:0:
364,64,16126,2,0,P|286:80|208:64,1,160,2|0,0:0|0:0,0:0:0:0:
120,28,16751,2,0,L|100:128,1,80,8|0,0:0|0:0,0:0:0:0:
104,204,17168,6,0,P|168:192|236:224,1,120,2|0,0:0|0:0,0:0:0:0:
252,244,17584,2,0,L|300:256,3,40,0|0|0|0,0:0|0:0|0:0|0:0,0:0:0:0:
272,296,18001,2,0,L|320:308,3,40,8|0|0|0,0:0|0:0|0:0|0:0,0:0:0:0:
296,352,18418,2,0,L|344:364,3,40,8|8|8|2,0:0|0:0|0:0|0:0,0:0:0:0:
408,60,20501,6,0,L|408:168,1,80,4|0,0:0|0:0,0:0:0:0:
408,236,20918,1,8,0:0:0:0:
328,180,21126,2,0,P|256:156|168:188,1,160,0|0,0:0|0:0,0:0:0:0:
104,140,21751,6,0,L|104:60,1,80,8|0,0:0|0:0,0:0:0:0:
196,84,22168,1,0,0:0:0:0:
256,12,22376,1,0,0:0:0:0:
316,84,22584,1,8,0:0:0:0:
104,236,23209,2,0,L|104:324,1,80,0|8,0:0|0:0,0:0:0:0:
196,348,23626,1,0,0:0:0:0:
200,252,23834,6,0,P|264:280|280:312,1,80,4|0,0:0|0:0,0:0:0:0:
340,348,24251,1,8,0:0:0:0:
404,276,24459,2,0,L|452:192,1,80,0|0,0:0|0:0,0:0:0:0:
348,204,24876,2,0,L|348:112,1,80,0|8,0:0|0:0,0:0:0:0:
340,36,25293,1,0,0:0:0:0:
268,97,25501,6,0,P|238:123|200:132,1,80,0|0,0:0|0:0,0:0:0:0:
196,36,25918,1,8,0:0:0:0:
116,88,26126,2,0,P|96:168|116:256,1,160,0|0,0:0|0:0,0:0:0:0:
174,316,26751,2,0,P|139:335|100:340,1,80,8|0,0:0|0:0,0:0:0:0:
200,228,27168,6,0,P|235:209|274:204,1,80,4|0,0:0|0:0,0:0:0:0:
344,256,27584,2,0,P|382:245|414:222,1,80,8|0,0:0|0:0,0:0:0:0:
504,184,28001,2,0,P|485:106|436:44,1,160,0|8,0:0|0:0,0:0:0:0:
340,60,28626,6,0,P|277:109|200:127,1,160,0|0,0:0|0:0,0:0:0:0:
128,64,29251,1,8,0:0:0:0:
92,348,29876,1,0,0:0:0:0:
92,348,30084,2,0,L|96:256,1,80,8|0,0:0|0:0,0:0:0:0:
196,268,30501,6,0,L|200:364,2,80,4|0|8,0:0|0:0|0:0,0:0:0:0:
368,356,31334,2,0,P|446:337|508:288,1,160,0|8,0:0|0:0,0:0:0:0:
492,192,31959,6,0,P|443:129|425:52,1,160,4|0,0:0|0:0,0:0:0:0:
332,24,32584,1,8,0:0:0:0:
344,120,32793,1,0,0:0:0:0:
344,120,32897,1,0,0:0:0:0:
344,120,33001,2,0,L|344:176,3,40,0|0|0|0,0:0|0:0|0:0|0:0,0:0:0:0:
296,144,33418,2,0,L|296:184,3,40,8|0|0|0,0:0|0:0|0:0|0:0,0:0:0:0:
252,120,33834,6,0,L|148:120,1,80,4|0,0:0|0:0,0:0:0:0:
96,64,34251,1,8,0:0:0:0:
40,140,34459,2,0,L|20:228,1,80,0|0,0:0|0:0,0:0:0:0:
116,200,34876,2,0,L|116:296,1,80,0|8,0:0|0:0,0:0:0:0:
184,348,35293,1,0,0:0:0:0:
228,264,35501,6,0,P|268:248|336:264,1,80,0|0,0:0|0:0,0:0:0:0:
376,316,35918,1,8,0:0:0:0:
440,248,36126,2,0,L|456:80,1,160,0|0,0:0|0:0,0:0:0:0:
372,44,36751,2,0,P|328:84|280:84,1,80,8|0,0:0|0:0,0:0:0:0:
202,87,37168,6,0,P|165:74|140:44,1,80,4|0,0:0|0:0,0:0:0:0:
44,44,37584,1,8,0:0:0:0:
40,140,37793,2,0,L|20:228,1,80,0|0,0:0|0:0,0:0:0:0:
116,200,38210,2,0,L|116:296,1,80,0|8,0:0|0:0,0:0:0:0:
196,332,38626,1,0,0:0:0:0:
256,256,38834,6,0,L|256:168,2,80,0|0|8,0:0|0:0|0:0,0:0:0:0:
316,332,39459,2,0,P|392:348|468:304,1,160,0|0,0:0|0:0,0:0:0:0:
489,218,40084,2,0,L|472:140,1,80,8|0,0:0|0:0,0:0:0:0:
404,72,40501,6,0,P|356:48|320:52,1,80,4|0,0:0|0:0,0:0:0:0:
296,140,40918,2,0,P|256:148|212:140,1,80,8|0,0:0|0:0,0:0:0:0:
188,52,41334,2,0,P|96:80|72:152,1,160,0|8,0:0|0:0,0:0:0:0:
140,204,41959,6,0,P|200:228|240:316,1,160,0|0,0:0|0:0,0:0:0:0:
316,368,42584,1,8,0:0:0:0:
452,84,43209,1,0,0:0:0:0:
452,84,43418,2,0,P|396:68|360:80,1,80,8|0,0:0|0:0,0:0:0:0:
300,132,43834,6,0,P|260:136|204:132,2,80,4|0|8,0:0|0:0|0:0,0:0:0:0:
464,236,44668,2,0,P|408:300|304:320,1,160,0|8,0:0|0:0,0:0:0:0:
264,264,45293,6,0,P|196:240|104:244,1,160,4|0,0:0|0:0,0:0:0:0:
20,280,45918,1,8,0:0:0:0:
36,184,46126,1,0,0:0:0:0:
36,184,46230,1,0,0:0:0:0:
36,184,46334,2,0,L|36:132,2,40,0|0|0,0:0|0:0|0:0,0:0:0:0:
120,140,46751,2,0,P|172:136|212:144,1,80,8|0,0:0|0:0,0:0:0:0:
288,180,47168,6,0,P|344:124|344:48,1,160,4|8,0:0|0:0,0:0:0:0:
440,40,47793,2,0,P|444:132|396:216,1,160,4|0,0:0|0:0,0:0:0:0:
352,264,48418,2,0,P|232:264|112:312,1,240,4|8,0:0|0:0,0:0:0:0:
36,260,49251,6,0,L|36:204,1,40,8|0,0:0|0:0,0:0:0:0:
120,176,49563,2,0,L|120:228,1,40,0|8,0:0|0:0,0:0:0:0:
196,156,49876,2,0,L|196:104,5,40
240,136,50501,6,0,L|416:136,1,160,4|8,0:0|0:0,0:0:0:0:
384,40,51126,2,0,L|208:40,1,160,4|0,0:0|0:0,0:0:0:0:
132,68,51751,1,4,0:0:0:0:
48,240,52168,6,0,P|56:304|96:356,1,120,0|0,0:0|0:0,0:0:0:0:
232,348,52793,2,0,P|264:298|271:239,1,120,0|0,0:0|0:0,0:0:0:0:
364,132,53418,2,0,L|412:132,3,40,8|0|0|0,0:0|0:0|0:0|0:0,0:0:0:0:
392,180,53834,6,0,P|400:240|380:352,1,160,4|8,0:0|0:0,0:0:0:0:
288,328,54459,2,0,P|208:300|112:348,1,160,0|0,0:0|0:0,0:0:0:0:
48,348,55084,2,0,P|44:304|72:260,1,80,8|0,0:0|0:0,0:0:0:0:
144,228,55501,6,0,P|156:192|140:136,1,80,0|0,0:0|0:0,0:0:0:0:
72,96,55918,1,8,0:0:0:0:
152,40,56126,2,0,P|228:28|316:44,1,160,0|0,0:0|0:0,0:0:0:0:
348,128,56751,1,8,0:0:0:0:
416,60,56959,1,0,0:0:0:0:
472,140,57168,6,0,L|496:240,1,80,4|0,0:0|0:0,0:0:0:0:
420,280,57584,2,0,L|400:188,1,80,8|0,0:0|0:0,0:0:0:0:
348,128,58001,2,0,L|248:144,1,80,0|0,0:0|0:0,0:0:0:0:
244,232,58418,2,0,L|348:212,1,80,8|0,0:0|0:0,0:0:0:0:
304,312,58834,6,0,P|228:320|160:272,1,160,4|8,0:0|0:0,0:0:0:0:
164,180,59459,1,0,0:0:0:0:
164,180,59563,1,0,0:0:0:0:
164,180,59668,2,0,L|236:180,3,40,2|0|0|0,0:0|0:0|0:0|0:0,0:0:0:0:
196,132,60084,2,0,L|260:132,3,40,8|0|0|0,0:0|0:0|0:0|0:0,0:0:0:0:
224,88,60501,6,0,L|224:0,1,80,4|0,0:1|0:0,0:0:0:0:
316,36,61126,5,0,0:0:0:0:
316,36,61230,1,0,0:0:0:0:
316,36,61334,2,0,L|384:36,2,44.0000013427735,0|0|0,0:0|0:0|0:0,0:0:0:0:
340,128,61751,1,8,0:0:0:0:
428,92,61959,1,8,0:0:0:0:
428,196,62168,6,0,L|432:312,2,88.000002685547,4|0|8,0:0|0:0|0:0,0:0:0:0:
324,220,62793,1,0,0:0:0:0:
324,220,62897,1,0,0:0:0:0:
324,220,63001,2,0,P|324:272|296:320,1,88.000002685547,0|0,0:0|0:0,0:0:0:0:
224,240,63418,2,0,P|224:188|252:140,1,88.000002685547,8|0,0:0|0:0,0:0:0:0:
340,128,63834,6,0,P|380:100|388:52,2,88.000002685547,0|0|8,0:0|0:0|0:0,0:0:0:0:
256,64,64459,1,0,0:0:0:0:
256,64,64563,1,0,0:0:0:0:
256,64,64668,2,0,P|208:48|160:64,1,88.000002685547,0|0,0:0|0:0,0:0:0:0:
140,156,65084,2,0,P|96:128|80:92,1,88.000002685547,8|0,0:0|0:0,0:0:0:0:
12,176,65501,6,0,L|48:356,1,176.000005371094,4|8,0:0|0:0,0:0:0:0:
152,360,66126,2,0,P|200:360|240:344,1,88.000002685547,0|0,0:0|0:0,0:0:0:0:
180,256,66543,2,0,P|221:241|264:241,1,88.000002685547,0|8,0:0|0:0,0:0:0:0:
328,324,66959,1,0,0:0:0:0:
432,344,67168,6,0,L|520:344,2,88.000002685547,10|8|8,0:0|0:0|0:0,0:0:0:0:
396,244,67793,1,2,0:0:0:0:
485,206,68001,1,0,0:0:0:0:
476,109,68209,1,0,0:0:0:0:
382,87,68418,1,10,0:0:0:0:
332,170,68626,1,8,0:0:0:0:
396,244,68834,6,0,P|300:264|244:200,1,176.000005371094,4|8,0:0|0:0,0:0:0:0:
332,170,69459,2,0,P|266:116|185:141,1,176.000005371094,2|0,0:0|0:0,0:0:0:0:
140,236,70084,1,8,0:0:0:0:
216,308,70293,1,0,0:0:0:0:
112,328,70501,6,0,L|12:332,1,88.000002685547,2|0,0:0|0:0,0:0:0:0:
52,239,70918,2,0,L|160:235,1,88.000002685547,8|0,0:0|0:0,0:0:0:0:
261,184,71334,2,0,L|184:139,1,88.000002685547,0|0,0:0|0:0,0:0:0:0:
268,72,71751,2,0,L|368:72,1,88.000002685547,8|0,0:0|0:0,0:0:0:0:
452,116,72168,6,0,P|416:192|460:280,1,176.000005371094,4|8,0:0|0:0,0:0:0:0:
488,352,72793,1,0,0:0:0:0:
384,352,73001,2,0,L|184:340,1,176.000005371094,0|8,0:0|0:0,0:0:0:0:
124,276,73626,1,0,0:0:0:0:
224,244,73834,6,0,P|184:184|120:172,1,132.00000402832,8|8,0:0|0:0,0:0:0:0:
32,44,74459,1,8,0:0:0:0:
32,44,74563,1,8,0:0:0:0:
32,44,74668,2,0,P|72:24|136:28,1,88.000002685547,0|0,0:0|0:0,0:0:0:0:
176,108,75084,2,0,P|209:80|228:40,1,88.000002685547,8|8,0:0|0:0,0:0:0:0:
336,44,75501,6,0,P|355:83|388:111,2,88.000002685547,4|0|8,0:0|0:0|0:0,0:0:0:0:
429,22,76126,1,0,0:0:0:0:
429,22,76230,1,0,0:0:0:0:
429,22,76334,2,0,P|480:72|484:116,1,88.000002685547,0|0,0:0|0:0,0:0:0:0:
448,188,76751,2,0,L|440:288,1,88.000002685547,8|0,0:0|0:0,0:0:0:0:
336,252,77168,6,0,P|292:224|232:228,1,88.000002685547,0|0,0:0|0:0,0:0:0:0:
260,328,77584,1,8,0:0:0:0:
164,280,77793,2,0,P|148:196|208:124,1,176.000005371094,0|0,0:0|0:0,0:0:0:0:
304,120,78418,2,0,P|288:76|256:44,1,88.000002685547,8|0,0:0|0:0,0:0:0:0:
364,24,78834,6,0,P|392:76|380:204,1,176.000005371094,4|8,0:0|0:0,0:0:0:0:
324,276,79459,2,0,L|256:360,1,88.000002685547,0|0,0:0|0:0,0:0:0:0:
192,272,79876,2,0,L|112:328,1,88.000002685547,0|8,0:0|0:0,0:0:0:0:
24,280,80293,1,0,0:0:0:0:
76,188,80501,6,0,P|60:144|76:84,2,88.000002685547,10|8|8,0:0|0:0|0:0,0:0:0:0:
168,136,81126,1,2,0:0:0:0:
208,48,81334,1,0,0:0:0:0:
304,60,81543,1,0,0:0:0:0:
323,155,81751,1,10,0:0:0:0:
238,202,81959,1,8,0:0:0:0:
308,274,82168,6,0,P|227:303|152:264,1,176.000005371094,4|8,0:0|0:0,0:0:0:0:
238,202,82793,2,0,P|318:172|394:212,1,176.000005371094,2|0,0:0|0:0,0:0:0:0:
452,300,83418,2,0,P|484:272|496:216,1,88.000002685547,8|0,0:0|0:0,0:0:0:0:
456,132,83834,6,0,P|368:84|272:84,1,176.000005371094,2|8,0:0|0:0,0:0:0:0:
200,128,84459,2,0,P|114:144|29:122,1,176.000005371094,2|0,0:0|0:0,0:0:0:0:
24,16,85084,2,0,P|76:28|120:64,1,88.000002685547,8|0,0:0|0:0,0:0:0:0:
212,48,85501,6,0,P|296:60|396:40,1,176.000005371094,4|8,0:0|0:0,0:0:0:0:
468,32,86126,2,0,L|520:28,2,44.0000013427735,2|0|0,0:0|0:0|0:0,0:0:0:0:
436,112,86543,1,0,0:0:0:0:
504,176,86751,2,0,L|504:268,1,88.000002685547,8|0,0:0|0:0,0:0:0:0:
416,324,87168,6,0,P|356:340|284:316,1,132.00000402832,8|8,0:0|0:0,0:0:0:0:
140,272,87793,1,8,0:0:0:0:
140,272,87897,1,0,0:0:0:0:
140,272,88001,2,0,P|120:212|128:168,1,88.000002685547,0|0,0:0|0:0,0:0:0:0:
228,208,88418,2,0,P|227:164|204:120,1,88.000002685547,8|8,0:0|0:0,0:0:0:0:
124,84,88834,5,4,0:0:0:0:
195,19,89459,1,4,0:0:0:0:
286,53,90084,1,4,0:0:0:0:
301,148,90709,1,4,0:0:0:0:
229,209,91334,1,4,0:0:0:0:
139,175,91959,1,4,0:0:0:0:
256,192,92168,12,8,94668,0:0:0:0:
256,192,95501,5,4,0:0:0:0:
400,172,95918,2,0,L|460:172,2,40.000001525879,0|0|0,0:0|0:0|0:0,0:0:0:0:
364,140,96334,2,0,L|304:140,2,40.000001525879,0|0|0,0:0|0:0|0:0,0:0:0:0:
400,108,96751,2,0,L|460:108,2,40.000001525879,0|0|0,0:0|0:0|0:0,0:0:0:0:
368,72,97168,6,0,L|264:72,2,90.0000034332277,2|0|0,0:0|0:0|0:0,0:0:0:0:
428,28,98001,2,0,P|488:40|520:100,1,120.000004577637,0|0,0:0|0:0,0:0:0:0:
444,212,98834,6,0,L|456:324,2,90.0000034332277,2|0|0,0:0|0:0|0:0,0:0:0:0:
384,172,99668,2,0,P|324:156|252:180,1,120.000004577637
160,264,100501,6,0,P|102:277|44:261,2,120.000004577637,2|0|0,0:0|0:0|0:0,0:0:0:0:
280,184,101751,1,0,0:0:0:0:
208,60,102168,6,0,P|256:44|348:60,1,120.000004577637,4|0,0:0|0:0,0:0:0:0:
404,196,103001,2,0,P|410:136|393:79,1,120.000004577637
248,56,103834,6,0,P|205:61|144:64,2,90.0000034332277,2|0|0,0:0|0:0|0:0,0:0:0:0:
280,76,104563,2,0,P|300:144|288:216,2,120.000004577637,0|0|0,0:0|0:0|0:0,0:0:0:0:
288,40,105501,6,0,P|348:28|416:36,1,120.000004577637,0|0,0:0|0:0,0:0:0:0:
472,164,106334,2,0,P|476:240|456:296,1,120.000004577637,2|2,0:0|0:0,0:0:0:0:
328,332,107168,6,0,L|264:332,1,60.0000022888184,2|8,0:0|0:0,0:0:0:0:
280,260,107584,2,0,L|216:240,1,60.0000022888184,8|2,0:0|0:0,0:0:0:0:
256,176,108001,2,0,L|212:120,1,60.0000022888184,2|8,0:0|0:0,0:0:0:0:
280,88,108418,2,0,L|280:4,1,60.0000022888184,8|2,0:0|0:0,0:0:0:0:
352,16,108834,5,4,0:0:0:0:
200,268,122168,6,0,P|170:219|172:136,1,120,4|0,0:0|0:0,0:0:0:0:
345,157,122793,2,0,P|342:216|312:268,1,120,4|0,0:0|0:0,0:0:0:0:
256,136,123418,1,4,0:0:0:0:
48,120,125501,6,0,L|16:208,2,71.9999978027344,2|0|0,0:0|0:0|0:0,0:0:0:0:
128,156,126126,2,0,P|180:196|256:188,1,143.999995605469,0|0,0:0|0:0,0:0:0:0:
200,120,126751,2,0,L|212:48,1,71.9999978027344,0|0,0:0|0:0,0:0:0:0:
300,48,127168,6,0,L|312:120,1,71.9999978027344,0|0,0:0|0:0,0:0:0:0:
257,188,127584,1,0,0:0:0:0:
257,188,127793,2,0,P|327:197|384:156,1,143.999995605469,0|0,0:0|0:0,0:0:0:0:
464,120,128418,2,0,L|496:208,1,71.9999978027344,2|0,0:0|0:0,0:0:0:0:
476,272,128834,5,0,0:0:0:0:
404,320,129043,1,0,0:0:0:0:
320,292,129251,1,0,0:0:0:0:
244,336,129459,2,0,P|164:336|104:288,1,143.999995605469,0|2,0:0|0:0,0:0:0:0:
64,228,130084,2,0,L|140:192,1,71.9999978027344,0|0,0:0|0:0,0:0:0:0:
212,180,130501,6,0,P|212:224|184:260,2,71.9999978027344,0|0|0,0:0|0:0|0:0,0:0:0:0:
192,92,131126,1,0,0:0:0:0:
108,64,131335,1,0,0:0:0:0:
36,112,131543,1,0,0:0:0:0:
100,172,131751,2,0,L|148:172,3,35.9999989013672,0|0|0|0,0:0|0:0|0:0|0:0,0:0:0:0:
124,212,132168,6,0,L|124:296,2,71.9999978027344,2|0|0,0:0|0:0|0:0,0:0:0:0:
116,96,132793,2,0,P|175:57|246:60,1,143.999995605469,0|0,0:0|0:0,0:0:0:0:
313,136,133418,2,0,P|297:168|300:204,1,71.9999978027344,0|0,0:0|0:0,0:0:0:0:
382,197,133834,6,0,L|448:228,1,71.9999978027344,2|0,0:0|0:0,0:0:0:0:
416,308,134251,2,0,P|376:344|332:344,1,71.9999978027344,0|0,0:0|0:0,0:0:0:0:
292,292,134668,2,0,L|192:292,1,71.9999978027344,0|0,0:0|0:0,0:0:0:0:
152,347,135084,2,0,P|118:335|96:308,1,71.9999978027344,0|0,0:0|0:0,0:0:0:0:
64,228,135501,6,0,P|104:180|204:176,1,143.999995605469,2|0,0:0|0:0,0:0:0:0:
256,212,136126,1,0,0:0:0:0:
330,167,136334,2,0,P|400:175|448:228,1,143.999995605469,0|0,0:0|0:0,0:0:0:0:
256,316,137168,6,0,L|256:180,1,132.00000402832,12|8,0:0|0:0,0:0:0:0:
336,48,137793,1,8,0:0:0:0:
336,48,137897,1,0,0:0:0:0:
336,48,138001,2,0,P|388:40|440:64,1,88.000002685547,0|0,0:0|0:0,0:0:0:0:
372,144,138418,2,0,L|364:244,1,88.000002685547,8|8,0:0|0:0,0:0:0:0:
404,328,138834,6,0,P|352:336|300:312,1,88.000002685547,4|0,0:0|0:0,0:0:0:0:
256,240,139251,1,8,0:0:0:0:
192,325,139459,1,0,0:0:0:0:
192,325,139563,1,0,0:0:0:0:
192,325,139668,2,0,P|150:336|108:328,1,88.000002685547,0|0,0:0|0:0,0:0:0:0:
147,231,140084,2,0,L|140:144,1,88.000002685547,8|0,0:0|0:0,0:0:0:0:
91,50,140501,6,0,P|133:39|176:48,1,88.000002685547,0|0,0:0|0:0,0:0:0:0:
256,116,140918,1,8,0:0:0:0:
328,192,141126,1,0,0:0:0:0:
328,192,141230,1,0,0:0:0:0:
328,192,141334,2,0,P|370:200|412:189,1,88.000002685547,0|0,0:0|0:0,0:0:0:0:
492,260,141751,2,0,P|472:296|484:368,1,88.000002685547,8|0,0:0|0:0,0:0:0:0:
368,316,142168,6,0,P|280:292|192:328,1,176.000005371094,4|8,0:0|0:0,0:0:0:0:
96,336,142793,2,0,P|96:292|75:254,1,88.000002685547,0|0,0:0|0:0,0:0:0:0:
160,192,143209,2,0,P|202:203|244:194,1,88.000002685547,0|8,0:0|0:0,0:0:0:0:
288,100,143626,1,0,0:0:0:0:
380,52,143834,6,0,P|422:43|464:54,2,88.000002685547,10|8|8,0:0|0:0|0:0,0:0:0:0:
420,148,144459,1,2,0:0:0:0:
383,247,144668,1,0,0:0:0:0:
279,264,144876,1,0,0:0:0:0:
214,177,145084,1,10,0:0:0:0:
315,164,145293,1,8,0:0:0:0:
252,80,145501,6,0,P|168:80|104:160,1,176.000005371094,4|8,0:0|0:0,0:0:0:0:
70,240,146126,2,0,P|154:240|218:160,1,176.000005371094,2|0,0:0|0:0,0:0:0:0:
315,164,146751,2,0,L|331:260,1,88.000002685547,8|0,0:0|0:0,0:0:0:0:
244,316,147168,6,0,P|168:356|64:352,1,176.000005371094,2|8,0:0|0:0,0:0:0:0:
20,256,147793,2,0,P|40:176|24:76,1,176.000005371094,2|0,0:0|0:0,0:0:0:0:
120,36,148418,2,0,L|220:32,1,88.000002685547,8|0,0:0|0:0,0:0:0:0:
256,124,148834,6,0,P|256:204|320:284,1,176.000005371094,4|8,0:0|0:0,0:0:0:0:
416,304,149459,2,0,L|484:304,2,44.0000013427735,2|0|0,0:0|0:0|0:0,0:0:0:0:
380,204,149876,1,0,0:0:0:0:
484,212,150084,2,0,P|476:156|448:128,1,88.000002685547,8|0,0:0|0:0,0:0:0:0:
372,68,150501,6,0,L|220:36,1,132.00000402832,8|8,0:0|0:0,0:0:0:0:
88,76,151126,1,8,0:0:0:0:
88,76,151230,1,0,0:0:0:0:
88,76,151334,2,0,P|48:116|48:168,1,88.000002685547,0|0,0:0|0:0,0:0:0:0:
148,152,151751,2,0,P|136:193|103:221,1,88.000002685547,8|0,0:0|0:0,0:0:0:0:
20,284,152168,6,0,L|16:376,2,88.000002685547,4|0|8,0:0|0:0|0:0,0:0:0:0:
124,312,152793,2,0,L|124:364,2,44.0000013427735,0|0|0,0:0|0:0|0:0,0:0:0:0:
212,252,153209,1,0,0:0:0:0:
212,252,153418,2,0,L|312:248,1,88.000002685547,8|0,0:0|0:0,0:0:0:0:
384,188,153834,6,0,L|500:188,2,88.000002685547,0|0|8,0:0|0:0|0:0,0:0:0:0:
336,96,154459,1,0,0:0:0:0:
336,96,154563,1,0,0:0:0:0:
336,96,154668,2,0,L|220:72,1,88.000002685547,2|8,0:0|0:0,0:0:0:0:
216,180,155084,2,0,L|108:188,1,88.000002685547,8|8,0:0|0:0,0:0:0:0:
40,144,155501,5,4,0:0:0:0:
324,316,157168,6,0,L|204:316,1,120,12|8,0:0|0:0,0:0:0:0:
144,184,157793,2,0,L|264:184,1,120,8|8,0:0|0:0,0:0:0:0:
324,316,158418,1,8,0:0:0:0:
336,124,158834,6,0,P|336:80|304:24,1,80,4|0,0:0|0:0,0:0:0:0:
256,100,159251,1,8,0:0:0:0:
189,48,159459,2,0,L|128:48,2,40,0|0|0,0:0|0:0|0:0,0:0:0:0:
176,124,159876,1,0,0:0:0:0:
216,200,160084,1,8,0:0:0:0:
128,216,160293,1,0,0:0:0:0:
128,216,160397,1,0,0:0:0:0:
128,216,160501,6,0,P|88:183|76:124,2,80,2|0|8,0:0|0:0|0:0,0:0:0:0:
180,296,161126,2,0,P|256:320|344:288,1,160,0|0,0:0|0:0,0:0:0:0:
385,217,161751,2,2,P|413:244|428:281,1,80,8|0,0:0|0:0,0:0:0:0:
488,208,162168,2,0,L|488:100,1,80,4|0,0:0|0:0,0:0:0:0:
420,60,162584,5,8,0:0:0:0:
344,120,162793,2,0,L|288:120,2,40,0|0|2,0:0|0:0|0:0,0:0:0:0:
288,200,163209,2,0,L|348:200,2,40,0|0|8,0:0|0:0|0:0,0:0:0:0:
224,120,163626,2,0,L|168:120,2,40,0|0|2,0:0|0:0|0:0,0:0:0:0:
168,40,164042,2,0,L|232:40,2,40,0|0|8,0:0|0:0|0:0,0:0:0:0:
104,120,164459,5,0,0:0:0:0:
104,120,164563,1,0,0:0:0:0:
104,120,164668,2,0,L|36:120,3,40,2|0|0|0,0:0|0:0|0:0|0:0,0:0:0:0:
84,164,165084,2,0,L|16:164,3,40,8|0|0|0,0:0|0:0|0:0|0:0,0:0:0:0:
60,208,165501,6,0,P|44:288|64:372,1,160,4|8,0:0|0:0,0:0:0:0:
148,320,166126,2,0,P|226:304|304:320,1,160,4|0,0:0|0:0,0:0:0:0:
392,356,166751,2,0,L|412:256,1,80,8|0,0:0|0:0,0:0:0:0:
408,180,167168,6,0,P|344:192|276:160,1,120,4|0,0:0|0:0,0:0:0:0:
260,140,167584,2,0,L|212:140,3,40,0|0|0|0,0:0|0:0|0:0|0:0,0:0:0:0:
236,96,168001,2,0,L|180:96,3,40,8|0|0|0,0:0|0:0|0:0|0:0,0:0:0:0:
212,52,168418,2,0,L|164:52,3,40,8|8|8|2,0:0|0:0|0:0|0:0,0:0:0:0:
236,120,170501,6,0,B|204:100|144:104|120:184|196:252|220:272|248:268,1,240,4|4,0:0|0:0,0:0:0:0:
276,120,171751,6,0,B|308:100|368:104|392:184|316:252|292:272|264:268,1,240,4|4,0:0|0:0,0:0:0:0:
256,120,173001,6,0,B|244:176|244:176|264:228|264:228|256:276,1,155.999992858887,4|4,0:0|0:0,0:0:0:0:
