osu file format v14

[General]
AudioFilename: audio.mp3
AudioLeadIn: 0
PreviewTime: 177064
Countdown: 1
SampleSet: Soft
StackLeniency: 0.5
Mode: 0
LetterboxInBreaks: 0
WidescreenStoryboard: 0

[Editor]
DistanceSpacing: 1.6
BeatDivisor: 4
GridSize: 32
TimelineZoom: 3.799999

[Metadata]
Title:Omoide
TitleUnicode:おもいで
Artist:Koiwai Kotori, Murakawa Rie, Sakura Ayane, Asumi Kana
ArtistUnicode:小岩井ことり、村川梨衣、佐倉綾音、阿澄佳奈
Creator:Cris-
Version:Nyanpasu~!
Source:劇場版 のんのんびより ばけーしょん
Tags:Non Non Biyori Movie: Vacation Ending Anime Japanese J-Pop JPop Pop ZAQ 松田彬人 Matsuda Akito 宮内れんげ Miyauchi Renge 一条蛍 Ichijō Hotaru Ichijou Ichijo 越谷夏海 Koshigaya Natsumi 越谷小鞠 Koshigaya Komari Full Version
BeatmapID:2157799
BeatmapSetID:1031888

[Difficulty]
HPDrainRate:5
CircleSize:5
OverallDifficulty:8.5
ApproachRate:9
SliderMultiplier:1.7
SliderTickRate:1

[Events]
//Background and Video events
0,0,"Omoide.jpg",0,0
//Break Periods
//Storyboard Layer 0 (Background)
//Storyboard Layer 1 (Fail)
//Storyboard Layer 2 (Pass)
//Storyboard Layer 3 (Foreground)
//Storyboard Layer 4 (Overlay)
//Storyboard Sound Samples

[TimingPoints]
843,458.015267175573,4,2,1,60,1,0
843,-100,4,2,1,60,0,0
14583,-90.9090909090909,4,2,1,60,0,0
15499,-83.3333333333333,4,2,1,70,0,0
15843,-83.3333333333333,4,2,1,5,0,0
15957,-71.4285714285714,4,2,1,70,0,0
16415,-83.3333333333333,4,2,1,70,0,0
17789,-71.4285714285714,4,2,1,70,0,0
18247,-83.3333333333333,4,2,1,70,0,0
19621,-71.4285714285714,4,2,1,70,0,0
20079,-83.3333333333333,4,2,1,70,0,0
21453,-71.4285714285714,4,2,1,70,0,0
21568,-71.4285714285714,4,2,1,5,0,0
21682,-71.4285714285714,4,2,1,70,0,0
21911,-83.3333333333333,4,2,1,70,0,0
22026,-83.3333333333333,4,2,1,5,0,0
22140,-83.3333333333333,4,2,1,70,0,0
22255,-83.3333333333333,4,2,1,5,0,0
22369,-71.4285714285714,4,2,1,70,0,0
22827,-83.3333333333333,4,2,1,70,0,0
23171,-83.3333333333333,4,2,1,5,0,0
23285,-71.4285714285714,4,2,1,70,0,0
23743,-83.3333333333333,4,2,1,70,0,0
26949,-71.4285714285714,4,2,1,70,0,0
27407,-83.3333333333333,4,2,1,70,0,0
28323,-71.4285714285714,4,2,1,70,0,0
28781,-83.3333333333333,4,2,1,70,0,0
29926,-200,4,2,2,70,0,0
30041,-200,4,2,1,70,0,0
31873,-200,4,2,1,5,0,0
31988,-125,4,2,1,40,0,0
41491,-125,4,2,1,5,0,0
41606,-125,4,2,1,40,0,0
42865,-125,4,2,1,5,0,0
42980,-125,4,2,1,40,0,0
46644,-111.111111111111,4,2,1,45,0,0
48591,-111.111111111111,4,2,1,5,0,0
48705,-111.111111111111,4,2,1,45,0,0
49507,-111.111111111111,4,2,1,5,0,0
49621,-111.111111111111,4,2,1,45,0,0
53858,-111.111111111111,4,2,1,5,0,0
53972,-111.111111111111,4,2,1,45,0,0
57636,-100,4,2,2,65,0,0
57751,-100,4,2,1,65,0,0
59468,-100,4,2,1,5,0,0
59697,-100,4,2,1,65,0,0
59926,-100,4,2,1,5,0,0
60155,-100,4,2,1,65,0,0
61301,-111.111111111111,4,2,1,50,0,0
67598,-111.111111111111,4,2,1,5,0,0
67713,-111.111111111111,4,2,1,50,0,0
71262,-111.111111111111,4,2,1,5,0,0
71377,-111.111111111111,4,2,2,50,0,0
71606,-111.111111111111,4,2,1,50,0,0
72293,-100,4,2,1,55,0,0
72522,-100,4,2,1,5,0,0
72751,-100,4,2,1,55,0,0
72865,-100,4,2,1,5,0,0
72980,-100,4,2,1,55,0,0
74468,-100,4,2,1,5,0,0
74583,-100,4,2,1,55,0,0
75843,-100,4,2,1,5,0,0
75957,-100,4,2,1,65,0,0
76301,-100,4,2,1,5,0,0
76415,-100,4,2,1,65,0,0
77789,-111.111111111111,4,2,2,55,0,0
78247,-111.111111111111,4,2,1,55,0,0
79621,-66.6666666666667,4,2,1,80,0,1
79736,-66.6666666666667,4,2,1,5,0,1
79850,-66.6666666666667,4,2,1,80,0,1
79965,-66.6666666666667,4,2,1,5,0,1
80079,-66.6666666666667,4,2,1,80,0,1
80194,-66.6666666666667,4,2,1,5,0,1
80308,-66.6666666666667,4,2,1,80,0,1
80881,-66.6666666666667,4,2,1,5,0,1
80995,-66.6666666666667,4,2,1,80,0,1
81797,-66.6666666666667,4,2,1,5,0,1
81911,-66.6666666666667,4,2,1,80,0,1
82026,-66.6666666666667,4,2,1,5,0,1
82140,-66.6666666666667,4,2,1,80,0,1
82713,-66.6666666666667,4,2,1,5,0,1
82827,-66.6666666666667,4,2,1,80,0,1
83400,-66.6666666666667,4,2,1,5,0,1
83514,-66.6666666666667,4,2,1,80,0,1
83629,-66.6666666666667,4,2,1,5,0,1
83743,-66.6666666666667,4,2,1,80,0,1
83858,-66.6666666666667,4,2,1,5,0,1
83972,-66.6666666666667,4,2,1,80,0,1
84545,-66.6666666666667,4,2,1,5,0,1
84659,-66.6666666666667,4,2,1,80,0,1
85575,-55.5555555555556,4,2,1,80,0,1
85690,-55.5555555555556,4,2,1,5,0,1
85804,-55.5555555555556,4,2,1,80,0,1
85919,-55.5555555555556,4,2,1,5,0,1
86033,-66.6666666666667,4,2,1,80,0,1
86491,-55.5555555555556,4,2,1,80,0,0
86606,-55.5555555555556,4,2,1,5,0,0
86720,-66.6666666666667,4,2,1,80,0,0
86949,-66.6666666666667,4,2,1,80,0,1
87064,-55.5555555555556,4,2,1,5,0,1
87178,-66.6666666666667,4,2,1,80,0,1
87293,-66.6666666666667,4,2,1,5,0,1
87407,-66.6666666666667,4,2,1,80,0,1
87522,-66.6666666666667,4,2,1,5,0,1
87636,-66.6666666666667,4,2,1,80,0,1
88209,-66.6666666666667,4,2,1,5,0,1
88323,-66.6666666666667,4,2,1,80,0,1
89125,-66.6666666666667,4,2,1,5,0,1
89239,-66.6666666666667,4,2,1,80,0,1
89354,-66.6666666666667,4,2,1,5,0,1
89468,-66.6666666666667,4,2,1,80,0,1
89583,-66.6666666666667,4,2,1,5,0,1
89697,-66.6666666666667,4,2,1,80,0,1
90270,-66.6666666666667,4,2,1,5,0,1
90384,-66.6666666666667,4,2,1,80,0,1
91186,-66.6666666666667,4,2,1,5,0,1
91301,-66.6666666666667,4,2,1,80,0,1
91530,-62.5,4,2,1,80,0,1
91644,-62.5,4,2,1,5,0,1
91759,-58.8235294117647,4,2,1,80,0,1
91873,-58.8235294117647,4,2,1,5,0,1
91988,-55.5555555555556,4,2,1,80,0,1
92102,-55.5555555555556,4,2,1,5,0,1
92217,-50,4,2,1,80,0,1
92904,-62.5,4,2,1,80,0,1
93362,-55.5555555555556,4,2,1,80,0,1
93476,-55.5555555555556,4,2,1,5,0,1
93591,-55.5555555555556,4,2,1,80,0,1
93820,-50,4,2,1,80,0,0
94278,-66.6666666666667,4,2,1,80,0,1
94392,-66.6666666666667,4,2,1,5,0,1
94507,-66.6666666666667,4,2,1,80,0,1
94621,-66.6666666666667,4,2,1,5,0,1
94736,-66.6666666666667,4,2,1,80,0,1
94850,-66.6666666666667,4,2,1,5,0,1
94965,-66.6666666666667,4,2,1,80,0,1
95537,-66.6666666666667,4,2,1,5,0,1
95652,-66.6666666666667,4,2,1,80,0,1
96453,-66.6666666666667,4,2,1,5,0,1
96568,-66.6666666666667,4,2,1,80,0,1
96682,-66.6666666666667,4,2,1,5,0,1
96797,-66.6666666666667,4,2,1,80,0,1
97369,-66.6666666666667,4,2,1,5,0,1
97484,-66.6666666666667,4,2,1,80,0,1
98056,-66.6666666666667,4,2,1,5,0,1
98171,-66.6666666666667,4,2,1,80,0,1
98285,-66.6666666666667,4,2,1,5,0,1
98400,-66.6666666666667,4,2,1,80,0,1
98514,-66.6666666666667,4,2,1,5,0,1
98629,-66.6666666666667,4,2,1,80,0,1
99087,-66.6666666666667,4,2,1,80,0,1
99201,-66.6666666666667,4,2,1,5,0,1
99316,-66.6666666666667,4,2,1,80,0,1
99545,-50,4,2,1,80,0,1
100232,-55.5555555555556,4,2,1,80,0,1
100346,-55.5555555555556,4,2,1,5,0,1
100461,-55.5555555555556,4,2,1,80,0,1
100690,-62.5,4,2,1,80,0,1
100804,-62.5,4,2,1,5,0,1
100919,-62.5,4,2,1,80,0,1
101148,-71.4285714285714,4,2,1,80,0,1
101262,-71.4285714285714,4,2,1,5,0,1
101377,-71.4285714285714,4,2,1,80,0,1
101606,-100,4,2,1,70,0,0
101949,-100,4,2,1,5,0,0
102064,-100,4,2,1,70,0,0
103323,-100,4,2,1,5,0,0
103438,-100,4,2,1,70,0,0
103781,-100,4,2,1,5,0,0
103896,-100,4,2,1,70,0,0
105155,-100,4,2,1,5,0,0
105270,-100,4,2,1,70,0,0
106072,-100,4,2,1,5,0,0
106186,-100,4,2,1,70,0,0
106988,-100,4,2,1,5,0,0
107102,-83.3333333333333,4,2,1,70,0,0
108362,-83.3333333333333,4,2,1,5,0,0
108476,-83.3333333333333,4,2,1,70,0,0
108934,-100,4,2,1,70,0,0
109278,-100,4,2,1,5,0,0
109392,-100,4,2,1,70,0,0
111110,-100,4,2,1,5,0,0
111224,-100,4,2,1,70,0,0
112598,-83.3333333333333,4,2,1,80,0,1
112942,-83.3333333333333,4,2,1,5,0,1
113056,-71.4285714285714,4,2,1,80,0,1
113514,-62.5,4,2,1,80,0,1
113972,-55.5555555555556,4,2,1,80,0,1
114316,-55.5555555555556,4,2,1,5,0,1
114430,-125,4,2,1,80,0,0
114888,-125,4,2,1,5,0,0
115346,-100,4,2,1,80,0,0
115575,-83.3333333333333,4,2,1,80,0,0
115804,-71.4285714285714,4,2,1,80,0,0
116033,-62.5,4,2,1,80,0,0
116262,-83.3333333333333,4,2,1,70,0,0
116606,-83.3333333333333,4,2,1,5,0,0
116720,-71.4285714285714,4,2,1,70,0,0
117178,-83.3333333333333,4,2,1,70,0,0
118552,-71.4285714285714,4,2,1,70,0,0
119010,-83.3333333333333,4,2,1,70,0,0
120384,-71.4285714285714,4,2,1,70,0,0
120842,-83.3333333333333,4,2,1,70,0,0
122216,-71.4285714285714,4,2,1,70,0,0
122674,-83.3333333333333,4,2,1,70,0,0
123132,-71.4285714285714,4,2,1,70,0,0
123590,-83.3333333333333,4,2,1,70,0,0
123934,-83.3333333333333,4,2,1,5,0,0
124048,-71.4285714285714,4,2,1,70,0,0
124506,-83.3333333333333,4,2,1,70,0,0
127712,-71.4285714285714,4,2,1,70,0,0
128170,-83.3333333333333,4,2,1,70,0,0
128858,-71.4285714285714,4,2,2,70,0,0
128972,-71.4285714285714,4,2,1,70,0,0
129316,-83.3333333333333,4,2,1,70,0,0
130804,-83.3333333333333,4,2,1,5,0,0
130919,-100,4,2,1,50,0,0
131262,-100,4,2,1,5,0,0
131377,-100,4,2,1,50,0,0
132865,-100,4,2,1,5,0,0
132980,-100,4,2,1,50,0,0
134926,-100,4,2,1,5,0,0
135041,-100,4,2,1,50,0,0
136530,-100,4,2,1,5,0,0
136644,-100,4,2,1,50,0,0
137904,-100,4,2,1,5,0,0
138018,-100,4,2,1,50,0,0
138133,-100,4,2,1,5,0,0
138247,-100,4,2,1,50,0,0
138591,-100,4,2,1,5,0,0
138705,-100,4,2,1,50,0,0
139965,-100,4,2,1,5,0,0
140079,-100,4,2,1,50,0,0
140881,-100,4,2,1,5,0,0
140995,-100,4,2,1,50,0,0
141797,-100,4,2,1,5,0,0
141911,-100,4,2,1,50,0,0
142255,-100,4,2,1,5,0,0
142369,-100,4,2,1,50,0,0
145575,-90.9090909090909,4,2,1,55,0,0
147522,-90.9090909090909,4,2,1,5,0,0
147636,-90.9090909090909,4,2,1,55,0,0
151186,-90.9090909090909,4,2,1,5,0,0
151301,-90.9090909090909,4,2,1,55,0,0
152789,-90.9090909090909,4,2,1,5,0,0
152904,-90.9090909090909,4,2,1,55,0,0
153247,-90.9090909090909,4,2,1,5,0,0
153362,-90.9090909090909,4,2,1,55,0,0
156568,-83.3333333333333,4,2,2,65,0,0
156682,-83.3333333333333,4,2,1,65,0,0
158400,-83.3333333333333,4,2,1,5,0,0
158629,-83.3333333333333,4,2,1,65,0,0
160232,-90.9090909090909,4,2,1,60,0,0
161491,-90.9090909090909,4,2,1,5,0,0
161606,-90.9090909090909,4,2,1,60,0,0
163094,-90.9090909090909,4,2,1,5,0,0
163209,-90.9090909090909,4,2,1,60,0,0
164468,-90.9090909090909,4,2,1,5,0,0
164583,-90.9090909090909,4,2,1,60,0,0
165155,-90.9090909090909,4,2,1,5,0,0
165270,-90.9090909090909,4,2,1,60,0,0
165613,-90.9090909090909,4,2,1,5,0,0
165728,-90.9090909090909,4,2,1,60,0,0
167102,-76.9230769230769,4,2,1,60,0,0
167560,-90.9090909090909,4,2,1,60,0,0
168820,-90.9090909090909,4,2,1,5,0,0
168934,-90.9090909090909,4,2,1,60,0,0
170308,-90.9090909090909,4,2,2,60,0,0
170537,-90.9090909090909,4,2,1,60,0,0
171224,-83.3333333333333,4,2,1,65,0,0
171339,-83.3333333333333,4,2,1,5,0,0
171453,-83.3333333333333,4,2,1,65,0,0
173399,-83.3333333333333,4,2,1,5,0,0
173514,-83.3333333333333,4,2,1,65,0,0
174774,-83.3333333333333,4,2,1,5,0,0
174888,-83.3333333333333,4,2,1,70,0,0
175232,-83.3333333333333,4,2,1,5,0,0
175346,-83.3333333333333,4,2,1,70,0,0
176720,-111.111111111111,4,2,2,60,0,0
177178,-111.111111111111,4,2,1,60,0,0
178552,-66.6666666666667,4,2,1,80,0,1
178667,-66.6666666666667,4,2,1,5,0,1
178781,-66.6666666666667,4,2,1,80,0,1
178896,-66.6666666666667,4,2,1,5,0,1
179010,-66.6666666666667,4,2,1,80,0,1
179125,-66.6666666666667,4,2,1,5,0,1
179239,-66.6666666666667,4,2,1,80,0,1
179812,-66.6666666666667,4,2,1,5,0,1
179926,-66.6666666666667,4,2,1,80,0,1
180728,-66.6666666666667,4,2,1,5,0,1
180842,-66.6666666666667,4,2,1,80,0,1
180957,-66.6666666666667,4,2,1,5,0,1
181071,-66.6666666666667,4,2,1,80,0,1
181644,-66.6666666666667,4,2,1,5,0,1
181758,-66.6666666666667,4,2,1,80,0,1
182331,-66.6666666666667,4,2,1,5,0,1
182445,-66.6666666666667,4,2,1,80,0,1
182560,-66.6666666666667,4,2,1,5,0,1
182674,-66.6666666666667,4,2,1,80,0,1
182789,-66.6666666666667,4,2,1,5,0,1
182903,-66.6666666666667,4,2,1,80,0,1
183476,-66.6666666666667,4,2,1,5,0,1
183590,-66.6666666666667,4,2,1,80,0,1
184506,-55.5555555555556,4,2,1,80,0,1
184621,-55.5555555555556,4,2,1,5,0,1
184735,-55.5555555555556,4,2,1,80,0,1
184850,-55.5555555555556,4,2,1,5,0,1
184964,-66.6666666666667,4,2,1,80,0,1
185423,-55.5555555555556,4,2,1,80,0,0
185537,-55.5555555555556,4,2,1,5,0,0
185651,-66.6666666666667,4,2,1,80,0,0
185881,-66.6666666666667,4,2,1,80,0,1
185995,-55.5555555555556,4,2,1,5,0,1
186109,-66.6666666666667,4,2,1,80,0,1
186224,-66.6666666666667,4,2,1,5,0,1
186338,-66.6666666666667,4,2,1,80,0,1
186453,-66.6666666666667,4,2,1,5,0,1
186567,-66.6666666666667,4,2,1,80,0,1
187140,-66.6666666666667,4,2,1,5,0,1
187254,-66.6666666666667,4,2,1,80,0,1
188056,-66.6666666666667,4,2,1,5,0,1
188170,-66.6666666666667,4,2,1,80,0,1
188285,-66.6666666666667,4,2,1,5,0,1
188399,-66.6666666666667,4,2,1,80,0,1
188514,-66.6666666666667,4,2,1,5,0,1
188628,-66.6666666666667,4,2,1,80,0,1
189201,-66.6666666666667,4,2,1,5,0,1
189315,-66.6666666666667,4,2,1,80,0,1
190117,-66.6666666666667,4,2,1,5,0,1
190232,-66.6666666666667,4,2,1,80,0,1
190461,-62.5,4,2,1,80,0,1
190575,-62.5,4,2,1,5,0,1
190690,-58.8235294117647,4,2,1,80,0,1
190804,-58.8235294117647,4,2,1,5,0,1
190919,-55.5555555555556,4,2,1,80,0,1
191033,-55.5555555555556,4,2,1,5,0,1
191148,-50,4,2,1,80,0,1
191835,-62.5,4,2,1,80,0,1
192293,-55.5555555555556,4,2,1,80,0,1
192407,-55.5555555555556,4,2,1,5,0,1
192522,-55.5555555555556,4,2,1,80,0,1
192751,-50,4,2,1,80,0,0
193209,-66.6666666666667,4,2,1,80,0,1
193323,-66.6666666666667,4,2,1,5,0,1
193438,-66.6666666666667,4,2,1,80,0,1
193552,-66.6666666666667,4,2,1,5,0,1
193667,-66.6666666666667,4,2,1,80,0,1
193781,-66.6666666666667,4,2,1,5,0,1
193896,-66.6666666666667,4,2,1,80,0,1
194468,-66.6666666666667,4,2,1,5,0,1
194583,-66.6666666666667,4,2,1,80,0,1
195384,-66.6666666666667,4,2,1,5,0,1
195499,-66.6666666666667,4,2,1,80,0,1
195613,-66.6666666666667,4,2,1,5,0,1
195728,-66.6666666666667,4,2,1,80,0,1
196300,-66.6666666666667,4,2,1,5,0,1
196415,-66.6666666666667,4,2,1,80,0,1
196987,-66.6666666666667,4,2,1,5,0,1
197102,-66.6666666666667,4,2,1,80,0,1
197216,-66.6666666666667,4,2,1,5,0,1
197331,-66.6666666666667,4,2,1,80,0,1
197445,-66.6666666666667,4,2,1,5,0,1
197560,-66.6666666666667,4,2,1,80,0,1
198018,-66.6666666666667,4,2,1,80,0,1
198132,-66.6666666666667,4,2,1,5,0,1
198247,-66.6666666666667,4,2,1,80,0,1
198476,-50,4,2,1,80,0,1
199163,-55.5555555555556,4,2,1,80,0,1
199277,-55.5555555555556,4,2,1,5,0,1
199392,-55.5555555555556,4,2,1,80,0,1
199621,-62.5,4,2,1,80,0,1
199735,-62.5,4,2,1,5,0,1
199850,-62.5,4,2,1,80,0,1
200079,-71.4285714285714,4,2,1,80,0,1
200193,-71.4285714285714,4,2,1,5,0,1
200308,-71.4285714285714,4,2,1,80,0,1
200537,-100,4,2,1,70,0,0
200880,-100,4,2,1,5,0,0
200995,-100,4,2,1,70,0,0
202254,-100,4,2,1,5,0,0
202369,-100,4,2,1,70,0,0
202712,-100,4,2,1,5,0,0
202827,-100,4,2,1,70,0,0
204086,-100,4,2,1,5,0,0
204201,-100,4,2,1,70,0,0
205003,-100,4,2,1,5,0,0
205117,-100,4,2,1,70,0,0
205919,-100,4,2,1,5,0,0
206033,-83.3333333333333,4,2,1,70,0,0
207293,-83.3333333333333,4,2,1,5,0,0
207407,-83.3333333333333,4,2,1,70,0,0
207865,-100,4,2,1,70,0,0
208209,-100,4,2,1,5,0,0
208323,-100,4,2,1,70,0,0
210041,-100,4,2,1,5,0,0
210155,-100,4,2,1,70,0,0
211530,-83.3333333333333,4,2,1,80,0,1
211873,-83.3333333333333,4,2,1,5,0,1
211987,-71.4285714285714,4,2,1,80,0,1
212445,-62.5,4,2,1,80,0,1
212903,-55.5555555555556,4,2,1,80,0,1
213247,-55.5555555555556,4,2,1,5,0,1
213362,-125,4,2,1,80,0,0
213819,-125,4,2,1,80,0,0
214277,-100,4,2,1,80,0,0
214506,-83.3333333333333,4,2,1,80,0,0
214735,-71.4285714285714,4,2,1,80,0,0
214964,-62.5,4,2,1,80,0,0
215193,-83.3333333333333,4,2,1,70,0,0
237522,-83.3333333333333,4,2,1,5,0,0
237636,-83.3333333333333,4,2,1,70,0,0
241759,-71.4285714285714,4,2,1,70,0,0
242217,-83.3333333333333,4,2,1,70,0,0
243133,-71.4285714285714,4,2,1,70,0,0
243591,-83.3333333333333,4,2,1,70,0,0
244049,-100,4,2,1,70,0,0
244392,-83.3333333333333,4,2,1,5,0,0
244507,-83.3333333333333,4,2,1,70,0,0
244850,-83.3333333333333,4,2,1,5,0,0
244965,-83.3333333333333,4,2,1,70,0,0
245423,-71.4285714285714,4,2,1,70,0,0
245766,-71.4285714285714,4,2,1,5,0,0
245881,-71.4285714285714,4,2,1,70,0,0
246110,-62.5,4,2,1,70,0,0
246453,-62.5,4,2,1,5,0,0
246568,-62.5,4,2,1,70,0,0
246797,-55.5555555555556,4,2,1,70,0,0
247255,-71.4285714285714,4,2,1,70,0,0
247713,-83.3333333333333,4,2,1,70,0,0
248056,-83.3333333333333,4,2,1,5,0,0
248171,-125,4,2,1,60,0,0
248400,-125,4,2,1,40,0,0
249087,-125,4,2,1,60,0,0
249316,-125,4,2,1,40,0,0
249774,-125,4,2,1,60,0,0
250003,-125,4,2,1,25,0,0
250232,-125,4,2,1,40,0,0
250690,-125,4,2,1,60,0,0
250919,-125,4,2,1,25,0,0
251148,-125,4,2,1,40,0,0
251835,-125,4,2,1,60,0,0
252064,-125,4,2,1,40,0,0
252751,-125,4,2,1,60,0,0
252980,-125,4,2,1,40,0,0
253438,-125,4,2,1,60,0,0
253667,-125,4,2,1,25,0,0
253896,-125,4,2,1,40,0,0
254583,-125,4,2,2,60,0,0
254697,-125,4,2,1,60,0,0
255041,-125,4,2,1,40,0,0
255499,-125,4,2,1,60,0,0
255728,-125,4,2,1,40,0,0
257102,-125,4,2,1,60,0,0
257560,-125,4,2,1,40,0,0
258247,-125,4,2,1,45,0,0
259163,-100,4,2,1,50,0,0
260079,-100,4,2,1,55,0,0
260995,-100,4,2,1,65,0,0
261911,-100,4,2,1,70,0,0
262827,-83.3333333333333,4,2,1,70,0,0
264659,-111.111111111111,4,2,2,55,0,0
265117,-111.111111111111,4,2,1,55,0,0
266949,-100,4,2,1,60,0,0
267407,-83.3333333333333,4,2,1,70,0,0
267865,-40,4,2,1,80,0,1
268094,-40,4,2,1,80,0,0
268323,-66.6666666666667,4,2,1,80,0,1
268438,-66.6666666666667,4,2,1,5,0,1
268552,-66.6666666666667,4,2,1,80,0,1
268667,-66.6666666666667,4,2,1,5,0,1
268781,-66.6666666666667,4,2,1,80,0,1
268896,-66.6666666666667,4,2,1,5,0,1
269010,-66.6666666666667,4,2,1,80,0,1
269583,-66.6666666666667,4,2,1,5,0,1
269697,-66.6666666666667,4,2,1,80,0,1
270499,-66.6666666666667,4,2,1,5,0,1
270613,-66.6666666666667,4,2,1,80,0,1
270728,-66.6666666666667,4,2,1,5,0,1
270842,-66.6666666666667,4,2,1,80,0,1
271415,-66.6666666666667,4,2,1,5,0,1
271529,-66.6666666666667,4,2,1,80,0,1
272102,-66.6666666666667,4,2,1,5,0,1
272216,-66.6666666666667,4,2,1,80,0,1
272331,-66.6666666666667,4,2,1,5,0,1
272445,-66.6666666666667,4,2,1,80,0,1
272560,-66.6666666666667,4,2,1,5,0,1
272674,-66.6666666666667,4,2,1,80,0,1
273247,-66.6666666666667,4,2,1,5,0,1
273361,-66.6666666666667,4,2,1,80,0,1
274277,-55.5555555555556,4,2,1,80,0,1
274392,-55.5555555555556,4,2,1,5,0,1
274506,-55.5555555555556,4,2,1,80,0,1
274621,-55.5555555555556,4,2,1,80,0,1
274735,-66.6666666666667,4,2,1,80,0,1
275194,-55.5555555555556,4,2,1,80,0,0
275308,-55.5555555555556,4,2,1,5,0,0
275423,-66.6666666666667,4,2,1,80,0,0
275652,-66.6666666666667,4,2,1,80,0,1
275766,-55.5555555555556,4,2,1,5,0,1
275880,-66.6666666666667,4,2,1,80,0,1
275995,-66.6666666666667,4,2,1,5,0,1
276109,-66.6666666666667,4,2,1,80,0,1
276224,-66.6666666666667,4,2,1,5,0,1
276338,-66.6666666666667,4,2,1,80,0,1
276911,-66.6666666666667,4,2,1,5,0,1
277025,-66.6666666666667,4,2,1,80,0,1
277827,-66.6666666666667,4,2,1,5,0,1
277941,-66.6666666666667,4,2,1,80,0,1
278056,-66.6666666666667,4,2,1,5,0,1
278170,-66.6666666666667,4,2,1,80,0,1
278285,-66.6666666666667,4,2,1,5,0,1
278399,-66.6666666666667,4,2,1,80,0,1
278972,-66.6666666666667,4,2,1,5,0,1
279086,-66.6666666666667,4,2,1,80,0,1
279888,-66.6666666666667,4,2,1,5,0,1
280003,-66.6666666666667,4,2,1,80,0,1
280232,-62.5,4,2,1,80,0,1
280346,-62.5,4,2,1,5,0,1
280461,-58.8235294117647,4,2,1,80,0,1
280575,-58.8235294117647,4,2,1,5,0,1
280690,-55.5555555555556,4,2,1,80,0,1
280804,-55.5555555555556,4,2,1,5,0,1
280919,-50,4,2,1,80,0,1
281491,-50,4,2,1,5,0,1
281606,-62.5,4,2,1,80,0,1
281949,-62.5,4,2,1,5,0,1
282064,-55.5555555555556,4,2,1,80,0,1
282178,-55.5555555555556,4,2,1,5,0,1
282293,-55.5555555555556,4,2,1,80,0,1
282522,-50,4,2,1,80,0,1
282980,-66.6666666666667,4,2,1,80,0,0
283438,-66.6666666666667,4,2,1,80,0,1
283552,-66.6666666666667,4,2,1,5,0,1
283667,-66.6666666666667,4,2,1,80,0,1
284239,-66.6666666666667,4,2,1,5,0,1
284354,-66.6666666666667,4,2,1,80,0,1
285155,-66.6666666666667,4,2,1,5,0,1
285270,-66.6666666666667,4,2,1,80,0,1
285384,-66.6666666666667,4,2,1,5,0,1
285499,-66.6666666666667,4,2,1,80,0,1
286071,-66.6666666666667,4,2,1,5,0,1
286186,-66.6666666666667,4,2,1,80,0,1
286758,-66.6666666666667,4,2,1,5,0,1
286873,-66.6666666666667,4,2,1,80,0,1
286987,-66.6666666666667,4,2,1,5,0,1
287102,-66.6666666666667,4,2,1,80,0,1
287216,-66.6666666666667,4,2,1,5,0,1
287331,-66.6666666666667,4,2,1,80,0,1
287789,-66.6666666666667,4,2,1,80,0,1
287903,-66.6666666666667,4,2,1,5,0,1
288018,-66.6666666666667,4,2,1,80,0,1
288247,-50,4,2,1,80,0,1
288934,-71.4285714285714,4,2,1,80,0,1
289048,-71.4285714285714,4,2,1,5,0,1
289163,-55.5555555555556,4,2,1,80,0,1
289392,-62.5,4,2,1,80,0,1
289506,-62.5,4,2,1,5,0,1
289621,-62.5,4,2,1,80,0,1
289850,-55.5555555555556,4,2,1,80,0,1
289964,-55.5555555555556,4,2,1,5,0,1
290079,-71.4285714285714,4,2,1,80,0,1
290308,-100,4,2,1,70,0,0
290651,-100,4,2,1,5,0,0
290766,-100,4,2,1,70,0,0
292025,-100,4,2,1,5,0,0
292140,-100,4,2,1,70,0,0
292483,-100,4,2,1,5,0,0
292598,-100,4,2,1,70,0,0
293857,-100,4,2,1,5,0,0
293972,-100,4,2,1,70,0,0
294774,-100,4,2,1,5,0,0
294888,-100,4,2,1,70,0,0
295690,-100,4,2,1,5,0,0
295804,-83.3333333333333,4,2,1,70,0,0
297064,-83.3333333333333,4,2,1,5,0,0
297178,-83.3333333333333,4,2,1,70,0,0
297636,-100,4,2,1,70,0,0
297980,-100,4,2,1,5,0,0
298094,-100,4,2,1,70,0,0
299812,-100,4,2,1,5,0,0
299926,-100,4,2,1,70,0,0
301301,-83.3333333333333,4,2,1,80,0,1
301644,-83.3333333333333,4,2,1,5,0,1
301758,-71.4285714285714,4,2,1,80,0,1
302216,-62.5,4,2,1,80,0,1
302674,-55.5555555555556,4,2,1,80,0,1
303018,-55.5555555555556,4,2,1,5,0,1
303133,-125,4,2,1,80,0,0
303590,-125,4,2,1,80,0,0
304048,-100,4,2,1,80,0,0
304277,-83.3333333333333,4,2,1,80,0,0
304506,-71.4285714285714,4,2,1,80,0,0
304735,-62.5,4,2,1,80,0,0
304965,-83.3333333333333,4,2,1,70,0,1
305308,-83.3333333333333,4,2,1,5,0,1
305423,-71.4285714285714,4,2,1,70,0,1
305881,-83.3333333333333,4,2,1,70,0,1
308171,-71.4285714285714,4,2,1,70,0,1
308629,-83.3333333333333,4,2,1,70,0,1
310461,-71.4285714285714,4,2,1,70,0,1
311835,-71.4285714285714,4,2,1,70,0,0
312293,-83.3333333333333,4,2,1,70,0,1
312636,-83.3333333333333,4,2,1,5,0,1
312751,-71.4285714285714,4,2,1,70,0,1
313209,-83.3333333333333,4,2,1,70,0,1
315041,-71.4285714285714,4,2,1,70,0,1
315957,-83.3333333333333,4,2,1,70,0,1
316644,-62.5,4,2,1,70,0,1
317560,-71.4285714285714,4,2,1,70,0,1
317904,-83.3333333333333,4,2,1,5,0,1
318018,-83.3333333333333,4,2,1,70,0,1
319163,-62.5,4,2,1,70,0,1
319507,-71.4285714285714,4,2,1,5,0,1
319621,-125,4,2,2,60,0,0
319736,-125,4,2,1,60,0,0

[Colours]
Combo1 : 243,131,103
Combo2 : 164,164,255
Combo3 : 40,206,215
Combo4 : 232,199,123

[HitObjects]
144,186,613,5,10,0:0:0:0:
130,222,728,1,10,0:0:0:0:
116,258,843,6,0,L|279:211,1,170,6|0,3:2|3:0,0:0:0:0:
407,355,1530,5,2,3:2:0:0:
505,268,1759,1,0,3:0:0:0:
439,157,1988,1,0,3:0:0:0:
512,280,2217,1,10,3:2:0:0:
397,362,2446,1,0,3:0:0:0:
443,145,2675,5,0,3:0:0:0:
328,203,2904,2,0,L|340:243,1,42.5,2|0,3:2|3:0,0:0:0:0:
420,284,3133,2,0,L|432:244,3,42.5,2|0|2|0,3:2|3:0|3:2|3:0,0:0:0:0:
317,197,3591,6,0,L|329:237,1,42.5,10|0,3:2|3:0,0:0:0:0:
428,292,3820,2,0,L|440:252,1,42.5,0|0,3:0|3:0,0:0:0:0:
336,351,4049,5,10,0:0:0:0:
323,314,4163,1,0,3:0:0:0:
286,301,4278,1,2,3:2:0:0:
253,319,4392,1,0,3:0:0:0:
212,384,4507,6,0,P|220:303|164:242,1,170,14|0,3:2|3:0,0:0:0:0:
11,135,5194,5,2,3:2:0:0:
124,71,5423,1,0,3:0:0:0:
237,7,5652,1,0,3:0:0:0:
113,77,5881,1,10,3:2:0:0:
0,141,6110,1,0,3:0:0:0:
226,13,6339,5,0,3:0:0:0:
245,139,6568,2,0,P|228:126|209:118,1,42.5,2|0,3:2|3:0,0:0:0:0:
321,82,6797,1,2,3:2:0:0:
326,88,6911,1,0,3:0:0:0:
330,94,7026,2,0,P|338:74|340:53,1,42.5,2|0,3:2|3:0,0:0:0:0:
239,150,7255,6,0,P|222:137|202:128,1,42.5,10|0,3:2|3:0,0:0:0:0:
340,101,7484,2,0,P|348:81|350:60,1,42.5,2|0,3:2|3:0,0:0:0:0:
235,160,7713,1,2,3:2:0:0:
396,321,7942,1,10,0:0:0:0:
425,295,8056,1,10,0:0:0:0:
420,256,8171,6,0,P|346:234|328:306,1,170,6|0,3:2|3:0,0:0:0:0:
487,196,8858,5,2,3:2:0:0:
400,98,9087,1,0,3:0:0:0:
289,164,9316,1,0,3:0:0:0:
412,91,9545,1,10,3:2:0:0:
494,206,9774,1,0,3:0:0:0:
277,157,10003,5,0,3:2:0:0:
424,84,10232,2,0,L|412:124,1,42.5,2|0,3:2|3:0,0:0:0:0:
289,164,10461,2,0,L|277:204,3,42.5,2|0|0|0,3:2|3:0|3:0|3:0,0:0:0:0:
436,77,10919,6,0,L|424:117,1,42.5,10|0,3:2|3:0,0:0:0:0:
301,171,11148,2,0,L|289:211,1,42.5,0|0,3:0|3:0,0:0:0:0:
423,347,11377,5,10,3:2:0:0:
410,310,11491,1,0,3:0:0:0:
373,297,11606,1,2,3:2:0:0:
340,315,11720,1,0,3:0:0:0:
299,380,11835,6,0,P|317:305|243:288,1,170,6|0,3:2|3:0,0:0:0:0:
64,371,12522,5,2,3:2:0:0:
112,248,12751,1,0,3:2:0:0:
161,129,12980,1,0,3:2:0:0:
106,261,13209,1,10,3:2:0:0:
58,384,13438,1,0,3:0:0:0:
155,142,13667,5,10,0:0:0:0:
149,155,13781,1,8,0:0:0:0:
143,168,13896,2,0,L|127:128,1,42.5,4|0,3:2|0:0,0:0:0:0:
77,198,14125,2,0,L|61:158,1,42.5,4|0,3:2|0:0,0:0:0:0:
248,25,14354,5,8,0:0:0:0:
262,60,14469,1,8,0:0:0:0:
277,96,14583,2,0,L|294:53,1,46.7500014266968,4|0,3:2|0:0,0:0:0:0:
382,144,14812,2,0,L|399:101,1,46.7500014266968,4|0,3:2|0:0,0:0:0:0:
245,210,15041,6,0,P|243:202|237:196,5,15.5833338088989,10|0|2|0|2|0,3:2|0:0|0:0|0:0|0:0|0:0,0:0:0:0:
241,217,15270,6,0,P|234:213|226:212,5,15.5833338088989,2|0|2|0|2|0,3:2|0:0|0:0|0:0|0:0|0:0,0:0:0:0:
240,225,15499,6,0,P|176:238|210:293,1,152.999995330811,6|0,3:2|0:0,0:0:0:0:
320,369,15957,6,0,P|360:304|285:289,1,178.499994552612,10|0,0:0|3:0,0:0:0:0:
284,301,16415,5,10,0:0:0:0:
215,369,16644,1,2,3:2:0:0:
391,195,16873,1,10,0:0:0:0:
460,263,17102,1,2,3:2:0:0:
255,57,17331,6,0,P|213:86|166:103,1,101.999996887207,10|0,0:0|3:0,0:0:0:0:
491,161,17789,6,0,B|472:131|472:131|511:31|511:31|493:1,1,178.499994552612,10|0,0:0|3:0,0:0:0:0:
499,174,18247,5,10,0:0:0:0:
460,263,18476,1,2,3:2:0:0:
232,384,18705,1,10,0:0:0:0:
193,295,18934,1,2,3:2:0:0:
471,384,19163,6,0,P|441:347|395:361,1,101.999996887207,10|0,0:0|3:0,0:0:0:0:
195,179,19621,6,0,P|207:252|265:206,1,178.499994552612,10|0,0:0|3:0,0:0:0:0:
267,195,20079,5,10,0:0:0:0:
358,159,20308,1,2,3:2:0:0:
134,36,20537,1,10,0:0:0:0:
225,0,20766,1,2,3:2:0:0:
162,278,20995,6,0,P|117:253|68:239,1,101.999996887207,10|0,0:0|3:0,0:0:0:0:
358,159,21453,6,0,P|342:146|362:154,1,59.4999981842042,14|0,0:0|0:0,0:0:0:0:
307,240,21682,1,2,3:2:0:0:
115,77,21911,2,0,P|115:53|134:36,1,50.9999984436036,10|0,0:0|0:0,0:0:0:0:
111,91,22140,2,0,P|112:116|94:132,1,50.9999984436036,2|0,3:2|0:0,0:0:0:0:
225,0,22369,6,0,P|276:28|333:44,1,118.999996368408,14|0,0:0|3:0,0:0:0:0:
53,199,22827,6,0,P|-3:154|27:91,1,152.999995330811,6|0,3:2|0:0,0:0:0:0:
151,185,23285,6,0,P|73:212|82:294,1,178.499994552612,10|0,0:0|3:0,0:0:0:0:
82,294,23743,5,10,0:0:0:0:
20,367,23972,1,2,3:2:0:0:
245,240,24201,1,10,0:0:0:0:
307,313,24430,1,2,3:2:0:0:
122,92,24659,6,0,P|78:117|30:133,1,101.999996887207,10|0,0:0|3:0,0:0:0:0:
338,221,25117,5,10,0:0:0:0:
214,332,25346,1,2,3:2:0:0:
199,294,25461,1,0,3:0:0:0:
163,296,25575,5,10,0:0:0:0:
273,384,25804,1,2,3:2:0:0:
73,221,26033,1,10,0:0:0:0:
160,150,26262,1,2,3:2:0:0:
39,384,26491,6,0,P|26:334|1:291,1,101.999996887207,6|0,3:2|3:0,0:0:0:0:
250,208,26949,6,0,P|220:259|205:316,1,118.999996368408,2|12,3:2|0:0,0:0:0:0:
56,111,27407,5,2,3:2:0:0:
73,221,27636,1,2,3:2:0:0:
312,110,27865,1,10,0:0:0:0:
295,0,28094,1,2,3:2:0:0:
181,270,28323,6,0,P|129:240|72:221,1,118.999996368408,6|0,3:2|3:0,0:0:0:0:
197,285,28667,1,0,3:0:0:0:
197,285,28781,1,0,3:0:0:0:
144,70,29010,5,10,0:0:0:0:
270,181,29239,2,0,P|245:188|223:201,1,50.9999984436036,0|0,3:0|3:0,0:0:0:0:
322,123,29468,2,0,P|297:115|275:102,1,50.9999984436036,0|0,3:0|3:0,0:0:0:0:
347,197,29697,1,10,0:0:0:0:
104,384,29926,6,0,B|177:297|85:209|42:264|-47:172|24:87,1,361.25,14|0,3:2|0:0,0:0:0:0:
90,146,31988,6,0,P|182:103|281:81,1,204,6|2,3:2|3:2,0:0:0:0:
147,0,32904,2,0,P|180:7|210:21,1,68,2|2,3:2|0:0,0:0:0:0:
282,81,33362,1,2,0:0:0:0:
136,191,33591,6,0,P|145:133|90:146,1,136,2|2,1:2|3:2,0:0:0:0:
141,201,34278,1,2,0:0:0:0:
42,307,34507,5,2,3:2:0:0:
98,384,34736,1,2,0:0:0:0:
182,340,34965,1,2,3:2:0:0:
33,296,35194,6,0,L|98:279,1,68,2|2,1:2|0:0,0:0:0:0:
109,267,35537,1,2,0:0:0:0:
119,257,35652,6,0,B|93:163|93:163|86:158|86:158|60:64,1,204,2|2,3:2|3:2,0:0:0:0:
0,218,36568,2,0,L|18:152,1,68,2|2,3:2|0:0,0:0:0:0:
60,64,37026,1,2,0:0:0:0:
168,223,37255,6,0,B|164:189|133:167|133:167|100:173|77:201,1,136,2|2,1:2|3:2,0:0:0:0:
172,237,37942,1,2,0:0:0:0:
319,115,38171,5,2,3:2:0:0:
263,38,38400,1,2,0:0:0:0:
179,82,38629,1,2,3:2:0:0:
328,128,38858,5,2,1:2:0:0:
138,174,39087,1,2,3:2:0:0:
293,344,39316,6,0,P|312:278|342:218,1,136,2|2,3:2|0:0,0:0:0:0:
231,259,40003,1,2,3:2:0:0:
369,317,40232,2,0,P|312:279|250:252,1,136,0|0,3:0|1:0,0:0:0:0:
52,367,41148,6,0,P|15:334|31:290,1,102,2|0,3:2|0:0,0:0:0:0:
28,227,41606,2,0,P|52:248|41:277,1,68,2|0,0:0|3:0,0:0:0:0:
163,183,42064,2,0,P|164:215|136:228,1,68,2|2,3:2|0:0,0:0:0:0:
0,100,42522,2,0,P|47:83|95:66,1,102,2|0,1:2|0:0,0:0:0:0:
175,48,42980,6,0,P|109:31|48:3,1,136,2|2,3:2|0:0,0:0:0:0:
47,3,43667,1,0,3:2:0:0:
264,100,43896,2,0,P|198:116|136:145,1,136,2|2,3:2|1:2,0:0:0:0:
307,365,44812,5,2,3:2:0:0:
377,187,45041,1,10,0:2:0:0:
372,199,45270,1,2,0:0:0:0:
312,353,45499,5,2,3:2:0:0:
247,163,45728,1,10,0:0:0:0:
307,365,45957,1,2,3:2:0:0:
462,218,46186,2,0,L|437:155,1,68,2|2,3:2|0:0,0:0:0:0:
512,356,46644,6,0,B|446:387|400:329|433:308|378:252|322:283,1,229.499992996216,6|0,3:2|3:2,0:0:0:0:
176,355,47560,2,0,P|213:361|240:337,1,76.4999976654053,2|2,3:2|0:0,0:0:0:0:
88,166,48018,1,10,0:0:0:0:
196,141,48247,6,0,P|170:192|160:247,1,114.749996498108,2|0,0:0|0:0,0:0:0:0:
168,261,48705,1,2,3:2:0:0:
45,357,48934,1,2,0:0:0:0:
241,236,49163,6,0,P|230:179|205:128,1,114.749996498108,2|0,3:2|0:0,0:0:0:0:
196,141,49621,1,2,3:2:0:0:
316,331,49850,1,10,0:0:0:0:
372,252,50079,1,2,3:2:0:0:
155,384,50308,6,0,B|125:278|125:278|117:272|117:272|88:167,1,229.499992996216,2|2,3:2|3:2,0:0:0:0:
227,38,51224,1,2,3:2:0:0:
164,97,51453,1,2,0:0:0:0:
332,239,51682,1,10,0:0:0:0:
269,298,51911,6,0,L|319:153,1,152.999995330811,2|2,0:0|3:2,0:0:0:0:
263,315,52598,1,2,0:0:0:0:
196,247,52827,1,2,3:2:0:0:
332,383,53056,5,2,0:0:0:0:
399,315,53285,1,0,3:0:0:0:
209,147,53514,2,0,P|238:192|201:229,1,114.749996498108,10|0,0:0|0:0,0:0:0:0:
195,140,53972,6,0,P|224:76|291:99,1,152.999995330811,2|2,3:2|0:0,0:0:0:0:
193,7,54659,1,2,3:2:0:0:
381,76,54888,2,0,P|315:52|284:114,1,152.999995330811,2|8,3:2|0:0,0:0:0:0:
185,319,55575,6,0,P|167:244|136:175,1,152.999995330811,2|2,0:0|3:2,0:0:0:0:
256,363,56262,1,10,0:0:0:0:
266,348,56720,6,0,P|236:303|185:319,1,114.749996498108,14|8,0:0|0:0,0:0:0:0:
256,363,57178,1,10,0:0:0:0:
325,286,57407,1,0,3:2:0:0:
123,146,57636,6,0,B|169:169|206:130|183:113|226:76|268:98,1,170,14|0,3:2|0:0,0:0:0:0:
111,138,58323,1,2,3:2:0:0:
285,335,58552,6,0,P|289:250|255:173,1,170,10|0,0:0|3:0,0:0:0:0:
432,36,59239,6,0,L|351:9,1,85,6|0,3:2|0:0,0:0:0:0:
484,220,59697,6,0,L|403:246,1,85,14|0,0:0|0:0,0:0:0:0:
512,63,60155,1,2,3:2:0:0:
354,333,60384,5,14,0:0:0:0:
305,246,60613,1,0,3:0:0:0:
256,159,60843,1,0,3:0:0:0:
463,345,61301,5,6,3:2:0:0:
463,345,61530,1,2,0:0:0:0:
512,258,61759,1,2,0:0:0:0:
432,199,61988,1,2,3:2:0:0:
256,384,62217,5,10,0:0:0:0:
264,376,62904,5,2,3:2:0:0:
190,309,63133,1,2,0:0:0:0:
285,278,63362,1,2,3:2:0:0:
94,105,63591,5,14,0:0:0:0:
102,97,64278,5,0,3:2:0:0:
195,60,64507,1,10,0:0:0:0:
265,131,64736,1,2,3:2:0:0:
83,196,64965,5,2,3:2:0:0:
83,196,65194,1,2,0:0:0:0:
153,267,65423,1,2,0:0:0:0:
246,230,65652,1,2,3:2:0:0:
53,51,65881,5,14,0:0:0:0:
61,43,66568,5,2,3:2:0:0:
155,71,66797,1,2,0:0:0:0:
81,139,67026,1,10,0:0:0:0:
313,225,67255,6,0,L|276:333,1,114.749996498108,14|0,0:0|0:0,0:0:0:0:
270,349,67713,2,0,P|218:349|218:298,1,114.749996498108,2|8,0:0|0:0,0:0:0:0:
218,297,68171,1,10,0:0:0:0:
346,354,68400,1,0,3:0:0:0:
142,264,68629,5,6,3:2:0:0:
142,264,68858,1,2,0:0:0:0:
93,177,69087,1,2,0:0:0:0:
173,118,69316,1,2,3:2:0:0:
354,345,69545,5,10,0:0:0:0:
346,354,70232,5,2,3:2:0:0:
272,287,70461,1,2,0:0:0:0:
367,256,70690,1,10,0:0:0:0:
176,83,70919,6,0,L|199:195,1,114.749996498108,6|0,3:2|0:0,0:0:0:0:
193,209,71377,1,10,3:2:0:0:
303,138,71606,1,2,3:2:0:0:
259,384,71835,1,10,0:0:0:0:
369,313,72064,1,10,0:0:0:0:
354,324,72178,1,8,0:0:0:0:
339,335,72293,6,0,P|334:294|310:259,1,85,6|0,3:2|0:0,0:0:0:0:
142,384,72751,2,0,P|154:367|158:347,1,42.5,10|0,0:0|0:0,0:0:0:0:
158,337,72980,1,2,0:0:0:0:
26,197,73209,2,0,P|67:191|102:167,1,85,2|0,0:0|3:0,0:0:0:0:
38,338,73667,1,10,0:0:0:0:
183,269,73896,1,2,0:0:0:0:
18,74,74125,6,0,L|140:110,1,127.5,2|0,3:2|0:0,0:0:0:0:
220,55,74583,1,10,0:0:0:0:
36,179,74812,1,8,0:0:0:0:
157,250,75041,2,0,P|171:212|140:188,1,85,2|0,0:0|3:0,0:0:0:0:
27,379,75499,2,0,P|35:316|63:258,1,127.5,10|0,0:0|0:0,0:0:0:0:
125,382,75957,6,0,P|87:331|66:272,1,127.5,6|0,3:2|0:0,0:0:0:0:
33,153,76415,1,8,0:0:0:0:
237,266,76644,1,2,0:0:0:0:
197,285,76759,1,8,0:0:0:0:
204,329,76873,5,6,3:2:0:0:
288,164,77102,1,0,3:0:0:0:
66,271,77331,1,8,0:0:0:0:
125,245,77446,1,8,0:0:0:0:
113,180,77560,2,0,L|75:163,1,42.5,0|0,3:0|3:0,0:0:0:0:
208,341,77789,5,10,3:2:0:0:
221,334,78247,1,2,0:0:0:0:
135,384,78476,2,0,P|129:345|112:313,1,76.4999976654053,2|0,0:0|3:0,0:0:0:0:
218,243,78934,1,2,3:2:0:0:
208,248,79049,1,0,3:0:0:0:
199,252,79163,2,0,P|181:218|175:180,1,76.4999976654053,10|2,0:0|3:2,0:0:0:0:
387,384,79621,6,0,P|411:364|408:334,1,63.7500024318696,6|0,3:2|0:0,0:0:0:0:
317,354,79850,2,0,P|313:323|337:304,1,63.7500024318696,2|0,0:0|0:0,0:0:0:0:
492,188,80079,2,0,L|510:249,1,63.7500024318696,10|0,0:0|0:0,0:0:0:0:
283,137,80308,6,0,B|319:135|337:163|337:163|333:129|360:107,1,127.500004863739,2|8,0:0|0:0,0:0:0:0:
457,350,80766,2,0,B|426:359|426:359|408:334,1,63.7500024318696,2|0,3:2|0:0,0:0:0:0:
510,249,80995,1,10,0:0:0:0:
230,81,81224,6,0,P|187:122|213:176,1,127.500004863739,2|8,3:2|0:0,0:0:0:0:
481,54,81682,2,0,P|468:83|463:114,1,63.7500024318696,2|0,3:2|0:0,0:0:0:0:
333,14,81911,2,0,P|319:30|335:16,1,63.7500024318696,10|0,0:0|0:0,0:0:0:0:
409,260,82140,6,0,P|399:197|373:140,1,127.500004863739,2|8,3:2|0:0,0:0:0:0:
285,384,82598,2,0,P|271:368|287:382,1,63.7500024318696,2|0,3:2|0:0,0:0:0:0:
158,248,82827,1,10,0:0:0:0:
150,256,83285,6,0,P|135:227|115:202,1,63.7500024318696,10|0,0:0|0:0,0:0:0:0:
227,270,83514,2,0,P|207:295|192:323,1,63.7500024318696,2|0,3:2|0:0,0:0:0:0:
303,170,83743,2,0,B|294:155|296:141|296:141|286:151|266:151,1,63.7500024318696,10|0,0:0|0:0,0:0:0:0:
33,52,83972,6,0,B|69:61|95:31|77:20|102:-8|138:0,1,127.500004863739,2|10,0:0|0:0,0:0:0:0:
51,245,84430,2,0,P|36:216|17:191,1,63.7500024318696,2|0,3:2|0:0,0:0:0:0:
89,308,84659,1,10,0:0:0:0:
209,107,84888,6,0,P|153:123|138:69,1,127.500004863739,2|8,3:2|0:0,0:0:0:0:
138,68,85346,1,2,3:2:0:0:
305,265,85575,6,0,P|332:241|322:206,1,76.4999976654053,14|0,0:0|0:0,0:0:0:0:
216,329,85804,2,0,P|220:294|189:273,1,76.4999976654053,2|0,3:2|0:0,0:0:0:0:
358,376,86033,5,10,0:0:0:0:
362,366,86148,1,0,3:0:0:0:
365,358,86262,2,0,B|334:349|334:349|316:374,1,63.7500024318696,0|0,3:0|3:0,0:0:0:0:
476,175,86491,6,0,P|483:212|497:247,1,76.4999976654053,14|0,0:0|0:0,0:0:0:0:
359,101,86720,1,2,3:2:0:0:
193,368,86949,6,0,B|213:368|223:378|223:378|221:364|229:349,1,63.7500024318696,6|0,3:2|0:0,0:0:0:0:
158,298,87178,2,0,B|166:283|164:269|164:269|174:279|194:279,1,63.7500024318696,2|0,0:2|0:0,0:0:0:0:
383,203,87407,2,0,P|367:230|358:261,1,63.7500024318696,10|0,0:0|0:0,0:0:0:0:
169,99,87636,6,0,B|210:99|232:147|202:174|202:174|200:163|194:155,1,127.500004863739,2|8,0:2|0:0,0:0:0:0:
463,53,88094,2,0,P|449:69|465:55,1,63.7500024318696,2|0,3:2|0:0,0:0:0:0:
315,0,88323,1,10,0:0:0:0:
358,261,88552,6,0,P|377:200|408:144,1,127.500004863739,2|8,3:2|0:0,0:0:0:0:
222,298,89010,2,0,P|197:278|201:249,1,63.7500024318696,2|0,3:2|0:0,0:0:0:0:
363,384,89239,2,0,P|368:353|384:326,1,63.7500024318696,10|0,0:0|0:0,0:0:0:0:
295,291,89468,2,0,P|288:323|272:350,1,63.7500024318696,2|0,0:0|0:0,0:0:0:0:
448,209,89697,5,10,0:0:0:0:
452,224,90155,2,0,B|432:227|424:239|424:239|423:225|413:212,1,63.7500024318696,10|0,0:0|0:0,0:0:0:0:
510,165,90384,1,0,3:0:0:0:
276,0,90613,6,0,B|218:17|218:17|214:24|214:24|157:41,1,127.500004863739,14|0,0:0|3:0,0:0:0:0:
355,159,91072,2,0,L|337:219,1,63.7500024318696,2|0,3:2|0:0,0:0:0:0:
382,70,91301,1,14,0:0:0:0:
148,178,91530,6,0,P|124:156|130:125,1,68,2|0,3:2|0:0,0:0:0:0:
187,305,91759,2,0,P|179:338|147:347,1,72.2500013780594,10|0,0:0|0:0,0:0:0:0:
277,206,91988,2,0,P|313:195|337:220,1,76.4999976654053,10|0,0:0|0:0,0:0:0:0:
73,40,92217,6,0,B|148:116|68:209|16:144|-61:247|11:318,1,340,6|2,3:2|3:2,0:0:0:0:
17,312,92789,1,0,3:0:0:0:
84,367,92904,6,0,P|122:315|88:261,1,136,2|10,3:2|0:0,0:0:0:0:
82,269,93247,1,0,3:0:0:0:
256,192,93362,6,0,P|230:218|241:252,1,76.4999976654053,6|0,3:2|0:0,0:0:0:0:
108,127,93591,1,2,3:2:0:0:
103,137,93705,1,0,3:0:0:0:
196,98,93820,5,14,0:0:0:0:
171,37,93934,1,0,3:0:0:0:
110,17,94049,1,0,3:0:0:0:
54,50,94163,1,0,3:0:0:0:
83,197,94278,6,0,P|89:165|103:137,1,63.7500024318696,6|0,3:2|0:0,0:0:0:0:
20,251,94507,2,0,P|13:219|0:191,1,63.7500024318696,2|0,0:0|0:0,0:0:0:0:
168,342,94736,2,0,B|148:339|140:327|140:327|139:341|129:354,1,63.7500024318696,10|0,0:0|0:0,0:0:0:0:
257,134,94965,6,0,B|284:156|280:190|280:190|298:162|334:164,1,127.500004863739,2|8,0:0|0:0,0:0:0:0:
128,355,95423,2,0,P|118:325|108:295,1,63.7500024318696,2|0,3:2|0:0,0:0:0:0:
234,384,95652,1,10,0:0:0:0:
176,113,95881,6,0,B|184:149|157:170|157:170|122:168|109:135,1,127.500004863739,2|8,3:2|0:0,0:0:0:0:
348,260,96339,2,0,P|324:279|328:309,1,63.7500024318696,2|0,3:2|0:0,0:0:0:0:
394,164,96568,2,0,P|380:135|373:103,1,63.7500024318696,10|0,0:0|0:0,0:0:0:0:
451,348,96797,6,0,B|443:314|472:286|482:304|511:279|503:243,1,127.500004863739,2|8,0:0|0:0,0:0:0:0:
265,135,97255,2,0,P|251:151|267:137,1,63.7500024318696,2|0,3:2|0:0,0:0:0:0:
430,32,97484,1,10,0:0:0:0:
422,44,97942,6,0,P|393:29|368:9,1,63.7500024318696,10|0,0:0|0:0,0:0:0:0:
438,127,98171,2,0,P|462:107|491:92,1,63.7500024318696,2|0,3:2|0:0,0:0:0:0:
326,202,98400,2,0,B|335:171|335:171|310:153,1,63.7500024318696,10|0,0:0|0:0,0:0:0:0:
466,351,98629,6,0,P|478:288|506:232,1,127.500004863739,2|8,0:0|0:0,0:0:0:0:
268,314,99087,2,0,P|261:283|248:255,1,63.7500024318696,2|0,3:2|0:0,0:0:0:0:
288,384,99316,1,10,0:0:0:0:
438,127,99545,6,0,B|495:153|467:230|402:209|406:181|406:181|414:187|428:189,1,170,6|0,3:2|0:0,0:0:0:0:
203,31,100003,5,2,3:2:0:0:
215,45,100117,1,0,3:0:0:0:
227,57,100232,2,0,L|298:29,1,76.4999976654053,6|0,3:2|0:0,0:0:0:0:
154,143,100461,5,2,3:2:0:0:
155,158,100575,1,0,3:0:0:0:
156,174,100690,2,0,L|217:202,1,68,6|0,3:2|0:0,0:0:0:0:
76,275,100919,5,2,3:2:0:0:
68,282,101033,1,0,3:0:0:0:
62,288,101148,2,0,L|83:343,1,59.4999981842042,6|0,3:2|0:0,0:0:0:0:
286,230,101377,5,10,0:0:0:0:
254,318,101491,1,8,0:0:0:0:
284,240,101606,6,0,P|340:269|402:285,1,127.5,6|0,3:2|0:0,0:0:0:0:
468,337,102064,2,0,P|426:347|389:366,1,85,10|2,0:0|3:2,0:0:0:0:
453,186,102522,1,2,0:0:0:0:
450,197,102751,1,2,3:2:0:0:
214,110,102980,2,0,P|260:149|234:200,1,127.5,10|0,0:0|0:0,0:0:0:0:
201,106,103438,6,0,P|263:92|318:60,1,127.5,2|0,3:2|0:0,0:0:0:0:
382,130,103896,2,0,P|349:105|323:71,1,85,10|2,0:0|3:2,0:0:0:0:
402,12,104239,1,8,0:0:0:0:
407,18,104354,2,0,P|413:37|400:52,1,42.5,2|0,0:0|3:0,0:0:0:0:
289,0,104583,1,2,3:2:0:0:
192,236,104812,2,0,B|175:178|175:178|168:174|168:174|151:117,1,127.5,10|0,0:0|0:0,0:0:0:0:
195,247,105270,6,0,P|217:213|257:218,1,85,2|0,3:2|3:0,0:0:0:0:
152,378,105728,2,0,P|138:320|80:320,1,127.5,10|0,0:0|0:0,0:0:0:0:
13,376,106186,1,2,0:0:0:0:
23,368,106415,1,0,3:0:0:0:
189,224,106644,2,0,P|130:199|81:159,1,127.5,10|0,0:0|0:0,0:0:0:0:
208,303,107102,6,0,B|180:247|232:202|250:232|300:186|267:133,1,203.999993774414,6|8,3:2|0:0,0:0:0:0:
212,315,107789,1,2,3:2:0:0:
97,75,108018,6,0,P|171:57|241:26,1,152.999995330811,10|0,0:0|0:0,0:0:0:0:
196,133,108476,1,8,0:0:0:0:
410,273,108705,1,2,3:2:0:0:
420,256,108820,1,0,3:0:0:0:
412,239,108934,6,0,P|357:225|345:281,1,127.5,6|0,3:2|0:0,0:0:0:0:
424,231,109392,1,10,0:0:0:0:
239,359,109621,2,0,P|229:319|207:281,1,85,2|0,3:2|0:0,0:0:0:0:
135,176,110079,1,2,3:2:0:0:
345,281,110308,2,0,P|323:317|313:358,1,85,10|2,0:0|0:0,0:0:0:0:
312,369,110652,1,2,0:0:0:0:
412,321,110766,6,0,P|379:266|363:205,1,127.5,2|0,3:2|0:0,0:0:0:0:
418,331,111224,1,10,0:0:0:0:
489,122,111453,2,0,P|521:146|511:185,1,85,2|2,0:0|0:0,0:0:0:0:
500,194,111797,1,8,0:0:0:0:
486,197,111911,1,2,3:2:0:0:
294,30,112140,2,0,L|267:110,1,85,10|0,0:0|3:0,0:0:0:0:
58,355,112598,6,0,P|40:280|6:212,1,152.999995330811,6|0,3:2|0:0,0:0:0:0:
62,372,113056,6,0,P|78:315|107:263,1,118.999996368408,10|0,0:0|3:0,0:0:0:0:
162,189,113400,1,8,0:0:0:0:
107,263,113514,5,2,3:2:0:0:
316,365,113743,1,0,3:0:0:0:
230,68,113972,6,0,P|134:126|24:166,1,229.499992996216,10|0,0:0|0:0,0:0:0:0:
245,58,114430,6,0,P|181:35|123:-1,1,136,6|14,3:2|0:0,0:0:0:0:
290,274,115346,6,0,P|323:250|311:214,1,85,2|0,3:2|3:0,0:0:0:0:
302,207,115690,1,0,3:0:0:0:
219,312,115804,5,0,3:0:0:0:
239,355,115919,1,0,3:0:0:0:
283,372,116033,1,0,3:0:0:0:
324,347,116148,1,0,3:0:0:0:
233,219,116262,6,0,P|160:243|86:265,1,152.999995330811,6|0,3:2|3:0,0:0:0:0:
171,120,116720,6,0,P|255:148|340:173,1,178.499994552612,10|0,0:0|3:0,0:0:0:0:
341,173,117178,5,10,0:0:0:0:
309,78,117407,1,2,3:2:0:0:
512,234,117636,1,10,0:0:0:0:
480,329,117865,1,2,3:2:0:0:
258,158,118094,6,0,P|220:188|234:233,1,101.999996887207,10|0,0:0|3:0,0:0:0:0:
477,67,118552,6,0,B|447:71|432:101|432:101|440:57|404:20|362:30,1,178.499994552612,10|0,0:0|3:0,0:0:0:0:
486,80,119010,5,10,0:0:0:0:
447,172,119239,1,2,3:2:0:0:
252,6,119468,1,10,0:0:0:0:
291,98,119697,1,2,3:2:0:0:
195,328,119926,6,0,L|234:234,1,101.999996887207,10|0,0:0|3:0,0:0:0:0:
476,383,120384,6,0,B|428:408|391:364|414:345|374:300|330:324,1,178.499994552612,10|0,0:0|3:0,0:0:0:0:
325,336,120843,5,10,0:0:0:0:
362,244,121072,1,2,3:2:0:0:
176,75,121301,1,10,0:0:0:0:
139,167,121530,1,2,3:2:0:0:
408,62,121759,6,0,P|358:75|314:99,1,101.999996887207,10|0,0:0|3:0,0:0:0:0:
47,0,122217,6,0,P|26:19|30:48,1,59.4999981842042,14|0,0:0|3:0,0:0:0:0:
39,64,122446,1,2,3:2:0:0:
54,72,122561,1,0,3:0:0:0:
0,167,122675,6,0,P|0:191|19:205,1,50.9999984436036,10|0,0:0|3:0,0:0:0:0:
30,207,122904,1,2,3:2:0:0:
38,205,123019,1,0,3:0:0:0:
202,50,123133,6,0,B|166:52|151:78|151:78|153:48|128:28,1,118.999996368408,14|2,0:0|3:2,0:0:0:0:
237,306,123591,6,0,B|221:285|221:285|234:240|234:240|239:236|239:236|252:192|252:192|235:172,1,152.999995330811,6|0,3:2|0:0,0:0:0:0:
378,96,124049,6,0,B|397:120|397:120|382:172|382:172|376:177|376:177|361:228|361:228|381:252,1,178.499994552612,10|0,0:0|3:0,0:0:0:0:
381,253,124507,5,10,0:0:0:0:
331,337,124736,1,2,3:2:0:0:
137,170,124965,1,10,0:0:0:0:
187,86,125194,1,2,3:2:0:0:
253,364,125423,6,0,P|246:313|230:265,1,101.999996887207,10|0,0:0|3:0,0:0:0:0:
440,55,125881,1,10,0:0:0:0:
285,0,126110,1,2,3:2:0:0:
315,18,126224,1,0,3:0:0:0:
305,58,126339,5,10,0:0:0:0:
221,108,126568,1,2,3:2:0:0:
401,294,126797,1,10,0:0:0:0:
317,344,127026,1,2,3:2:0:0:
401,80,127255,6,0,L|371:177,1,101.999996887207,6|0,3:2|3:0,0:0:0:0:
142,309,127713,6,0,L|176:196,1,118.999996368408,2|12,3:2|0:0,0:0:0:0:
396,384,128171,5,2,3:2:0:0:
363,279,128400,1,2,3:2:0:0:
118,384,128629,1,10,0:0:0:0:
256,92,128858,6,0,B|198:138|239:210|277:177|314:254|258:297,1,237.999992736817,14|0,3:2|3:0,0:0:0:0:
250,307,129430,1,0,3:0:0:0:
211,379,129545,5,0,3:0:0:0:
168,359,129660,1,0,3:0:0:0:
151,315,129774,1,0,3:0:0:0:
176,274,129889,1,0,3:0:0:0:
324,330,130003,6,0,P|281:346|250:307,1,101.999996887207,10|0,0:0|3:0,0:0:0:0:
52,66,130461,6,0,B|34:135|34:135|25:140|25:140|8:209,1,152.999995330811,14|0,0:0|0:0,0:0:0:0:
173,152,130919,6,0,P|148:204|93:185,1,127.5,2|0,3:2|0:0,0:0:0:0:
166,137,131377,1,8,0:0:0:0:
34,60,131606,2,0,L|23:19,1,42.5,2|0,0:0|3:0,0:0:0:0:
38,79,131835,5,2,3:2:0:0:
223,15,132064,1,2,3:2:0:0:
248,109,132293,1,2,0:0:0:0:
63,173,132522,6,0,L|182:217,1,127.5,10|0,0:0|0:0,0:0:0:0:
97,265,132980,1,2,3:2:0:0:
294,155,133209,1,10,0:0:0:0:
191,73,133438,5,2,3:2:0:0:
175,79,133552,1,0,3:0:0:0:
160,85,133667,1,0,3:0:0:0:
309,149,133896,1,0,3:0:0:0:
198,357,134125,5,10,0:0:0:0:
100,219,134354,2,0,L|85:259,1,42.5,2|0,3:2|3:0,0:0:0:0:
264,309,134583,6,0,P|238:256|184:277,1,127.5,2|0,3:2|0:0,0:0:0:0:
256,324,135041,1,8,0:0:0:0:
100,219,135270,1,2,3:2:0:0:
88,231,135384,1,0,3:0:0:0:
89,248,135499,5,2,3:2:0:0:
265,165,135728,1,2,3:2:0:0:
137,115,135957,1,2,0:0:0:0:
256,324,136186,6,0,P|314:296|373:276,1,127.5,10|0,0:0|0:0,0:0:0:0:
241,332,136644,1,2,3:2:0:0:
447,243,136873,1,10,0:0:0:0:
350,106,137102,5,2,3:2:0:0:
338,118,137217,1,0,3:0:0:0:
339,135,137331,1,0,3:0:0:0:
456,235,137560,1,2,3:2:0:0:
276,66,137789,6,0,P|284:49|291:27,1,42.5,10|0,0:0|0:0,0:0:0:0:
220,140,138018,2,0,P|209:124|193:107,1,42.5,2|0,3:2|0:0,0:0:0:0:
364,206,138247,6,0,P|328:258|304:317,1,127.5,2|0,3:2|0:0,0:0:0:0:
374,195,138705,1,10,0:0:0:0:
266,384,138934,1,2,3:2:0:0:
260,369,139049,1,8,0:0:0:0:
250,356,139163,5,0,3:0:0:0:
149,196,139392,1,0,3:0:0:0:
85,307,139621,1,0,3:0:0:0:
278,191,139850,6,0,L|260:229,1,42.5,10|0,0:0|0:0,0:0:0:0:
286,175,140079,2,0,B|269:139|269:139|264:137|264:137|247:101,1,85,2|0,3:2|3:0,0:0:0:0:
426,206,140537,6,0,L|374:322,1,127.5,10|0,0:0|0:0,0:0:0:0:
434,190,140995,2,0,B|450:225|450:225|455:227|455:227|472:263,1,85,2|0,3:2|3:0,0:0:0:0:
322,115,141453,6,0,P|380:91|433:54,1,127.5,10|0,0:0|0:0,0:0:0:0:
300,122,141911,6,0,P|307:67|254:76,1,127.5,2|0,3:2|0:0,0:0:0:0:
351,181,142369,2,0,P|320:209|330:248,1,85,8|2,0:0|0:0,0:0:0:0:
137,359,142827,5,2,3:2:0:0:
76,179,143056,1,2,3:2:0:0:
165,147,143285,1,2,0:0:0:0:
226,327,143514,1,8,0:0:0:0:
151,253,143743,5,2,3:2:0:0:
324,168,143972,1,2,3:2:0:0:
140,259,144201,1,10,0:0:0:0:
306,376,144430,1,2,0:0:0:0:
325,364,144544,1,8,0:0:0:0:
322,344,144659,5,10,0:0:0:0:
258,268,144888,1,2,3:2:0:0:
406,205,145117,2,0,P|386:242|374:283,1,85,2|2,3:2|3:2,0:0:0:0:
219,84,145575,6,0,P|262:93|284:56,1,93.5000028533936,6|2,3:2|0:0,0:0:0:0:
416,214,146033,1,8,0:0:0:0:
277,310,146262,2,0,L|258:268,1,46.7500014266968,2|0,3:2|3:0,0:0:0:0:
285,328,146491,5,2,3:2:0:0:
205,152,146720,1,2,3:2:0:0:
126,208,146949,1,2,0:0:0:0:
206,384,147178,6,0,L|79:325,1,140.25000428009,10|0,0:0|0:0,0:0:0:0:
0,377,147636,1,2,3:2:0:0:
189,250,147865,1,10,0:0:0:0:
64,165,148094,5,2,3:2:0:0:
58,181,148208,1,0,3:0:0:0:
52,196,148323,1,0,3:0:0:0:
196,264,148552,1,2,3:2:0:0:
120,52,148781,5,10,0:0:0:0:
263,120,149010,2,0,P|272:98|279:76,1,46.7500014266968,2|0,3:2|3:0,0:0:0:0:
196,264,149239,6,0,P|184:218|164:176,1,93.5000028533936,2|2,3:2|0:0,0:0:0:0:
69,384,149697,1,8,0:0:0:0:
233,334,149926,1,2,3:2:0:0:
219,344,150040,1,8,0:0:0:0:
201,343,150155,5,2,3:2:0:0:
28,252,150384,1,2,3:2:0:0:
69,384,150614,1,2,0:0:0:0:
244,191,150843,6,0,P|217:249|157:229,1,140.25000428009,10|0,0:0|0:0,0:0:0:0:
233,181,151300,1,2,3:2:0:0:
57,61,151530,2,0,P|123:34|181:0,1,140.25000428009,10|8,0:0|0:0,0:0:0:0:
150,94,151988,5,2,3:2:0:0:
154,103,152217,1,0,3:0:0:0:
385,0,152446,6,0,P|396:58|338:46,1,140.25000428009,10|0,0:0|0:0,0:0:0:0:
433,152,152904,6,0,L|492:24,1,140.25000428009,2|0,3:2|0:0,0:0:0:0:
425,168,153361,1,10,0:0:0:0:
338,45,153591,2,0,L|357:87,1,46.7500014266968,2|0,3:2|3:0,0:0:0:0:
328,26,153820,5,2,3:2:0:0:
219,94,154049,1,0,3:0:0:0:
287,204,154278,1,0,3:0:0:0:
98,322,154507,6,0,L|58:236,1,93.5000028533936,10|0,0:0|0:0,0:0:0:0:
237,322,154965,1,2,3:2:0:0:
71,381,155194,2,0,L|90:339,1,46.7500014266968,10|0,0:0|3:0,0:0:0:0:
135,241,155423,1,0,3:0:0:0:
383,348,155652,6,0,P|322:326|295:384,1,140.25000428009,14|8,0:0|0:0,0:0:0:0:
387,362,156110,1,10,0:0:0:0:
256,192,156339,1,2,3:2:0:0:
244,210,156453,1,2,3:2:0:0:
246,228,156568,6,0,P|335:244|335:156,1,203.999993774414,14|0,3:2|0:0,0:0:0:0:
229,220,157255,1,2,3:2:0:0:
446,86,157484,6,0,P|423:43|407:-7,2,101.999996887207,14|0|0,0:0|3:0|3:0,0:0:0:0:
240,0,158171,6,0,P|195:15|206:61,1,101.999996887207,6|0,3:2|0:0,0:0:0:0:
368,216,158629,1,14,0:0:0:0:
409,198,158743,1,8,0:0:0:0:
403,154,158858,5,8,0:0:0:0:
256,313,159087,1,2,3:2:0:0:
272,271,159202,1,0,3:0:0:0:
236,244,159316,5,6,3:2:0:0:
347,326,159545,1,0,3:0:0:0:
220,381,159774,1,0,3:0:0:0:
317,144,160232,5,6,3:2:0:0:
317,144,160461,1,2,0:0:0:0:
444,89,160690,1,10,0:0:0:0:
333,7,160919,1,2,3:2:0:0:
126,97,161148,6,0,P|159:160|178:226,1,140.25000428009,2|0,3:2|0:0,0:0:0:0:
171,241,161606,1,8,0:0:0:0:
350,384,161835,5,2,3:2:0:0:
468,313,162064,1,2,0:0:0:0:
409,186,162293,1,2,3:2:0:0:
217,304,162522,5,14,0:0:0:0:
424,177,162751,1,10,0:0:0:0:
289,93,162980,6,0,L|304:49,1,46.7500014266968,2|0,0:0|0:0,0:0:0:0:
282,111,163209,1,2,3:2:0:0:
493,0,163438,2,0,P|478:41|512:68,1,93.5000028533936,14|2,0:0|3:2,0:0:0:0:
291,191,163896,5,2,3:2:0:0:
291,191,164125,1,2,0:0:0:0:
498,318,164354,2,0,L|483:362,1,46.7500014266968,14|0,0:0|0:0,0:0:0:0:
505,300,164583,1,2,0:0:0:0:
265,384,164812,6,0,P|245:316|212:254,1,140.25000428009,2|0,3:2|0:0,0:0:0:0:
196,247,165270,1,8,0:0:0:0:
416,118,165499,6,0,P|423:141|408:154,1,46.7500014266968,6|0,3:2|0:0,0:0:0:0:
275,79,165728,1,2,3:2:0:0:
397,150,165957,1,2,3:2:0:0:
265,384,166186,6,0,P|284:316|317:254,1,140.25000428009,10|8,0:0|0:0,0:0:0:0:
373,374,166644,6,0,P|366:352|355:331,1,46.7500014266968,2|0,3:2|3:0,0:0:0:0:
352,341,166873,1,2,3:2:0:0:
349,352,166988,1,0,3:0:0:0:
213,255,167102,6,0,L|110:296,1,110.499994941712,14|2,0:0|3:2,0:0:0:0:
321,170,167560,5,6,3:2:0:0:
321,170,167789,1,2,0:0:0:0:
192,120,168018,1,10,0:0:0:0:
300,35,168247,1,2,3:2:0:0:
84,205,168476,6,0,P|58:139|20:80,1,140.25000428009,2|0,3:2|0:0,0:0:0:0:
9,66,168934,1,8,0:0:0:0:
239,189,169163,6,0,P|202:212|213:255,1,93.5000028533936,2|0,3:2|0:0,0:0:0:0:
270,110,169621,1,2,3:2:0:0:
392,334,169850,6,0,P|347:347|306:370,1,93.5000028533936,14|2,0:0|3:2,0:0:0:0:
232,332,170194,1,10,0:0:0:0:
295,378,170308,1,10,3:2:0:0:
403,181,170537,5,2,3:2:0:0:
327,65,170766,1,2,3:2:0:0:
203,128,170995,1,2,3:2:0:0:
412,287,171224,6,0,P|399:309|392:333,1,50.9999984436036,6|0,3:2|0:0,0:0:0:0:
396,345,171453,1,0,3:0:0:0:
261,171,171682,2,0,P|235:210|189:198,1,101.999996887207,10|0,0:0|0:0,0:0:0:0:
396,92,172140,2,0,P|421:131|467:119,1,101.999996887207,2|0,0:0|3:0,0:0:0:0:
261,15,172598,1,8,0:0:0:0:
261,171,172827,1,2,0:0:0:0:
468,274,173056,6,0,L|324:324,1,152.999995330811,2|0,3:2|0:0,0:0:0:0:
425,384,173514,1,10,0:0:0:0:
208,257,173743,1,10,0:0:0:0:
193,300,173858,1,2,0:0:0:0:
178,343,173972,6,0,P|132:327|132:280,1,101.999996887207,2|0,3:2|3:0,0:0:0:0:
358,166,174430,2,0,P|294:189|323:251,1,152.999995330811,10|0,0:0|0:0,0:0:0:0:
369,151,174888,6,0,P|322:90|295:19,1,152.999995330811,6|0,3:2|0:0,0:0:0:0:
229,127,175346,1,8,0:0:0:0:
419,1,175575,1,2,0:0:0:0:
456,24,175690,1,8,0:0:0:0:
443,66,175804,5,10,0:0:0:0:
283,8,176033,1,0,3:0:0:0:
353,218,176262,1,8,0:0:0:0:
294,191,176377,1,8,0:0:0:0:
306,126,176491,2,0,L|352:105,1,50.9999984436036,0|0,3:0|3:0,0:0:0:0:
144,27,176720,5,10,3:2:0:0:
157,34,177178,1,2,0:0:0:0:
78,99,177407,2,0,P|72:60|55:28,1,76.4999976654053,6|10,3:2|0:0,0:0:0:0:
47,18,177751,1,8,0:0:0:0:
38,10,177865,1,2,3:2:0:0:
173,134,178094,2,0,P|155:168|149:206,1,76.4999976654053,14|2,0:0|3:2,0:0:0:0:
148,216,178438,1,0,3:0:0:0:
235,311,178552,6,0,P|236:280|211:262,1,63.7500024318696,6|0,3:2|0:0,0:0:0:0:
164,346,178781,2,0,P|139:327|142:297,1,63.7500024318696,2|0,0:0|0:0,0:0:0:0:
22,158,179010,2,0,L|0:217,1,63.7500024318696,10|0,0:0|0:0,0:0:0:0:
214,76,179239,6,0,B|211:95|219:110|219:110|134:77,1,127.500004863739,2|8,0:0|0:0,0:0:0:0:
378,26,179697,2,0,B|385:57|385:57|360:74,1,63.7500024318696,2|0,3:2|0:0,0:0:0:0:
253,1,179926,1,10,0:0:0:0:
321,312,180155,6,0,P|376:280|437:265,1,127.500004863739,2|8,3:2|0:0,0:0:0:0:
236,159,180613,2,0,P|265:170|291:189,1,63.7500024318696,2|0,3:2|0:0,0:0:0:0:
359,75,180843,2,0,P|345:91|361:77,1,63.7500024318696,10|0,0:0|0:0,0:0:0:0:
155,0,181072,6,0,P|139:61|108:116,1,127.500004863739,2|8,3:2|0:0,0:0:0:0:
321,312,181530,2,0,P|307:296|323:310,1,63.7500024318696,2|0,3:2|0:0,0:0:0:0:
148,384,181759,1,10,0:0:0:0:
156,374,182217,6,0,P|143:345|134:315,1,63.7500024318696,10|0,0:0|0:0,0:0:0:0:
59,254,182446,2,0,P|49:284|36:313,1,63.7500024318696,2|0,3:2|0:0,0:0:0:0:
195,205,182674,2,0,B|205:218|204:233|204:233|213:222|233:220,1,63.7500024318696,10|0,0:0|0:0,0:0:0:0:
50,48,182904,6,0,P|-3:70|18:123,1,127.500004863739,2|10,0:0|0:0,0:0:0:0:
256,33,183361,2,0,P|227:18|202:0,1,63.7500024318696,2|0,3:2|0:0,0:0:0:0:
185,86,183591,1,10,0:0:0:0:
345,286,183820,6,0,B|362:228|362:228|369:224|369:224|386:167,1,127.500004863739,2|8,3:2|0:0,0:0:0:0:
385,167,184277,1,2,3:2:0:0:
184,322,184506,6,0,P|176:357|204:379,1,76.4999976654053,14|0,0:0|0:0,0:0:0:0:
113,254,184736,2,0,P|82:273|86:309,1,76.4999976654053,2|0,3:2|0:0,0:0:0:0:
238,193,184964,5,10,0:0:0:0:
242,203,185079,1,0,3:0:0:0:
245,210,185194,2,0,B|235:223|236:238|236:238|227:227|205:224,1,63.7500024318696,0|0,3:0|3:0,0:0:0:0:
48,69,185423,6,0,P|67:35|79:0,1,76.4999976654053,14|0,0:0|0:0,0:0:0:0:
0,170,185651,1,2,3:2:0:0:
271,64,185881,6,0,B|254:89|254:89|222:82,1,63.7500024318696,6|0,3:2|0:0,0:0:0:0:
248,0,186110,2,0,B|216:-7|216:-7|199:18,1,63.7500024318696,2|0,0:2|0:0,0:0:0:0:
390,145,186339,2,0,P|400:114|416:87,1,63.7500024318696,10|0,0:0|0:0,0:0:0:0:
195,231,186568,6,0,P|250:247|233:302,1,127.500004863739,2|8,0:2|0:0,0:0:0:0:
455,186,187026,2,0,B|457:204|469:213|469:213|454:214|441:225,1,63.7500024318696,2|0,3:2|0:0,0:0:0:0:
321,117,187254,1,10,0:0:0:0:
373,384,187483,6,0,P|428:353|489:334,1,127.500004863739,2|8,3:2|0:0,0:0:0:0:
295,164,187941,2,0,P|295:133|320:117,1,63.7500024318696,2|0,3:2|0:0,0:0:0:0:
356,313,188171,2,0,P|329:295|300:283,1,63.7500024318696,10|0,0:0|0:0,0:0:0:0:
369,221,188400,2,0,P|395:238|424:250,1,63.7500024318696,2|0,0:0|0:0,0:0:0:0:
229,365,188628,5,10,0:0:0:0:
216,357,189087,2,0,P|206:328|228:307,1,63.7500024318696,10|0,0:0|0:0,0:0:0:0:
146,204,189316,1,0,3:0:0:0:
420,64,189545,6,0,B|422:73|430:81|430:81|390:89|365:43|390:10,1,127.500004863739,14|0,0:0|3:0,0:0:0:0:
196,114,190003,2,0,L|177:52,1,63.7500024318696,2|0,3:2|0:0,0:0:0:0:
302,155,190232,1,14,0:0:0:0:
90,384,190461,6,0,P|83:352|107:330,1,68,2|0,3:2|0:0,0:0:0:0:
294,290,190690,2,0,P|268:312|235:302,1,72.2500013780594,10|0,0:0|0:0,0:0:0:0:
103,157,190919,2,0,P|137:168|145:203,1,76.4999976654053,10|0,0:0|0:0,0:0:0:0:
390,9,191148,6,0,B|347:52|347:52|445:247|445:247|404:290,1,340,6|2,3:2|3:2,0:0:0:0:
395,301,191720,1,0,3:0:0:0:
343,384,191835,6,0,L|282:263,1,136,2|10,3:2|0:0,0:0:0:0:
288,252,192178,1,0,3:0:0:0:
103,318,192293,6,0,P|91:352|117:378,1,76.4999976654053,6|0,3:2|0:0,0:0:0:0:
165,193,192522,1,2,3:2:0:0:
170,203,192636,1,0,3:0:0:0:
77,164,192751,5,14,0:0:0:0:
102,103,192865,1,0,3:0:0:0:
163,83,192980,1,0,3:0:0:0:
219,116,193094,1,0,3:0:0:0:
190,263,193209,6,0,P|184:231|170:203,1,63.7500024318696,6|0,3:2|0:0,0:0:0:0:
282,263,193438,2,0,P|267:291|262:322,1,63.7500024318696,2|0,0:0|0:0,0:0:0:0:
57,247,193667,2,0,B|67:261|68:275|68:275|76:263|96:260,1,63.7500024318696,10|0,0:0|0:0,0:0:0:0:
328,128,193896,6,0,P|288:78|267:18,1,127.500004863739,2|8,0:0|0:0,0:0:0:0:
388,236,194354,2,0,B|377:250|376:264|376:264|368:252|348:249,1,63.7500024318696,2|0,3:2|0:0,0:0:0:0:
451,129,194583,1,10,0:0:0:0:
200,212,194812,6,0,P|239:261|260:321,1,127.500004863739,2|8,3:2|0:0,0:0:0:0:
107,146,195270,2,0,P|83:164|87:195,1,63.7500024318696,2|0,3:2|0:0,0:0:0:0:
213,99,195499,2,0,P|208:68|180:57,1,63.7500024318696,10|0,0:0|0:0,0:0:0:0:
0,239,195728,6,0,L|117:288,1,127.500004863739,2|8,0:0|0:0,0:0:0:0:
345,160,196186,2,0,P|359:176|343:162,1,63.7500024318696,2|0,3:2|0:0,0:0:0:0:
180,57,196415,1,10,0:0:0:0:
192,65,196873,6,0,P|201:34|216:6,1,63.7500024318696,10|0,0:0|0:0,0:0:0:0:
108,66,197102,2,0,P|123:94|132:124,1,63.7500024318696,2|0,3:2|0:0,0:0:0:0:
316,56,197331,2,0,P|319:25|295:6,1,63.7500024318696,10|0,0:0|0:0,0:0:0:0:
186,236,197560,6,0,P|201:180|253:198,1,127.500004863739,2|8,0:0|0:0,0:0:0:0:
479,318,198018,2,0,P|466:347|460:377,1,63.7500024318696,2|0,3:2|0:0,0:0:0:0:
503,249,198247,1,10,0:0:0:0:
217,384,198476,6,0,P|200:309|129:330,1,170,6|0,3:2|0:0,0:0:0:0:
380,198,198934,5,2,3:2:0:0:
363,203,199048,1,0,3:0:0:0:
349,208,199163,2,0,P|347:243|378:260,1,76.4999976654053,6|0,3:2|0:0,0:0:0:0:
268,109,199392,5,2,3:2:0:0:
271,96,199506,1,0,3:0:0:0:
274,82,199621,2,0,P|247:64|220:80,1,68,6|0,3:2|0:0,0:0:0:0:
401,66,199850,5,2,3:2:0:0:
410,75,199964,1,0,3:0:0:0:
419,83,200079,2,0,P|444:69|444:42,1,59.4999981842042,6|0,3:2|0:0,0:0:0:0:
263,197,200309,5,10,0:0:0:0:
295,285,200423,1,8,0:0:0:0:
265,206,200538,6,0,L|145:161,1,127.5,6|0,3:2|0:0,0:0:0:0:
85,220,200995,2,0,P|52:195|61:156,1,85,10|2,0:0|3:2,0:0:0:0:
184,300,201453,1,2,0:0:0:0:
180,311,201682,1,2,3:2:0:0:
250,68,201911,2,0,P|190:46|139:8,1,127.5,10|0,0:0|0:0,0:0:0:0:
263,71,202369,6,0,B|273:106|247:133|235:116|206:144|218:179,1,127.500004863739,2|0,3:2|0:0,0:0:0:0:
266,265,202827,2,0,P|251:225|225:191,1,85,10|2,0:0|3:2,0:0:0:0:
116,250,203170,1,8,0:0:0:0:
111,244,203285,2,0,P|105:225|118:210,1,42.5,2|0,0:0|3:0,0:0:0:0:
180,311,203514,1,2,3:2:0:0:
263,71,203743,2,0,B|182:100|182:100|177:77|158:69,1,127.5,10|0,0:0|0:0,0:0:0:0:
275,77,204201,6,0,P|308:55|301:17,1,85,2|0,3:2|3:0,0:0:0:0:
420,174,204659,2,0,P|445:115|485:66,1,127.5,10|0,0:0|0:0,0:0:0:0:
410,9,205117,1,2,0:0:0:0:
418,19,205346,1,0,3:0:0:0:
436,245,205575,2,0,P|377:256|353:202,1,127.5,10|0,0:0|0:0,0:0:0:0:
446,333,206033,6,0,B|418:277|470:232|488:262|538:216|505:163,1,203.999993774414,6|8,3:2|0:0,0:0:0:0:
450,345,206720,1,2,3:2:0:0:
260,118,206949,6,0,B|282:127|288:155|288:155|337:133|386:120,1,152.999995330811,10|0,0:0|0:0,0:0:0:0:
345,233,207407,1,8,0:0:0:0:
194,52,207636,1,2,3:2:0:0:
211,42,207751,1,0,3:0:0:0:
228,50,207865,6,0,P|242:105|186:117,1,127.5,6|0,3:2|0:0,0:0:0:0:
236,38,208323,1,10,0:0:0:0:
117,227,208552,2,0,P|106:185|85:149,1,85,2|0,3:2|0:0,0:0:0:0:
208,196,209010,1,2,3:2:0:0:
9,296,209239,2,0,P|31:332|41:373,1,85,10|2,0:0|0:0,0:0:0:0:
43,384,209583,1,2,0:0:0:0:
167,330,209697,6,0,P|105:346|51:378,1,127.5,2|0,3:2|0:0,0:0:0:0:
180,328,210155,1,10,0:0:0:0:
41,161,210384,2,0,P|9:185|19:224,1,85,2|2,0:0|0:0,0:0:0:0:
30,233,210728,1,8,0:0:0:0:
44,236,210842,1,2,3:2:0:0:
176,99,211072,2,0,P|153:62|143:22,1,85,10|0,0:0|3:0,0:0:0:0:
396,207,211530,6,0,B|375:276|375:276|367:280|367:280|347:348,1,152.999995330811,6|0,3:2|0:0,0:0:0:0:
400,190,211988,6,0,B|419:242|419:242|426:245|426:245|445:297,1,118.999996368408,10|0,0:0|3:0,0:0:0:0:
482,384,212331,1,8,0:0:0:0:
445,298,212445,5,2,3:2:0:0:
238,384,212674,1,0,3:0:0:0:
310,67,212904,6,0,B|409:109|409:109|414:123|414:123|512:165,1,229.499992996216,10|0,0:0|0:0,0:0:0:0:
295,57,213362,6,0,B|324:44|324:44|325:40|325:40|354:27,1,68,6|2,3:2|3:2,0:0:0:0:
366,23,213705,1,0,3:0:0:0:
377,18,213820,1,14,0:0:0:0:
306,192,214049,1,0,3:0:0:0:
73,60,214278,6,0,P|63:20|95:0,1,85,10|0,0:0|3:0,0:0:0:0:
106,0,214621,1,0,3:0:0:0:
102,133,214735,5,0,3:0:0:0:
59,154,214850,1,0,3:0:0:0:
15,139,214964,1,0,3:0:0:0:
0,93,215079,1,0,3:0:0:0:
152,55,215194,6,0,B|174:123|174:123|172:131|172:131|195:200,1,152.999995330811,6|0,3:2|3:0,0:0:0:0:
132,361,215652,6,0,P|141:310|163:265,1,101.999996887207,10|0,0:0|3:0,0:0:0:0:
288,37,216110,2,0,P|297:87|320:133,1,101.999996887207,10|0,0:0|3:0,0:0:0:0:
444,361,216568,2,0,P|453:311|476:265,1,101.999996887207,10|0,0:0|3:0,0:0:0:0:
137,374,217026,5,14,0:0:0:0:
132,361,217484,6,0,P|176:344|201:383,1,101.999996887207,10|0,0:0|3:0,0:0:0:0:
98,151,217942,2,0,P|141:170|131:215,1,101.999996887207,10|0,0:0|3:0,0:0:0:0:
360,99,218400,2,0,P|377:142|338:167,1,101.999996887207,10|0,0:0|3:0,0:0:0:0:
14,27,218858,5,14,0:0:0:0:
20,41,219316,6,0,L|113:0,1,101.999996887207,10|0,0:0|3:0,0:0:0:0:
187,249,219774,2,0,L|223:154,1,101.999996887207,10|0,0:0|3:0,0:0:0:0:
438,299,220232,2,0,L|397:206,1,101.999996887207,10|0,0:0|3:0,0:0:0:0:
129,312,220690,6,0,P|87:289|102:244,1,101.999996887207,14|0,0:0|3:0,0:0:0:0:
203,38,221148,2,0,P|158:23|136:65,1,101.999996887207,10|0,0:0|3:0,0:0:0:0:
409,139,221606,2,0,P|424:94|383:72,1,101.999996887207,10|0,0:0|3:0,0:0:0:0:
309,345,222064,2,0,P|354:360|376:319,1,101.999996887207,10|8,0:0|0:0,0:0:0:0:
315,261,222407,1,8,0:0:0:0:
315,261,222522,5,6,3:2:0:0:
315,261,222980,6,0,P|326:210|350:166,1,101.999996887207,10|0,0:0|3:0,0:0:0:0:
178,0,223438,2,0,P|202:44|213:94,1,101.999996887207,10|0,0:0|3:0,0:0:0:0:
37,271,223896,2,0,P|25:220|1:176,1,101.999996887207,10|0,0:0|3:0,0:0:0:0:
325,283,224354,5,14,0:0:0:0:
319,271,224812,6,0,P|279:297|298:340,1,101.999996887207,10|0,0:0|3:0,0:0:0:0:
365,96,225270,2,0,P|407:116|435:78,1,101.999996887207,10|0,0:0|3:0,0:0:0:0:
190,142,225728,2,0,P|186:94|139:89,1,101.999996887207,10|0,0:0|3:0,0:0:0:0:
379,341,226186,5,14,0:0:0:0:
373,327,226644,6,0,L|280:368,1,101.999996887207,10|0,0:0|3:0,0:0:0:0:
69,219,227102,2,0,L|162:260,1,101.999996887207,10|0,0:0|3:0,0:0:0:0:
373,111,227560,2,0,L|280:152,1,101.999996887207,10|0,0:0|3:0,0:0:0:0:
69,3,228018,5,10,0:0:0:0:
108,28,228133,1,8,0:0:0:0:
91,72,228247,1,0,3:0:0:0:
297,229,228476,2,0,P|306:275|263:293,1,101.999996887207,14|0,0:0|3:0,0:0:0:0:
57,136,228934,5,10,0:0:0:0:
277,305,229163,1,0,3:0:0:0:
43,124,229392,2,0,P|69:80|86:33,1,101.999996887207,14|8,0:0|0:0,0:0:0:0:
77,15,229736,1,10,0:0:0:0:
213,153,229850,6,0,P|149:126|126:191,1,152.999995330811,6|0,3:2|3:0,0:0:0:0:
294,117,230308,6,0,P|282:67|260:22,1,101.999996887207,10|0,0:0|3:0,0:0:0:0:
337,265,230766,2,0,P|385:279|435:282,1,101.999996887207,10|0,0:0|3:0,0:0:0:0:
184,228,231224,2,0,P|147:262|119:304,1,101.999996887207,10|0,0:0|3:0,0:0:0:0:
405,165,231682,6,0,B|383:96|383:96|385:89|385:89|361:20,1,152.999995330811,14|0,0:0|3:0,0:0:0:0:
482,139,232140,6,0,B|508:183|508:183|468:214,1,101.999996887207,10|0,0:0|3:0,0:0:0:0:
228,116,232598,2,0,B|253:71|253:71|300:89,1,101.999996887207,10|0,0:0|3:0,0:0:0:0:
336,344,233056,2,0,B|284:344|284:344|276:294,1,101.999996887207,10|0,0:0|3:0,0:0:0:0:
289,280,233400,1,2,3:2:0:0:
119,198,233514,6,0,B|140:186|164:196|172:218|172:218|140:300,1,152.999995330811,14|0,0:0|3:0,0:0:0:0:
52,125,233972,6,0,P|81:85|126:99,1,101.999996887207,10|0,0:0|3:0,0:0:0:0:
37,332,234430,2,0,P|29:285|72:262,1,101.999996887207,10|0,0:0|3:0,0:0:0:0:
293,384,234888,2,0,P|254:355|267:309,1,101.999996887207,10|0,0:0|3:0,0:0:0:0:
501,89,235346,6,0,B|492:112|465:120|465:120|507:215,1,152.999995330811,10|0,0:0|3:0,0:0:0:0:
352,96,235804,6,0,L|386:0,1,101.999996887207,10|0,0:0|3:0,0:0:0:0:
302,242,236262,2,0,L|367:320,1,101.999996887207,10|0,0:0|3:0,0:0:0:0:
198,126,236720,2,0,L|97:144,1,101.999996887207,10|0,0:0|3:0,0:0:0:0:
386,0,237178,6,0,B|400:21|400:21|384:67|384:67|379:70|379:70|364:115|364:115|379:135,1,152.999995330811,6|0,3:2|0:0,0:0:0:0:
502,283,237636,6,0,B|485:260|485:260|500:216|500:216|505:213|505:213|520:168|520:168|506:147,1,152.999995330811,10|0,0:0|3:0,0:0:0:0:
512,296,238094,5,0,3:0:0:0:
339,365,238323,1,2,3:2:0:0:
270,192,238552,1,2,0:0:0:0:
443,123,238781,1,10,0:0:0:0:
348,380,239010,5,2,0:0:0:0:
158,298,239239,1,2,3:2:0:0:
240,110,239468,1,14,0:0:0:0:
428,190,239697,1,2,0:0:0:0:
152,314,239926,5,2,3:2:0:0:
67,101,240155,1,2,3:2:0:0:
277,19,240384,1,10,0:0:0:0:
361,228,240613,1,2,3:2:0:0:
235,179,240843,6,0,P|326:133|407:72,1,203.999993774414,6|0,3:2|0:0,0:0:0:0:
218,187,241530,1,2,3:2:0:0:
492,359,241759,6,0,P|398:287|292:234,1,237.999992736817,14|0,0:0|0:0,0:0:0:0:
469,13,242446,6,0,P|508:39|492:83,1,101.999996887207,10|0,0:0|0:0,0:0:0:0:
284,5,242904,1,10,0:0:0:0:
512,264,243133,6,0,P|432:304|362:357,1,178.499994552612,14|8,0:0|0:0,0:0:0:0:
351,368,243591,1,10,0:0:0:0:
288,222,243820,1,0,3:0:0:0:
507,277,244049,6,0,P|454:252|473:198,1,127.5,2|0,3:2|0:0,0:0:0:0:
512,264,244507,6,0,P|451:294|486:352,1,152.999995330811,14|0,0:0|0:0,0:0:0:0:
486,352,244965,1,2,0:0:0:0:
411,146,245194,1,2,3:2:0:0:
186,369,245423,6,0,P|164:282|126:203,1,178.499994552612,14|0,0:0|0:0,0:0:0:0:
190,384,245881,1,2,0:0:0:0:
416,133,246110,6,0,B|363:273|363:273|367:246|351:222,1,204,14|0,0:0|0:0,0:0:0:0:
421,120,246568,1,2,3:2:0:0:
84,27,246797,6,0,B|79:1|63:-9|63:-9|106:-37|161:-11|165:63|106:86,1,229.499992996216,14|0,0:0|3:0,0:0:0:0:
127,172,247255,2,0,P|77:147|93:95,1,118.999996368408,2|0,3:2|0:0,0:0:0:0:
244,220,247713,6,0,B|261:260|223:295|209:275|177:310|190:349,1,152.999995330811,2|0,3:2|0:0,0:0:0:0:
195,359,248171,5,2,0:0:0:0:
107,302,248400,1,2,0:0:0:0:
151,207,248629,1,2,0:0:0:0:
101,316,248858,6,0,P|87:286|68:257,1,68,2|2,0:0|0:0,0:0:0:0:
195,359,249316,1,2,0:0:0:0:
239,264,249545,1,2,0:0:0:0:
95,170,249774,6,0,P|112:141|128:110,1,68,2|0,0:0|0:0,0:0:0:0:
274,44,250232,1,2,0:0:0:0:
230,139,250461,1,2,0:0:0:0:
117,21,250690,6,0,P|88:39|58:54,1,68,2|0,0:0|0:0,0:0:0:0:
135,190,251148,1,2,0:0:0:0:
73,210,251377,1,2,0:0:0:0:
54,146,251606,1,2,0:0:0:0:
195,235,251835,5,2,0:0:0:0:
147,328,252064,1,2,0:0:0:0:
55,281,252293,1,2,0:0:0:0:
160,334,252522,6,0,P|168:365|142:384,1,68,0|2,0:0|0:0,0:0:0:0:
195,235,252980,1,2,0:0:0:0:
103,188,253209,1,2,0:0:0:0:
227,87,253438,6,0,P|253:107|244:138,1,68,2|0,0:0|0:0,0:0:0:0:
385,65,253896,1,2,0:0:0:0:
431,157,254125,1,2,0:0:0:0:
340,205,254354,1,2,0:0:0:0:
509,296,254583,6,0,P|447:325|391:363,1,136,10|2,0:0|0:0,0:0:0:0:
195,235,255499,5,2,0:0:0:0:
102,283,255728,1,2,0:0:0:0:
149,375,255957,1,2,0:0:0:0:
94,268,256186,6,0,L|34:299,1,68,2|2,0:0|0:0,0:0:0:0:
141,176,256644,1,2,0:0:0:0:
48,128,256873,1,2,0:0:0:0:
162,11,257102,6,0,B|202:29|242:56|242:56|252:37|272:28,1,136,2|2,0:0|0:0,0:0:0:0:
120,99,257789,1,2,0:0:0:0:
263,233,258018,1,2,3:2:0:0:
266,222,258133,1,8,0:0:0:0:
269,211,258247,5,10,0:0:0:0:
176,260,258476,1,0,3:0:0:0:
223,351,258705,1,0,3:0:0:0:
315,303,258934,1,2,0:0:0:0:
183,158,259163,5,14,3:2:0:0:
183,158,259392,1,0,3:0:0:0:
315,303,259621,5,2,3:2:0:0:
315,303,259850,1,0,3:0:0:0:
153,352,260079,5,2,3:2:0:0:
88,281,260308,1,0,3:0:0:0:
236,384,260537,5,0,3:0:0:0:
322,289,260766,1,2,3:2:0:0:
91,183,260995,5,2,3:2:0:0:
199,62,261224,1,0,3:0:0:0:
315,303,261453,5,2,3:2:0:0:
186,160,261682,1,0,3:0:0:0:
473,17,261911,5,2,3:2:0:0:
323,183,262140,1,0,3:0:0:0:
39,17,262369,5,2,3:2:0:0:
83,32,262483,1,0,3:0:0:0:
99,77,262598,1,0,3:0:0:0:
77,116,262712,1,0,3:0:0:0:
0,164,262827,6,0,P|74:141|70:236,1,203.999993774414,6|8,3:2|0:0,0:0:0:0:
237,384,263514,1,2,3:2:0:0:
254,342,263628,1,8,0:0:0:0:
219,313,263743,6,0,L|124:348,1,101.999996887207,14|0,0:0|3:0,0:0:0:0:
293,113,264201,1,10,0:0:0:0:
232,136,264315,1,8,0:0:0:0:
241,199,264430,2,0,L|286:220,1,50.9999984436036,2|0,3:2|3:0,0:0:0:0:
169,35,264659,5,10,3:2:0:0:
182,28,265117,1,2,0:0:0:0:
96,78,265346,2,0,P|90:39|73:7,1,76.4999976654053,2|0,0:0|0:0,0:0:0:0:
183,128,265804,1,2,0:0:0:0:
16,224,266033,1,2,0:0:0:0:
209,335,266262,5,2,0:0:0:0:
216,321,266949,5,2,0:0:0:0:
135,182,267178,1,2,0:0:0:0:
336,114,267407,5,2,0:0:0:0:
223,307,267636,1,2,3:2:0:0:
40,63,267865,6,0,B|96:94|139:41|110:21|162:-35|214:0,1,212.5,14|2,0:0|3:2,0:0:0:0:
224,10,268209,1,2,0:0:0:0:
220,136,268323,6,0,P|207:107|191:80,1,63.7500024318696,6|0,3:2|0:0,0:0:0:0:
288,178,268552,2,0,P|271:205|258:234,1,63.7500024318696,2|0,0:0|0:0,0:0:0:0:
94,330,268781,2,0,P|70:310|75:281,1,63.7500024318696,10|0,0:0|0:0,0:0:0:0:
304,384,269010,6,0,P|293:329|242:350,1,127.500004863739,2|8,0:0|0:0,0:0:0:0:
44,148,269468,2,0,P|73:137|102:123,1,63.7500024318696,2|0,3:2|0:0,0:0:0:0:
75,281,269697,1,10,0:0:0:0:
355,116,269926,6,0,P|322:61|306:0,1,127.500004863739,2|8,3:2|0:0,0:0:0:0:
487,224,270384,2,0,P|495:193|511:166,1,63.7500024318696,2|0,3:2|0:0,0:0:0:0:
429,304,270613,2,0,B|445:330|445:330|476:323,1,63.7500024318696,10|0,0:0|0:0,0:0:0:0:
241,225,270843,6,0,P|224:286|192:340,1,127.500004863739,2|8,3:2|0:0,0:0:0:0:
411,194,271301,2,0,P|397:177|412:192,1,63.7500024318696,2|0,3:2|0:0,0:0:0:0:
274,52,271530,1,14,0:0:0:0:
267,62,271988,6,0,P|263:92|286:112,1,63.7500024318696,10|0,0:0|0:0,0:0:0:0:
343,35,272217,2,0,P|366:56|360:85,1,63.7500024318696,2|0,3:2|0:0,0:0:0:0:
191,4,272446,2,0,L|132:26,1,63.7500024318696,10|0,0:0|0:0,0:0:0:0:
347,163,272675,6,0,B|316:245|316:245|335:251|347:269,1,127.500004863739,2|10,0:0|0:0,0:0:0:0:
113,365,273133,2,0,L|91:306,1,63.7500024318696,2|0,3:2|0:0,0:0:0:0:
191,384,273361,1,10,0:0:0:0:
118,145,273591,6,0,B|91:167|95:201|95:201|77:173|41:175,1,127.500004863739,2|8,3:2|0:0,0:0:0:0:
40,175,274048,1,2,3:2:0:0:
278,76,274278,6,0,P|288:110|261:135,1,76.4999976654053,14|0,0:0|0:0,0:0:0:0:
249,138,274507,1,2,3:2:0:0:
238,136,274621,1,0,3:0:0:0:
169,26,274736,6,0,B|159:56|159:56|184:75,1,63.7500024318696,10|0,0:0|3:0,0:0:0:0:
371,0,274965,2,0,B|342:14|342:14|346:45,1,63.7500024318696,0|0,3:0|3:0,0:0:0:0:
477,260,275194,6,0,L|512:192,1,76.4999976654053,14|0,0:0|0:0,0:0:0:0:
374,319,275422,1,2,3:2:0:0:
264,89,275652,6,0,P|238:106|238:136,1,63.7500024318696,6|0,3:2|0:0,0:0:0:0:
331,123,275881,2,0,P|332:154|306:171,1,63.7500024318696,2|0,0:2|0:0,0:0:0:0:
165,290,276109,2,0,P|156:259|140:232,1,63.7500024318696,10|0,0:0|0:0,0:0:0:0:
381,333,276339,6,0,B|345:324|319:354|337:365|312:393|276:385,1,127.500004863739,2|8,0:2|0:0,0:0:0:0:
38,225,276796,2,0,P|24:241|39:226,1,63.7500024318696,2|0,3:2|0:0,0:0:0:0:
153,110,277025,1,10,0:0:0:0:
202,384,277255,6,0,P|226:324|262:271,1,127.500004863739,2|8,3:2|0:0,0:0:0:0:
451,105,277713,2,0,P|476:125|472:154,1,63.7500024318696,2|0,3:2|0:0,0:0:0:0:
310,19,277942,2,0,P|305:50|289:77,1,63.7500024318696,10|0,0:0|0:0,0:0:0:0:
378,112,278171,2,0,P|385:80|401:53,1,63.7500024318696,2|0,0:0|0:0,0:0:0:0:
223,192,278400,5,10,0:0:0:0:
232,182,278858,2,0,P|236:151|213:131,1,63.7500024318696,10|0,0:0|0:0,0:0:0:0:
322,217,279086,1,0,3:0:0:0:
73,22,279316,6,0,B|92:25|107:17|107:17|73:103,1,127.500004863739,14|0,0:0|3:0,0:0:0:0:
69,117,279659,1,0,3:0:0:0:
252,59,279774,2,0,L|228:0,1,63.7500024318696,2|0,3:2|0:0,0:0:0:0:
144,183,280003,1,12,0:0:0:0:
362,331,280232,6,0,P|369:361|344:384,1,68,2|0,3:2|0:0,0:0:0:0:
398,202,280461,2,0,P|423:178|454:190,1,72.2500013780594,10|0,0:0|0:0,0:0:0:0:
268,234,280690,2,0,P|232:223|225:188,1,76.4999976654053,2|0,3:2|0:0,0:0:0:0:
464,366,280919,6,0,B|408:306|464:230|504:279|557:207|512:152,1,255,14|8,3:2|0:0,0:0:0:0:
472,30,281377,2,0,P|446:59|467:94,1,85,2|0,3:2|3:0,0:0:0:0:
294,169,281606,5,2,3:2:0:0:
291,159,281720,1,8,0:0:0:0:
288,149,281835,2,0,B|310:147|320:137|320:137|318:152|327:168,1,68,6|0,3:2|0:0,0:0:0:0:
512,319,282064,6,0,P|476:333|445:353,1,76.4999976654053,6|0,3:2|0:0,0:0:0:0:
267,248,282293,1,2,3:2:0:0:
272,239,282407,1,0,3:0:0:0:
179,278,282522,5,14,0:0:0:0:
204,339,282636,1,0,3:0:0:0:
265,359,282751,1,0,3:0:0:0:
321,326,282865,1,0,3:0:0:0:
294,169,282980,6,0,P|286:211|267:248,1,85.0000032424928,6|0,3:2|3:0,0:0:0:0:
291,159,283209,5,2,3:2:0:0:
288,149,283285,6,0,P|278:130|274:110,1,42.5000016212464,0|0,3:0|3:0,0:0:0:0:
412,214,283438,6,0,P|387:232|390:262,1,63.7500024318696,14|0,0:0|0:0,0:0:0:0:
212,70,283667,2,0,B|239:48|235:14|235:14|253:42|289:40,1,127.500004863739,2|8,0:0|0:0,0:0:0:0:
487,252,284125,2,0,P|497:222|507:192,1,63.7500024318696,2|0,3:2|0:0,0:0:0:0:
399,74,284354,1,10,0:0:0:0:
319,349,284583,6,0,B|302:292|302:292|295:288|295:288|278:230,1,127.500004863739,2|8,3:2|0:0,0:0:0:0:
67,85,285041,2,0,P|43:103|47:134,1,63.7500024318696,2|0,3:2|0:0,0:0:0:0:
189,59,285270,2,0,P|175:30|168:-2,1,63.7500024318696,10|0,0:0|0:0,0:0:0:0:
94,239,285499,6,0,B|79:206|103:180|103:180|137:176|156:207,1,127.500004863739,2|8,0:0|0:0,0:0:0:0:
402,303,285957,2,0,P|416:287|400:301,1,63.7500024318696,2|0,3:2|0:0,0:0:0:0:
226,384,286186,1,10,0:0:0:0:
240,378,286644,6,0,P|244:347|220:328,1,63.7500024318696,10|0,0:0|0:0,0:0:0:0:
112,263,286873,2,0,P|116:293|92:312,1,63.7500024318696,2|0,3:2|0:0,0:0:0:0:
256,208,287102,2,0,P|241:179|236:148,1,63.7500024318696,10|0,0:0|0:0,0:0:0:0:
382,363,287331,6,0,P|402:302|438:250,1,127.500004863739,2|8,0:0|0:0,0:0:0:0:
186,101,287789,2,0,P|162:119|166:150,1,63.7500024318696,2|0,3:2|0:0,0:0:0:0:
256,49,288018,1,10,0:0:0:0:
171,372,288247,6,0,B|126:255|126:255|130:277|116:297,1,170,6|0,3:2|0:0,0:0:0:0:
373,131,288705,5,2,3:2:0:0:
366,139,288819,1,0,3:0:0:0:
360,145,288934,2,0,L|305:124,1,59.4999981842042,6|0,3:2|0:0,0:0:0:0:
271,310,289163,5,2,3:2:0:0:
255,309,289278,1,0,3:0:0:0:
239,308,289392,2,0,L|211:246,1,68,6|0,3:2|0:0,0:0:0:0:
62,361,289621,5,2,3:2:0:0:
50,349,289736,1,0,3:0:0:0:
38,335,289850,2,0,L|65:264,1,76.4999976654053,6|0,3:2|0:0,0:0:0:0:
234,116,290079,5,10,0:0:0:0:
266,204,290193,1,8,0:0:0:0:
236,126,290308,6,0,P|180:155|118:171,1,127.5,6|0,3:2|0:0,0:0:0:0:
31,129,290766,2,0,P|68:148|109:158,1,85,10|2,0:0|3:2,0:0:0:0:
256,34,291224,1,2,0:0:0:0:
252,23,291453,1,2,3:2:0:0:
317,263,291682,2,0,B|335:205|335:205|342:201|342:201|360:144,1,127.5,10|0,0:0|0:0,0:0:0:0:
310,277,292140,6,0,P|275:229|221:252,1,127.5,2|0,3:2|0:0,0:0:0:0:
282,336,292598,2,0,P|243:348|215:319,1,85,10|2,0:0|3:2,0:0:0:0:
118,277,292941,1,8,0:0:0:0:
123,283,293056,2,0,P|129:302|116:317,1,42.5,2|0,0:0|3:0,0:0:0:0:
221,252,293285,1,2,3:2:0:0:
6,125,293514,2,0,P|35:68|51:6,1,127.5,10|0,0:0|0:0,0:0:0:0:
0,138,293972,6,0,P|40:148|78:167,1,85,2|0,3:2|3:0,0:0:0:0:
249,85,294430,2,0,P|187:69|131:40,1,127.5,10|0,0:0|0:0,0:0:0:0:
51,7,294888,1,2,0:0:0:0:
64,14,295117,1,0,3:0:0:0:
137,256,295346,2,0,P|187:225|169:169,1,127.5,10|0,0:0|0:0,0:0:0:0:
133,351,295804,6,0,B|161:295|109:250|91:280|41:234|74:181,1,203.999993774414,6|8,3:2|0:0,0:0:0:0:
129,363,296491,1,2,3:2:0:0:
313,193,296720,6,0,B|304:157|259:147|218:194|262:248,1,152.999995330811,10|0,0:0|0:0,0:0:0:0:
168,169,297178,1,8,0:0:0:0:
375,342,297407,1,2,3:2:0:0:
385,325,297522,1,0,3:0:0:0:
377,308,297636,6,0,P|322:294|310:350,1,127.5,6|0,3:2|0:0,0:0:0:0:
389,300,298094,1,10,0:0:0:0:
186,384,298323,2,0,P|176:344|154:306,1,85,2|0,3:2|0:0,0:0:0:0:
263,249,298781,1,2,3:2:0:0:
72,146,299010,2,0,P|62:187|39:223,1,85,10|2,0:0|0:0,0:0:0:0:
34,232,299354,1,2,0:0:0:0:
139,186,299468,6,0,P|106:131|90:70,1,127.5,2|0,3:2|0:0,0:0:0:0:
145,196,299926,1,10,0:0:0:0:
301,52,300155,2,0,P|269:76|279:115,1,85,2|2,0:0|0:0,0:0:0:0:
290,124,300499,1,8,0:0:0:0:
304,127,300613,1,2,3:2:0:0:
42,9,300842,2,0,L|14:89,1,85,10|0,0:0|3:0,0:0:0:0:
173,367,301301,6,0,B|182:335|182:335|190:331|190:331|209:266|209:266|204:258|204:258|213:226,1,152.999995330811,6|0,3:2|0:0,0:0:0:0:
169,384,301759,6,0,B|158:360|158:360|151:358|151:358|130:309|130:309|133:303|133:303|122:279,1,118.999996368408,10|0,0:0|3:0,0:0:0:0:
83,198,302102,1,8,0:0:0:0:
123,279,302216,5,2,3:2:0:0:
318,174,302446,1,0,3:0:0:0:
14,89,302675,6,0,B|59:68|59:68|71:74|71:74|165:33|165:33|169:19|169:19|214:0,1,229.499992996216,10|0,0:0|0:0,0:0:0:0:
0,98,303133,6,0,B|26:110|26:110|33:106|33:106|89:131|89:131|91:139|91:139|118:150,1,136,6|2,3:2|0:0,0:0:0:0:
357,50,303934,5,8,0:0:0:0:
348,58,304048,2,0,P|313:37|324:0,1,85,2|0,3:2|3:0,0:0:0:0:
432,156,304507,1,0,3:0:0:0:
206,278,304736,5,10,0:0:0:0:
238,366,304850,1,8,0:0:0:0:
203,269,304965,6,0,P|134:301|60:321,1,152.999995330811,6|0,3:2|0:0,0:0:0:0:
171,128,305423,6,0,P|248:172|331:202,1,178.499994552612,14|0,0:0|3:0,0:0:0:0:
159,121,305880,5,10,0:0:0:0:
398,232,306109,1,2,3:2:0:0:
182,383,306339,1,10,0:0:0:0:
411,225,306568,6,0,P|388:179|375:130,1,101.999996887207,2|10,3:2|0:0,0:0:0:0:
465,372,307026,5,2,3:2:0:0:
246,240,307255,1,10,0:0:0:0:
469,116,307484,1,2,3:2:0:0:
508,139,307599,1,0,3:0:0:0:
493,184,307713,5,10,0:0:0:0:
410,42,307942,1,2,3:2:0:0:
288,350,308171,6,0,P|272:292|246:240,1,118.999996368408,14|2,0:0|3:2,0:0:0:0:
291,364,308514,1,2,0:0:0:0:
118,200,308629,6,0,P|104:249|82:294,1,101.999996887207,10|0,0:0|3:0,0:0:0:0:
296,155,309087,2,0,P|270:110|254:62,1,101.999996887207,10|0,0:0|0:0,0:0:0:0:
251,48,309430,1,0,3:0:0:0:
340,220,309545,6,0,P|381:196|374:149,1,101.999996887207,10|0,0:0|3:0,0:0:0:0:
202,329,310003,2,0,P|215:282|176:254,1,101.999996887207,10|0,0:0|3:0,0:0:0:0:
192,339,310346,1,2,0:0:0:0:
57,166,310461,6,0,P|41:223|14:276,1,118.999996368408,14|2,0:0|3:2,0:0:0:0:
82,95,310919,1,10,0:0:0:0:
340,220,311148,5,14,0:0:0:0:
343,210,311262,1,0,3:0:0:0:
269,258,311377,5,2,3:2:0:0:
289,301,311492,1,0,3:0:0:0:
333,318,311606,1,2,3:2:0:0:
374,293,311721,1,0,3:0:0:0:
265,169,311835,6,0,P|212:194|155:211,1,118.999996368408,14|0,0:0|3:0,0:0:0:0:
279,162,312178,1,0,3:0:0:0:
181,384,312293,6,0,P|204:318|140:293,1,152.999995330811,6|0,3:2|0:0,0:0:0:0:
22,106,312751,6,0,P|-5:181|71:207,1,178.499994552612,14|0,0:0|3:0,0:0:0:0:
29,94,313209,6,0,P|52:49|67:0,1,101.999996887207,10|0,0:0|3:0,0:0:0:0:
22,106,313552,1,0,3:0:0:0:
15,118,313667,1,10,0:0:0:0:
181,384,313896,6,0,P|196:335|219:290,1,101.999996887207,2|8,3:2|0:0,0:0:0:0:
219,290,314354,1,0,3:0:0:0:
17,384,314583,1,10,0:0:0:0:
116,145,314812,1,2,3:2:0:0:
154,166,314927,1,0,3:0:0:0:
140,211,315041,6,0,P|89:232|57:187,1,118.999996368408,10|2,0:0|3:2,0:0:0:0:
320,76,315499,1,10,0:0:0:0:
213,5,315728,1,2,3:2:0:0:
350,304,315957,6,0,B|322:248|374:203|392:233|442:187|409:134,1,203.999993774414,6|0,3:2|3:0,0:0:0:0:
266,372,316644,6,0,B|296:294|222:240|201:282|129:226|167:152,1,272,12|2,0:0|3:2,0:0:0:0:
259,384,317331,1,10,0:0:0:0:
340,78,317560,6,0,B|313:92|302:117|302:117|192:63,1,178.499994552612,6|0,3:2|0:0,0:0:0:0:
182,68,318018,5,0,3:0:0:0:
173,73,318132,1,0,3:0:0:0:
135,2,318247,5,8,0:0:0:0:
92,22,318362,1,0,3:0:0:0:
75,66,318476,1,0,3:0:0:0:
100,107,318591,1,0,3:0:0:0:
251,15,318705,6,0,P|265:63|287:109,1,101.999996887207,10|0,0:0|3:0,0:0:0:0:
96,371,319163,6,0,B|41:230|41:230|47:257|31:280,1,204,14|0,0:0|0:0,0:0:0:0:
30,280,319621,5,14,3:2:0:0:
256,192,319736,12,2,323285,0:0:0:0:
