osu file format v14

[General]
AudioFilename: audio.mp3
AudioLeadIn: 0
PreviewTime: 47980
Countdown: 0
SampleSet: Soft
StackLeniency: 0.7
Mode: 0
LetterboxInBreaks: 0
WidescreenStoryboard: 1

[Editor]
DistanceSpacing: 1.8
BeatDivisor: 4
GridSize: 16
TimelineZoom: 1

[Metadata]
Title:Okaeri (TV Size)
TitleUnicode:おかえり (TV Size)
Artist:Koiwai Kotori, Murakawa Rie, Sakura Ayane, Asumi Kana
ArtistUnicode:小岩井ことり、村川梨衣、佐倉綾音、阿澄佳奈
Creator:Kazuma
Version:Welcome Back!
Source:のんのんびより りぴーと
Tags:Non Non Biyori Repeat ending Season 2 2nd J-Pop JPop Pop Japanese Anime 宮内れんげ 一条蛍 越谷夏海 越谷小鞠 ZAQ 松田彬人 Matsuda Akito Miyauchi Renge Ichijou Hotaru Koshigaya Natsumi Komari dora- doraemonelf
BeatmapID:2652806
BeatmapSetID:1276554

[Difficulty]
HPDrainRate:5
CircleSize:4
OverallDifficulty:6
ApproachRate:7.5
SliderMultiplier:1.6
SliderTickRate:1

[Events]
//Background and Video events
0,0,"biyori_1080.jpg",0,0
Video,-350,"Okaeri.mp4"
//Break Periods
//Storyboard Layer 0 (Background)
//Storyboard Layer 1 (Fail)
//Storyboard Layer 2 (Pass)
//Storyboard Layer 3 (Foreground)
//Storyboard Layer 4 (Overlay)
//Storyboard Sound Samples

[TimingPoints]
187,588.235294117647,4,2,13,65,1,0
1363,-100,4,2,2,65,0,0
1657,-100,4,2,3,65,0,0
1951,-100,4,2,2,65,0,0
2245,-100,4,2,4,65,0,0
2834,-100,4,2,5,65,0,0
3129,-100,4,2,2,65,0,0
3423,-100,4,2,13,65,0,0
5775,-100,4,2,99,5,0,0
6069,588.235294117647,4,2,6,80,1,0
15186,-100,4,2,1,80,0,0
15480,-100,4,2,1,70,0,0
33568,-100,4,2,2,70,0,0
33716,-100,4,2,3,70,0,0
34010,-100,4,2,4,70,0,0
34304,-125,4,2,1,60,0,0
35480,-125,4,2,2,60,0,0
35774,-125,4,2,1,60,0,0
38421,-125,4,2,2,60,0,0
38715,-125,4,2,1,60,0,0
40186,-125,4,2,2,60,0,0
40480,-125,4,2,1,60,0,0
43127,-125,4,2,7,60,0,0
43716,-100,4,2,1,75,0,0
44892,-100,4,2,8,75,0,0
48421,-100,4,2,8,80,0,0
50774,-100,4,2,8,85,0,0
53127,-90.9090909090909,4,2,8,90,0,1
55186,-90.9090909090909,4,2,9,90,0,1
56068,-90.9090909090909,4,2,8,90,0,1
57539,-90.9090909090909,4,2,9,90,0,1
58421,-90.9090909090909,4,2,8,90,0,1
59892,-90.9090909090909,4,2,9,90,0,1
60774,-90.9090909090909,4,2,8,90,0,1
61657,-90.9090909090909,4,2,1,90,0,1
62392,-90.9090909090909,4,2,9,90,0,1
63127,-90.9090909090909,4,2,8,90,0,1
64598,-90.9090909090909,4,2,9,90,0,1
65480,-90.9090909090909,4,2,8,90,0,1
66951,-90.9090909090909,4,2,9,90,0,1
67833,-90.9090909090909,4,2,8,90,0,1
69304,-90.9090909090909,4,2,9,90,0,1
70186,-90.9090909090909,4,2,1,90,0,1
71363,-90.9090909090909,4,2,10,90,0,1
71657,-90.9090909090909,4,2,1,90,0,1
71951,-90.9090909090909,4,2,8,90,0,1
74010,-90.9090909090909,4,2,9,90,0,1
74892,-90.9090909090909,4,2,8,90,0,1
76363,-90.9090909090909,4,2,9,90,0,1
77245,-90.9090909090909,4,2,8,90,0,1
78716,-90.9090909090909,4,2,9,90,0,1
79598,-90.9090909090909,4,2,8,90,0,1
80480,-90.9090909090909,4,2,1,90,0,1
81363,-90.9090909090909,4,2,9,90,0,1
81951,-90.9090909090909,4,2,6,90,0,1
83421,-90.9090909090909,4,2,1,90,0,1
83716,-90.9090909090909,4,2,6,90,0,1
84598,-90.9090909090909,4,2,8,90,0,1
85775,-90.9090909090909,4,2,9,90,0,1
86657,-90.9090909090909,4,2,6,90,0,1
88421,-90.9090909090909,4,2,11,80,0,0
89304,-100,4,2,8,80,0,0
90333,-100,4,2,1,80,0,0
90774,-100,4,2,12,70,0,0
91363,-100,4,2,1,70,0,0

[Colours]
Combo1 : 255,128,128
Combo2 : 60,198,26
Combo3 : 22,116,231
Combo4 : 174,134,255

[HitObjects]
44,283,187,6,0,P|112:321|194:269,1,160,2|2,2:0|2:0,2:0:0:0:
296,115,1363,2,0,P|340:102|381:118,2,80,2|2|2,2:0|2:0|2:0,2:0:0:0:
225,191,2245,1,2,2:0:0:0:
16,191,2834,5,2,2:0:0:0:
72,103,3129,1,2,2:0:0:0:
126,191,3423,1,2,2:0:0:0:
256,192,3569,12,0,5775,2:0:0:0:
138,51,6069,6,0,P|179:38|238:65,1,80,6|2,3:2|3:2,2:0:0:0:
292,122,6657,1,2,1:2:0:0:
292,122,6951,2,0,B|372:154|372:90|447:119,1,160,2|2,3:2|3:2,2:0:0:0:
511,200,7833,2,0,L|511:291,1,80,2|0,1:2|2:0,2:0:0:0:
443,357,8421,5,2,3:2:0:0:
338,357,8716,1,2,3:2:0:0:
285,273,9010,1,2,1:2:0:0:
285,273,9304,2,0,B|225:273|225:273|202:284|202:284|109:284,1,160,2|2,3:2|3:2,2:0:0:0:
31,323,10186,2,0,P|20:275|34:236,1,80,2|0,1:2|2:0,2:0:0:0:
92,164,10774,6,0,P|133:177|185:151,2,80,2|2|2,3:2|2:0|1:2,2:0:0:0:
12,96,11657,1,2,2:0:0:0:
92,30,11951,2,0,P|133:17|185:43,1,80,2|0,2:0|3:0,2:0:0:0:
227,87,12392,1,2,2:0:0:0:
227,87,12539,2,0,L|331:87,1,80,0|2,1:0|2:0,2:0:0:0:
403,49,13127,6,0,P|415:88|398:138,1,80,2|0,3:2|2:0,2:0:0:0:
329,195,13716,2,0,P|320:233|332:271,1,80,0|2,1:0|3:2,2:0:0:0:
408,341,14304,2,0,L|408:395,2,40,0|0|0,1:0|3:0|3:0,2:0:0:0:
408,237,14892,1,0,1:0:0:0:
512,244,15186,1,10,2:3:0:0:
512,244,15333,1,6,2:3:0:0:
512,244,15480,6,0,P|523:205|503:162,1,80,6|2,3:2|3:2,2:0:0:0:
430,101,16069,2,0,B|366:85|374:117|310:101,1,120,2|2,1:2|2:0,2:0:0:0:
248,66,16657,1,0,2:0:0:0:
166,0,16951,2,0,P|128:-8|89:0,1,80,2|0,3:2|1:0,2:0:0:0:
7,63,17539,1,10,2:0:0:0:
90,125,17833,6,0,L|90:219,1,80,2|2,3:2|3:2,2:0:0:0:
90,308,18421,1,2,1:2:0:0:
0,255,18716,1,2,2:0:0:0:
90,205,19010,2,0,L|194:205,1,80,2|2,0:2|3:0,0:2:0:0:
245,209,19451,1,2,0:2:0:0:
245,209,19598,1,0,1:0:0:0:
350,251,19892,1,10,2:0:0:0:
350,251,20039,1,2,2:0:0:0:
350,251,20186,6,0,P|356:205|341:160,1,80,2|2,3:2|2:0,2:0:0:0:
298,81,20774,2,0,P|342:69|397:92,1,80,2|2,1:2|3:2,2:0:0:0:
464,129,21363,2,0,L|464:218,1,80,2|0,0:2|3:0,0:0:0:0:
467,284,21804,1,2,0:2:0:0:
467,284,21951,1,0,1:0:0:0:
417,375,22245,1,10,2:0:0:0:
421,379,22539,6,0,B|341:411|341:347|266:376,1,160,2|2,3:2|1:2,2:0:0:0:
193,301,23421,1,0,3:0:0:0:
95,308,23716,1,2,2:0:0:0:
95,308,23863,1,0,3:0:0:0:
95,308,24010,1,0,3:0:0:0:
37,221,24304,2,0,L|37:136,1,80,2|8,1:2|2:0,2:0:0:0:
101,59,24892,6,0,P|145:47|199:73,1,80,2|2,3:2|2:0,2:0:0:0:
249,130,25480,2,0,L|249:245,1,80,2|2,1:2|3:2,2:0:0:0:
290,269,25921,2,0,P|330:281|379:263,1,80,2|2,2:0|2:0,2:0:0:0:
424,228,26363,1,2,3:2:0:0:
367,139,26657,2,0,P|356:102|368:64,1,80,2|8,1:2|2:0,2:0:0:0:
472,64,27245,6,0,P|482:102|463:151,1,80,2|2,3:2|3:2,2:0:0:0:
424,228,27833,2,0,L|424:316,1,80,2|2,1:2|3:2,2:0:0:0:
376,362,28274,2,0,B|313:377|321:345|257:361,1,120,2|2,2:0|3:2,2:0:0:0:
165,312,29010,1,2,1:2:0:0:
253,256,29304,1,10,2:0:0:0:
253,256,29598,6,0,P|242:204|259:164,1,80,2|2,3:2|2:0,2:0:0:0:
313,97,30186,2,0,P|324:59|314:21,1,80,2|2,1:2|3:2,2:0:0:0:
209,21,30774,2,0,L|126:21,2,80,2|2|2,2:0|3:2|1:2,2:0:0:0:
248,122,31657,1,10,2:0:0:0:
248,122,31951,6,0,B|248:170|248:170|254:185|254:185|254:242,1,120,2|2,3:2|2:0,2:0:0:0:
206,294,32539,2,0,P|149:316|82:284,1,120,2|2,1:2|2:0,2:0:0:0:
48,243,33127,2,0,L|48:108,1,120,2|10,1:2|2:3,2:0:0:0:
48,50,33716,1,10,2:3:0:0:
151,50,34010,1,12,2:3:0:0:
253,22,34304,6,0,P|312:2|375:23,2,128,6|2|8,3:2|2:0|2:0,2:0:0:0:
315,84,35774,1,2,3:2:0:0:
315,84,36069,2,0,L|315:155,1,64,2|2,1:2|2:0,2:0:0:0:
254,204,36657,6,0,P|316:226|375:206,1,128,2|2,3:2|2:0,2:0:0:0:
502,107,37833,1,0,1:0:0:0:
437,170,38127,1,0,3:0:0:0:
502,220,38421,2,0,P|513:251|502:296,1,64,8|2,1:2|2:0,2:0:0:0:
437,347,39010,6,0,L|299:347,2,128,2|2|8,3:2|2:0|2:0,2:0:0:0:
439,254,40480,1,2,3:2:0:0:
439,254,40774,2,0,L|356:254,1,64,2|2,1:2|2:0,2:0:0:0:
305,322,41363,6,0,B|255:322|255:322|234:334|234:334|180:334,1,128,2|2,3:2|2:0,2:0:0:0:
99,285,42245,1,2,3:2:0:0:
179,223,42539,2,0,L|233:223,2,32,0|0|0,1:0|1:0|3:0,2:0:0:0:
102,143,43127,1,10,1:2:0:0:
241,152,43421,1,2,1:2:0:0:
241,152,43568,1,0,1:0:0:0:
241,152,43716,6,0,B|304:137|296:169|360:153,1,120,4|2,3:2|2:0,2:0:0:0:
417,111,44304,1,0,2:0:0:0:
326,59,44598,1,0,3:0:0:0:
417,9,44892,2,0,P|458:-3|504:12,1,80,2|2,2:0|3:2,2:0:0:0:
510,108,45480,2,0,L|510:200,1,80,2|10,1:2|2:0,2:0:0:0:
439,264,46068,6,0,B|403:264|403:264|388:272|388:272|331:272,1,80,2|2,3:2|2:0,2:0:0:0:
292,275,46510,1,2,2:0:0:0:
292,275,46657,1,0,2:0:0:0:
185,230,46951,2,0,B|153:310|217:310|188:385,1,160,2|2,3:2|3:2,2:0:0:0:
105,337,47833,1,0,1:0:0:0:
1,337,48127,1,10,2:0:0:0:
105,212,48421,6,0,P|172:175|239:212,1,160,2|2,3:2|3:2,2:0:0:0:
240,352,49598,6,0,P|171:387|104:350,1,160,2|2,3:2|3:2,2:0:0:0:
105,222,50774,5,2,3:2:0:0:
212,222,51068,1,0,3:0:0:0:
212,115,51363,1,0,3:0:0:0:
105,115,51657,1,2,3:2:0:0:
212,222,52245,5,2,2:0:0:0:
212,222,52539,2,0,L|294:222,1,80,2|2,2:0|2:0,2:0:0:0:
399,261,53127,6,0,B|421:191|377:191|401:127,1,132.00000402832,6|0,3:2|2:0,2:0:0:0:
426,56,53716,2,0,P|473:41|523:61,1,88.000002685547,2|0,1:2|3:0,2:0:0:0:
511,165,54304,2,0,L|511:274,1,88.000002685547,2|2,2:0|3:2,2:0:0:0:
443,345,54892,1,2,1:2:0:0:
368,258,55186,6,0,B|315:258|315:258|295:247|295:247|204:247,1,132.00000402832,10|0,2:0|2:0,2:0:0:0:
159,248,55774,1,2,3:2:0:0:
159,362,56068,1,2,1:2:0:0:
23,362,56363,2,0,B|23:322|23:322|16:304|16:304|16:174,1,176.000005371094,2|2,3:2|3:2,2:0:0:0:
67,85,57245,2,0,P|108:71|149:84,1,88.000002685547,2|10,1:2|2:0,2:0:0:0:
219,174,57833,6,0,L|219:314,1,132.00000402832,2|0,3:2|2:0,2:0:0:0:
266,369,58421,2,0,P|309:383|359:362,1,88.000002685547,2|0,1:2|3:0,2:0:0:0:
431,291,59010,2,0,L|431:203,1,88.000002685547,2|2,2:0|3:2,2:0:0:0:
431,88,59598,1,2,1:2:0:0:
340,203,59892,6,0,B|253:160|253:243|157:195,1,176.000005371094,10|0,2:0|2:0,2:0:0:0:
78,151,60774,1,0,1:0:0:0:
23,238,61068,1,2,3:2:0:0:
134,66,61363,2,0,L|134:11,2,44.0000013427735,2|0|8,1:2|1:0|2:3,2:0:0:0:
170,201,61951,1,0,1:0:0:0:
272,101,62245,1,6,2:3:0:0:
272,101,62392,1,2,2:0:0:0:
272,101,62539,6,0,B|325:101|325:101|345:112|345:112|436:112,1,132.00000402832,6|0,3:2|2:0,2:0:0:0:
455,169,63127,2,0,P|468:222|455:261,1,88.000002685547,2|0,1:2|3:0,2:0:0:0:
382,338,63716,2,0,L|281:338,1,88.000002685547,2|2,2:0|3:2,2:0:0:0:
179,338,64304,1,2,1:2:0:0:
179,223,64598,1,10,2:0:0:0:
69,338,64892,6,0,L|69:250,1,88.000002685547,0|2,3:0|3:2,2:0:0:0:
69,135,65480,1,2,1:2:0:0:
179,135,65774,1,2,3:2:0:0:
264,57,66069,2,0,P|290:51|321:60,2,44.0000013427735,2|0|0,2:0|3:0|3:0,2:0:0:0:
179,135,66657,1,0,1:0:0:0:
265,211,66951,1,10,2:0:0:0:
265,211,67098,1,0,2:0:0:0:
265,211,67245,6,0,P|309:227|353:210,1,88.000002685547,2|2,3:2|2:0,2:0:0:0:
441,150,67833,2,0,L|441:47,1,88.000002685547,2|2,1:2|3:2,2:0:0:0:
344,0,68421,1,2,2:0:0:0:
255,0,68716,1,2,3:2:0:0:
205,72,69010,1,2,1:2:0:0:
255,144,69304,1,10,2:0:0:0:
385,94,69598,6,0,P|400:144|367:201,1,88.000002685547,2|2,3:2|2:0,2:0:0:0:
319,267,70186,2,0,L|319:355,1,88.000002685547,10|2,1:2|3:0,2:0:0:0:
237,362,70774,1,0,1:0:0:0:
237,362,70921,1,0,1:0:0:0:
237,362,71068,1,10,2:3:0:0:
319,267,71363,1,2,1:2:0:0:
282,243,71510,1,0,1:0:0:0:
238,229,71657,1,6,2:3:0:0:
194,243,71804,1,4,3:0:0:0:
157,267,71951,6,0,B|88:288|88:244|28:267,1,132.00000402832,6|0,3:2|2:0,2:0:0:0:
4,191,72539,2,0,P|-10:138|12:89,1,88.000002685547,2|0,1:2|3:0,2:0:0:0:
81,32,73127,2,0,L|169:32,1,88.000002685547,2|2,2:0|3:2,2:0:0:0:
169,146,73716,1,2,1:2:0:0:
275,32,74010,6,0,B|328:32|328:32|348:43|348:43|439:43,1,132.00000402832,10|0,2:0|2:0,2:0:0:0:
483,45,74598,1,2,3:2:0:0:
483,159,74892,1,2,1:2:0:0:
383,263,75187,2,0,B|295:263|295:263|251:288|211:264,1,176.000005371094,2|2,3:2|3:2,2:0:0:0:
146,169,76069,2,0,L|146:81,1,88.000002685547,2|10,1:2|2:0,2:0:0:0:
0,81,76657,6,0,B|0:119|0:119|10:138|10:138|10:254,1,176.000005371094,2|2,3:2|1:2,2:0:0:0:
10,369,77540,1,0,3:0:0:0:
98,296,77834,2,0,P|137:284|185:299,1,88.000002685547,2|2,2:0|3:2,2:0:0:0:
270,367,78421,1,2,1:2:0:0:
384,367,78716,1,10,2:0:0:0:
270,235,79010,6,0,L|165:255,1,88.000002685547,0|0,3:0|2:3,2:0:0:0:
384,157,79598,2,0,L|485:178,1,88.000002685547,0|2,1:0|3:2,2:0:0:0:
270,76,80186,2,0,L|205:92,2,44.0000013427735,2|0|8,1:2|1:0|2:3,2:0:0:0:
384,24,80774,2,0,L|450:38,2,44.0000013427735,0|0|6,1:0|1:0|2:3,2:0:0:0:
483,161,81363,6,0,B|462:230|506:230|483:290,1,132.00000402832,6|0,3:2|2:0,2:0:0:0:
427,345,81951,2,0,P|387:356|335:339,1,88.000002685547,2|0,1:2|3:0,2:0:0:0:
261,264,82539,2,0,L|173:264,1,88.000002685547,2|0,2:0|3:0,2:0:0:0:
174,378,83127,2,0,L|262:378,1,88.000002685547,2|8,1:2|2:0,2:0:0:0:
261,148,83716,6,0,B|204:148|204:148|184:137|184:137|131:137,1,132.00000402832,2|0,3:2|2:0,2:0:0:0:
61,100,84304,2,0,P|48:54|61:12,1,88.000002685547,0|2,1:0|3:2,2:0:0:0:
172,17,84892,1,2,2:0:0:0:
172,131,85186,1,2,3:2:0:0:
258,205,85481,2,0,L|346:205,1,88.000002685547,2|10,1:2|2:0,2:0:0:0:
441,142,86068,6,0,P|465:205|425:282,1,132.00000402832,2|0,3:2|2:0,2:0:0:0:
383,314,86657,2,0,L|269:314,1,88.000002685547,2|0,1:2|3:0,2:0:0:0:
210,235,87245,2,0,P|198:194|212:152,1,88.000002685547,2|0,2:0|3:0,2:0:0:0:
402,153,87833,2,0,P|427:213|394:290,1,132.00000402832,2|0,1:2|2:0,2:0:0:0:
348,327,88421,5,6,3:2:0:0:
103,259,89304,2,0,P|89:213|104:169,2,80,2|2|2,2:0|2:0|2:0,2:0:0:0:
180,327,90186,2,0,L|180:393,2,40,2|8|4,1:2|2:3|2:3,2:0:0:0:
246,225,90774,5,6,2:0:0:0:
348,327,91363,1,2,2:0:0:0:
449,225,91951,1,2,2:0:0:0:
348,123,92539,1,2,2:0:0:0:
246,225,93127,5,2,2:0:0:0:
