osu file format v14

[General]
AudioFilename: audio.mp3
AudioLeadIn: 0
PreviewTime: 52772
Countdown: 0
SampleSet: Normal
StackLeniency: 0.7
Mode: 1
LetterboxInBreaks: 0
WidescreenStoryboard: 0

[Editor]
DistanceSpacing: 1
BeatDivisor: 4
GridSize: 4
TimelineZoom: 1

[Metadata]
Title:Okaeri
TitleUnicode:おかえり
Artist:Koiwai Kotori, Murakawa Rie, Sakura Ayane, Asumi Kana
ArtistUnicode:小岩井ことり、村川梨衣、佐倉綾音、阿澄佳奈
Creator:Charlotte
Version:Oni
Source:のんのんびより りぴーと
Tags:Non Non Biyori Repeat ending renge miyauchi hotaru ichijo natsumi komari koshigaya 宮内れんげ 一条蛍 越谷夏海 越谷小鞠
BeatmapID:1357077
BeatmapSetID:639903

[Difficulty]
HPDrainRate:7
CircleSize:5
OverallDifficulty:5
ApproachRate:5
SliderMultiplier:1.4
SliderTickRate:1

[Events]
//Background and Video events
0,0,"BG1.jpg",0,70
//Break Periods
//Storyboard Layer 0 (Background)
//Storyboard Layer 1 (Fail)
//Storyboard Layer 2 (Pass)
//Storyboard Layer 3 (Foreground)
//Storyboard Sound Samples

[TimingPoints]
714,588.235294117647,4,1,0,60,1,0
6596,588.235294117647,4,1,0,60,1,0
53654,-100,4,1,0,70,0,1
88948,-100,4,1,0,60,0,0
91301,-100,4,1,0,45,0,0

[HitObjects]
256,192,714,5,0,0:0:0:0:
256,192,1302,1,0,0:0:0:0:
256,192,1890,1,8,0:0:0:0:
256,192,2184,1,0,0:0:0:0:
256,192,2478,1,8,0:0:0:0:
256,192,2772,1,0,0:0:0:0:
256,192,3361,1,8,0:0:0:0:
256,192,3655,1,0,0:0:0:0:
256,192,3949,1,8,0:0:0:0:
256,192,4243,12,0,6302,0:0:0:0:
256,192,6596,5,4,0:0:0:0:
256,192,6890,1,0,0:0:0:0:
256,192,7184,1,8,0:0:0:0:
256,192,7478,1,0,0:0:0:0:
256,192,7772,1,0,0:0:0:0:
256,192,7919,1,0,0:0:0:0:
256,192,8066,1,8,0:0:0:0:
256,192,8360,1,0,0:0:0:0:
256,192,8948,1,0,0:0:0:0:
256,192,9243,1,0,0:0:0:0:
256,192,9537,1,8,0:0:0:0:
256,192,9831,1,8,0:0:0:0:
256,192,10125,1,0,0:0:0:0:
256,192,10272,1,0,0:0:0:0:
256,192,10419,1,8,0:0:0:0:
256,192,10713,1,0,0:0:0:0:
256,192,11301,1,0,0:0:0:0:
256,192,11596,1,0,0:0:0:0:
256,192,11890,1,8,0:0:0:0:
256,192,12184,1,8,0:0:0:0:
256,192,12478,1,0,0:0:0:0:
256,192,12919,1,8,0:0:0:0:
256,192,13066,1,0,0:0:0:0:
256,192,13360,1,8,0:0:0:0:
256,192,13654,1,0,0:0:0:0:
256,192,14243,1,0,0:0:0:0:
256,192,14537,1,8,0:0:0:0:
256,192,14831,1,0,0:0:0:0:
256,192,14978,1,0,0:0:0:0:
256,192,15125,1,0,0:0:0:0:
256,192,15419,1,8,0:0:0:0:
256,192,15713,1,0,0:0:0:0:
256,192,15860,1,0,0:0:0:0:
256,192,16007,1,8,0:0:0:0:
256,192,16301,1,8,0:0:0:0:
256,192,16596,1,0,0:0:0:0:
256,192,17037,1,8,0:0:0:0:
256,192,17331,1,0,0:0:0:0:
256,192,17478,1,8,0:0:0:0:
256,192,17772,1,0,0:0:0:0:
256,192,18066,1,8,0:0:0:0:
256,192,18360,1,0,0:0:0:0:
256,192,18654,1,0,0:0:0:0:
256,192,18801,1,0,0:0:0:0:
256,192,18948,1,8,0:0:0:0:
256,192,19243,1,8,0:0:0:0:
256,192,19537,1,0,0:0:0:0:
256,192,19831,1,0,0:0:0:0:
256,192,19978,1,8,0:0:0:0:
256,192,20419,1,0,0:0:0:0:
256,192,20566,1,0,0:0:0:0:
256,192,20713,1,8,0:0:0:0:
256,192,21007,1,0,0:0:0:0:
256,192,21301,1,8,0:0:0:0:
256,192,21448,1,8,0:0:0:0:
256,192,21596,1,0,0:0:0:0:
256,192,21890,1,8,0:0:0:0:
256,192,22184,1,0,0:0:0:0:
256,192,22331,1,8,0:0:0:0:
256,192,22772,1,0,0:0:0:0:
256,192,23066,1,8,0:0:0:0:
256,192,23654,1,0,0:0:0:0:
256,192,24095,1,0,0:0:0:0:
256,192,24243,1,8,0:0:0:0:
256,192,24537,1,0,0:0:0:0:
256,192,24831,1,8,0:0:0:0:
256,192,25419,1,0,0:0:0:0:
256,192,25713,1,8,0:0:0:0:
256,192,26007,1,8,0:0:0:0:
256,192,26301,1,0,0:0:0:0:
256,192,26448,1,8,0:0:0:0:
256,192,26743,1,8,0:0:0:0:
256,192,26890,1,0,0:0:0:0:
256,192,27184,1,8,0:0:0:0:
256,192,27772,1,0,0:0:0:0:
256,192,28066,1,0,0:0:0:0:
256,192,28360,1,8,0:0:0:0:
256,192,28654,1,0,0:0:0:0:
256,192,28801,1,8,0:0:0:0:
256,192,29095,1,8,0:0:0:0:
256,192,29243,1,0,0:0:0:0:
256,192,29537,1,8,0:0:0:0:
256,192,29831,1,0,0:0:0:0:
256,192,29978,1,0,0:0:0:0:
256,192,30125,1,8,0:0:0:0:
256,192,30419,1,0,0:0:0:0:
256,192,30713,1,8,0:0:0:0:
256,192,31007,1,8,0:0:0:0:
256,192,31154,1,8,0:0:0:0:
256,192,31301,1,0,0:0:0:0:
256,192,31595,1,0,0:0:0:0:
256,192,31890,1,8,0:0:0:0:
256,192,32184,1,0,0:0:0:0:
256,192,32331,1,0,0:0:0:0:
256,192,32478,1,8,0:0:0:0:
256,192,32919,1,0,0:0:0:0:
256,192,33066,1,0,0:0:0:0:
256,192,33507,1,0,0:0:0:0:
256,192,33654,1,8,0:0:0:0:
256,192,34096,1,8,0:0:0:0:
256,192,34243,1,8,0:0:0:0:
256,192,34537,1,0,0:0:0:0:
256,192,34831,1,12,0:0:0:0:
256,192,35125,1,0,0:0:0:0:
256,192,35419,1,8,0:0:0:0:
256,192,35713,1,0,0:0:0:0:
256,192,35860,1,8,0:0:0:0:
256,192,36301,1,0,0:0:0:0:
256,192,36596,1,0,0:0:0:0:
256,192,36890,1,8,0:0:0:0:
256,192,37184,1,0,0:0:0:0:
256,192,37478,1,0,0:0:0:0:
256,192,37625,1,0,0:0:0:0:
256,192,37772,1,8,0:0:0:0:
256,192,38066,1,0,0:0:0:0:
256,192,38507,1,8,0:0:0:0:
256,192,38654,1,0,0:0:0:0:
256,192,38948,1,8,0:0:0:0:
256,192,39243,1,0,0:0:0:0:
256,192,39390,1,0,0:0:0:0:
256,192,39537,1,8,0:0:0:0:
256,192,39831,1,0,0:0:0:0:
256,192,40125,1,8,0:0:0:0:
256,192,40419,1,0,0:0:0:0:
256,192,40566,1,8,0:0:0:0:
256,192,41007,1,0,0:0:0:0:
256,192,41301,1,8,0:0:0:0:
256,192,41595,1,8,0:0:0:0:
256,192,41890,1,0,0:0:0:0:
256,192,42478,1,0,0:0:0:0:
256,192,42772,1,8,0:0:0:0:
256,192,43066,1,0,0:0:0:0:
256,192,43213,1,0,0:0:0:0:
256,192,43360,1,0,0:0:0:0:
256,192,43654,1,8,0:0:0:0:
256,192,43948,1,8,0:0:0:0:
256,192,44243,1,4,0:0:0:0:
256,192,44684,1,8,0:0:0:0:
256,192,44831,1,0,0:0:0:0:
256,192,45125,1,8,0:0:0:0:
256,192,45419,1,0,0:0:0:0:
256,192,45713,1,0,0:0:0:0:
256,192,45860,1,0,0:0:0:0:
256,192,46007,1,8,0:0:0:0:
256,192,46301,1,8,0:0:0:0:
256,192,46595,1,0,0:0:0:0:
256,192,46890,1,8,0:0:0:0:
256,192,47478,1,8,0:0:0:0:
256,192,48066,1,0,0:0:0:0:
256,192,48360,1,8,0:0:0:0:
256,192,48654,1,0,0:0:0:0:
256,192,48948,1,0,0:0:0:0:
256,192,49537,1,0,0:0:0:0:
256,192,50125,1,0,0:0:0:0:
256,192,50713,1,0,0:0:0:0:
256,192,51301,1,4,0:0:0:0:
256,192,51595,1,4,0:0:0:0:
256,192,51890,1,4,0:0:0:0:
256,192,52184,1,12,0:0:0:0:
256,192,52772,1,0,0:0:0:0:
256,192,53066,1,8,0:0:0:0:
256,192,53360,1,8,0:0:0:0:
256,192,53654,1,4,0:0:0:0:
256,192,54095,1,0,0:0:0:0:
256,192,54243,1,8,0:0:0:0:
256,192,54537,1,8,0:0:0:0:
256,192,54831,1,0,0:0:0:0:
256,192,55125,1,0,0:0:0:0:
256,192,55272,1,0,0:0:0:0:
256,192,55419,1,8,0:0:0:0:
256,192,55713,1,8,0:0:0:0:
256,192,56007,1,0,0:0:0:0:
256,192,56301,1,8,0:0:0:0:
256,192,56448,1,0,0:0:0:0:
256,192,56595,1,8,0:0:0:0:
256,192,56890,1,0,0:0:0:0:
256,192,57478,1,0,0:0:0:0:
256,192,57772,1,8,0:0:0:0:
256,192,58066,1,8,0:0:0:0:
256,192,58360,1,0,0:0:0:0:
256,192,58654,1,0,0:0:0:0:
256,192,58801,1,0,0:0:0:0:
256,192,58948,1,8,0:0:0:0:
256,192,59243,1,8,0:0:0:0:
256,192,59537,1,0,0:0:0:0:
256,192,59831,1,8,0:0:0:0:
256,192,59978,1,8,0:0:0:0:
256,192,60125,1,0,0:0:0:0:
256,192,60419,1,8,0:0:0:0:
256,192,60713,1,0,0:0:0:0:
256,192,61301,1,0,0:0:0:0:
256,192,61595,1,8,0:0:0:0:
256,192,61890,1,0,0:0:0:0:
256,192,62037,1,8,0:0:0:0:
256,192,62184,1,0,0:0:0:0:
256,192,62478,1,8,0:0:0:0:
256,192,62772,1,8,0:0:0:0:
256,192,62919,1,8,0:0:0:0:
256,192,63066,1,0,0:0:0:0:
256,192,63507,1,0,0:0:0:0:
256,192,63654,1,8,0:0:0:0:
256,192,63948,1,8,0:0:0:0:
256,192,64243,1,0,0:0:0:0:
256,192,64537,1,0,0:0:0:0:
256,192,64684,1,0,0:0:0:0:
256,192,64831,1,8,0:0:0:0:
256,192,65125,1,8,0:0:0:0:
256,192,65419,1,0,0:0:0:0:
256,192,65713,1,8,0:0:0:0:
256,192,65860,1,0,0:0:0:0:
256,192,66007,1,8,0:0:0:0:
256,192,66301,1,8,0:0:0:0:
256,192,66596,1,0,0:0:0:0:
256,192,67184,1,0,0:0:0:0:
256,192,67478,1,8,0:0:0:0:
256,192,67772,1,0,0:0:0:0:
256,192,68066,1,0,0:0:0:0:
256,192,68213,1,0,0:0:0:0:
256,192,68360,1,8,0:0:0:0:
256,192,68654,1,8,0:0:0:0:
256,192,68948,1,0,0:0:0:0:
256,192,69243,1,8,0:0:0:0:
256,192,69390,1,8,0:0:0:0:
256,192,69537,1,0,0:0:0:0:
256,192,69831,1,8,0:0:0:0:
256,192,70125,1,0,0:0:0:0:
256,192,70272,1,0,0:0:0:0:
256,192,70419,1,0,0:0:0:0:
256,192,70566,1,0,0:0:0:0:
256,192,70713,1,8,0:0:0:0:
256,192,71007,1,0,0:0:0:0:
256,192,71301,1,0,0:0:0:0:
256,192,71448,1,8,0:0:0:0:
256,192,71595,1,0,0:0:0:0:
256,192,71890,1,8,0:0:0:0:
256,192,72184,1,8,0:0:0:0:
256,192,72478,1,4,0:0:0:0:
256,192,72919,1,0,0:0:0:0:
256,192,73066,1,8,0:0:0:0:
256,192,73360,1,8,0:0:0:0:
256,192,73654,1,0,0:0:0:0:
256,192,73948,1,0,0:0:0:0:
256,192,74095,1,0,0:0:0:0:
256,192,74243,1,8,0:0:0:0:
256,192,74537,1,8,0:0:0:0:
256,192,74831,1,0,0:0:0:0:
256,192,75125,1,8,0:0:0:0:
256,192,75272,1,0,0:0:0:0:
256,192,75419,1,8,0:0:0:0:
256,192,75713,1,0,0:0:0:0:
256,192,76301,1,0,0:0:0:0:
256,192,76595,1,8,0:0:0:0:
256,192,76890,1,8,0:0:0:0:
256,192,77184,1,0,0:0:0:0:
256,192,77478,1,0,0:0:0:0:
256,192,77625,1,0,0:0:0:0:
256,192,77772,1,8,0:0:0:0:
256,192,78066,1,8,0:0:0:0:
256,192,78360,1,0,0:0:0:0:
256,192,78654,1,8,0:0:0:0:
256,192,78801,1,8,0:0:0:0:
256,192,78948,1,0,0:0:0:0:
256,192,79243,1,8,0:0:0:0:
256,192,79537,1,0,0:0:0:0:
256,192,80125,1,0,0:0:0:0:
256,192,80419,1,8,0:0:0:0:
256,192,80713,1,0,0:0:0:0:
256,192,80860,1,8,0:0:0:0:
256,192,81007,1,0,0:0:0:0:
256,192,81154,1,0,0:0:0:0:
256,192,81301,1,8,0:0:0:0:
256,192,81595,1,0,0:0:0:0:
256,192,81890,1,12,0:0:0:0:
256,192,82331,1,0,0:0:0:0:
256,192,82478,1,8,0:0:0:0:
256,192,82772,1,8,0:0:0:0:
256,192,83066,1,0,0:0:0:0:
256,192,83360,1,0,0:0:0:0:
256,192,83507,1,0,0:0:0:0:
256,192,83654,1,8,0:0:0:0:
256,192,83948,1,0,0:0:0:0:
256,192,84243,1,8,0:0:0:0:
256,192,84831,1,0,0:0:0:0:
256,192,85125,1,0,0:0:0:0:
256,192,85272,1,0,0:0:0:0:
256,192,85419,1,8,0:0:0:0:
256,192,85713,1,8,0:0:0:0:
256,192,86007,1,0,0:0:0:0:
256,192,86301,1,0,0:0:0:0:
256,192,86595,1,8,0:0:0:0:
256,192,87184,1,0,0:0:0:0:
256,192,87772,1,8,0:0:0:0:
256,192,88360,1,8,0:0:0:0:
256,192,88948,1,4,0:0:0:0:
256,192,89831,1,0,0:0:0:0:
256,192,90125,1,8,0:0:0:0:
256,192,90419,1,0,0:0:0:0:
256,192,90713,1,8,0:0:0:0:
256,192,90860,1,8,0:0:0:0:
256,192,91007,1,0,0:0:0:0:
256,192,91301,1,8,0:0:0:0:
256,192,91890,1,8,0:0:0:0:
256,192,92478,1,0,0:0:0:0:
256,192,93066,1,8,0:0:0:0:
256,192,93654,1,0,0:0:0:0:
