osu file format v14

[General]
AudioFilename: audio.mp3
AudioLeadIn: 0
PreviewTime: 63040
Countdown: 0
SampleSet: Soft
StackLeniency: 0.7
Mode: 3
LetterboxInBreaks: 0
SpecialStyle: 0
WidescreenStoryboard: 0

[Editor]
DistanceSpacing: 1.4
BeatDivisor: 4
GridSize: 4
TimelineZoom: 1

[Metadata]
Title:hectopascal
TitleUnicode:hectopascal
Artist:Koito Yuu(CV:Takada Yuuki),Nanami Touko(CV:Kotobuki Minako)
ArtistUnicode:Koito Yuu(CV:Takada Yuuki),Nanami Touko(CV:Kotobuki Minako)
Creator:- Ly0572 -
Version:HD
Source:
Tags:
BeatmapID:1836178
BeatmapSetID:877919

[Difficulty]
HPDrainRate:5
CircleSize:4
OverallDifficulty:5
ApproachRate:5
SliderMultiplier:1.4
SliderTickRate:1

[Events]
//Background and Video events
//Break Periods
2,71429,73722
//Storyboard Layer 0 (Background)
//Storyboard Layer 1 (Fail)
//Storyboard Layer 2 (Pass)
//Storyboard Layer 3 (Foreground)
//Storyboard Sound Samples

[TimingPoints]
1076,461.538461538462,4,2,1,100,1,0
3614,-400,4,2,1,100,0,0
4652,-80,4,2,1,100,0,0
4768,-100,4,2,1,100,0,0
17691,-400,4,2,1,100,0,0
17922,-57.1428571428571,4,2,1,100,0,0
18152,-400,4,2,1,100,0,0
18383,-57.1428571428571,4,2,1,100,0,0
18614,-100,4,2,1,100,0,0
19076,-10000,4,2,1,100,0,0
19422,-66.6666666666667,4,2,1,100,0,0
19537,-100,4,2,1,100,0,0
61883,-133.333333333333,4,2,1,100,0,0
62922,-133.333333333333,4,2,1,100,0,0
63383,-400,4,2,1,100,0,0
63729,-66.6666666666667,4,2,1,100,0,0
63845,-100,4,2,1,100,0,0
76768,-10000,4,2,1,100,0,0
76999,-66.6666666666667,4,2,1,100,0,0
77229,-10000,4,2,1,100,0,0
77460,-66.6666666666667,4,2,1,100,0,0
77691,-100,4,2,1,100,0,0
86576,-10000,4,2,1,100,0,0
86691,-66.6666666666667,4,2,1,100,0,0
86806,-10000,4,2,1,100,0,0
86922,-66.6666666666667,4,2,1,100,0,0
87037,-10000,4,2,1,100,0,0
87152,-66.6666666666667,4,2,1,100,0,0
87268,-100,4,2,1,100,0,0
87383,-10000,4,2,1,100,0,0
87499,-66.6666666666667,4,2,1,100,0,0
87614,-100,4,2,1,100,0,0

[HitObjects]
448,192,383,5,0,0:0:0:0:
320,192,614,1,0,0:0:0:0:
64,192,845,1,0,0:0:0:0:
320,192,1076,1,0,0:0:0:0:
192,192,1076,1,0,0:0:0:0:
448,192,1306,1,0,0:0:0:0:
64,192,1537,1,0,0:0:0:0:
192,192,1768,128,0,2229:0:0:0:0:
448,192,1768,1,0,0:0:0:0:
320,192,2229,1,0,0:0:0:0:
448,192,2460,1,0,0:0:0:0:
64,192,2691,128,0,3152:0:0:0:0:
192,192,2691,1,0,0:0:0:0:
448,192,3152,1,0,0:0:0:0:
320,192,3268,1,0,0:0:0:0:
192,192,3383,1,0,0:0:0:0:
64,192,3614,128,0,4768:0:0:0:0:
448,192,3614,1,0,0:0:0:0:
192,192,4768,1,0,0:0:0:0:
448,192,4768,128,0,6152:0:0:0:0:
320,192,4999,1,0,0:0:0:0:
64,192,5229,1,0,0:0:0:0:
192,192,5229,1,0,0:0:0:0:
320,192,5460,1,0,0:0:0:0:
64,192,5922,1,0,0:0:0:0:
320,192,6152,1,0,0:0:0:0:
192,192,6152,1,0,0:0:0:0:
64,192,6383,1,0,0:0:0:0:
192,192,6614,1,0,0:0:0:0:
320,192,6614,128,0,7999:0:0:0:0:
448,192,6845,1,0,0:0:0:0:
64,192,7076,1,0,0:0:0:0:
192,192,7076,1,0,0:0:0:0:
448,192,7306,1,0,0:0:0:0:
192,192,7768,1,0,0:0:0:0:
448,192,7999,1,0,0:0:0:0:
64,192,7999,1,0,0:0:0:0:
192,192,8229,1,0,0:0:0:0:
64,192,8460,128,0,9845:0:0:0:0:
448,192,8460,1,0,0:0:0:0:
320,192,8691,1,0,0:0:0:0:
448,192,8922,1,0,0:0:0:0:
192,192,8922,1,0,0:0:0:0:
320,192,9152,1,0,0:0:0:0:
448,192,9614,1,0,0:0:0:0:
192,192,9845,1,0,0:0:0:0:
320,192,9845,1,0,0:0:0:0:
448,192,10076,1,0,0:0:0:0:
320,192,10306,1,0,0:0:0:0:
192,192,10306,128,0,10999:0:0:0:0:
64,192,10537,1,0,0:0:0:0:
320,192,10768,1,0,0:0:0:0:
448,192,10768,1,0,0:0:0:0:
64,192,10999,1,0,0:0:0:0:
320,192,11114,1,0,0:0:0:0:
448,192,11229,1,0,0:0:0:0:
64,192,11345,1,0,0:0:0:0:
320,192,11460,1,0,0:0:0:0:
192,192,11460,1,0,0:0:0:0:
448,192,11576,1,0,0:0:0:0:
192,192,11691,128,0,11922:0:0:0:0:
64,192,11691,1,0,0:0:0:0:
320,192,11922,128,0,12152:0:0:0:0:
448,192,12152,1,8,0:0:0:0:
64,192,12152,1,2,0:0:0:0:
192,192,12152,1,4,0:0:0:0:
448,192,12614,1,2,0:0:0:0:
64,192,12614,1,0,0:0:0:0:
320,192,12845,1,0,0:0:0:0:
448,192,13076,1,2,0:0:0:0:
64,192,13076,1,0,0:0:0:0:
192,192,13191,1,0,0:0:0:0:
320,192,13306,1,0,0:0:0:0:
448,192,13422,1,0,0:0:0:0:
64,192,13537,1,0,0:0:0:0:
192,192,13537,1,2,0:0:0:0:
448,192,13652,1,0,0:0:0:0:
320,192,13768,1,0,0:0:0:0:
192,192,13883,1,0,0:0:0:0:
64,192,13999,1,0,0:0:0:0:
448,192,13999,128,2,14460:0:0:0:0:
192,192,14229,1,0,0:0:0:0:
320,192,14460,1,2,0:0:0:0:
64,192,14460,1,0,0:0:0:0:
192,192,14691,1,0,0:0:0:0:
64,192,14922,1,0,0:0:0:0:
448,192,14922,1,2,0:0:0:0:
320,192,15037,1,0,0:0:0:0:
192,192,15152,1,0,0:0:0:0:
64,192,15268,1,0,0:0:0:0:
448,192,15383,1,2,0:0:0:0:
320,192,15383,1,0,0:0:0:0:
64,192,15499,1,0,0:0:0:0:
192,192,15614,1,0,0:0:0:0:
320,192,15729,1,0,0:0:0:0:
64,192,15845,1,2,0:0:0:0:
448,192,15845,128,0,17229:0:0:0:0:
64,192,16076,1,2,0:0:0:0:
192,192,16306,1,2,0:0:0:0:
192,192,16537,5,2,0:0:0:0:
320,192,16768,1,2,0:0:0:0:
320,192,16999,1,2,0:0:0:0:
64,192,17229,1,2,0:0:0:0:
192,192,17345,1,2,0:0:0:0:
448,192,17460,1,2,0:0:0:0:
320,192,17576,1,2,0:0:0:0:
192,192,17691,5,2,0:0:0:0:
64,192,17691,1,0,0:0:0:0:
320,192,18152,1,0,0:0:0:0:
448,192,18152,1,2,0:0:0:0:
64,192,18614,1,0,0:0:0:0:
192,192,18614,1,2,0:0:0:0:
192,192,18729,1,2,0:0:0:0:
64,192,18729,1,0,0:0:0:0:
320,192,18845,1,2,0:0:0:0:
448,192,18845,1,0,0:0:0:0:
320,192,18960,1,2,0:0:0:0:
448,192,18960,1,0,0:0:0:0:
64,192,19076,1,8,0:0:0:0:
192,192,19076,128,2,19422:0:0:0:0:
320,192,19537,1,4,0:0:0:0:
448,192,19537,1,8,0:0:0:0:
64,192,19537,1,2,0:0:0:0:
192,192,19768,1,0,0:0:0:0:
448,192,19999,1,8,0:0:0:0:
320,192,19999,1,0,0:0:0:0:
64,192,19999,1,0,0:0:0:0:
192,192,20229,1,0,0:0:0:0:
448,192,20460,1,2,0:0:0:0:
64,192,20460,1,0,0:0:0:0:
320,192,20691,1,0,0:0:0:0:
64,192,20922,1,0,0:0:0:0:
448,192,20922,1,8,0:0:0:0:
192,192,20922,1,0,0:0:0:0:
320,192,21037,1,0,0:0:0:0:
192,192,21152,1,0,0:0:0:0:
64,192,21383,1,0,0:0:0:0:
448,192,21383,1,2,0:0:0:0:
320,192,21614,1,0,0:0:0:0:
192,192,21845,1,0,0:0:0:0:
448,192,21845,1,8,0:0:0:0:
64,192,21845,1,0,0:0:0:0:
320,192,22076,1,0,0:0:0:0:
64,192,22306,1,0,0:0:0:0:
448,192,22306,1,2,0:0:0:0:
192,192,22422,1,0,0:0:0:0:
320,192,22537,1,0,0:0:0:0:
448,192,22652,1,0,0:0:0:0:
64,192,22768,1,0,0:0:0:0:
320,192,22768,1,8,0:0:0:0:
192,192,22768,1,0,0:0:0:0:
448,192,22883,1,0,0:0:0:0:
320,192,22999,1,0,0:0:0:0:
192,192,23114,1,0,0:0:0:0:
64,192,23229,1,0,0:0:0:0:
448,192,23229,1,2,0:0:0:0:
320,192,23460,1,0,0:0:0:0:
448,192,23691,1,8,0:0:0:0:
64,192,23691,1,0,0:0:0:0:
192,192,23691,1,0,0:0:0:0:
320,192,23806,1,0,0:0:0:0:
192,192,23922,1,0,0:0:0:0:
448,192,24152,1,2,0:0:0:0:
64,192,24152,1,0,0:0:0:0:
320,192,24268,1,0,0:0:0:0:
64,192,24383,1,0,0:0:0:0:
192,192,24499,1,0,0:0:0:0:
64,192,24614,1,0,0:0:0:0:
320,192,24614,1,0,0:0:0:0:
448,192,24614,1,8,0:0:0:0:
192,192,24729,1,0,0:0:0:0:
320,192,24845,1,0,0:0:0:0:
64,192,25076,1,0,0:0:0:0:
448,192,25076,1,2,0:0:0:0:
320,192,25306,1,0,0:0:0:0:
448,192,25537,1,8,0:0:0:0:
64,192,25537,1,0,0:0:0:0:
192,192,25537,1,0,0:0:0:0:
320,192,25768,1,0,0:0:0:0:
448,192,25999,1,2,0:0:0:0:
64,192,25999,1,0,0:0:0:0:
192,192,26114,1,0,0:0:0:0:
320,192,26229,1,0,0:0:0:0:
448,192,26345,1,0,0:0:0:0:
64,192,26460,1,0,0:0:0:0:
320,192,26460,1,8,0:0:0:0:
192,192,26460,1,0,0:0:0:0:
448,192,26576,1,0,0:0:0:0:
320,192,26691,1,0,0:0:0:0:
192,192,26806,1,0,0:0:0:0:
64,192,26922,1,0,0:0:0:0:
320,192,26922,1,4,0:0:0:0:
448,192,26922,1,2,0:0:0:0:
192,192,27152,1,0,0:0:0:0:
64,192,27383,1,0,0:0:0:0:
448,192,27383,1,8,0:0:0:0:
320,192,27383,1,0,0:0:0:0:
192,192,27499,1,0,0:0:0:0:
320,192,27614,1,0,0:0:0:0:
64,192,27845,1,0,0:0:0:0:
448,192,27845,1,2,0:0:0:0:
192,192,28076,1,0,0:0:0:0:
320,192,28191,1,0,0:0:0:0:
448,192,28306,1,8,0:0:0:0:
64,192,28306,1,0,0:0:0:0:
192,192,28306,1,0,0:0:0:0:
320,192,28422,1,0,0:0:0:0:
192,192,28537,1,0,0:0:0:0:
64,192,28768,1,0,0:0:0:0:
448,192,28768,1,2,0:0:0:0:
320,192,28999,1,0,0:0:0:0:
448,192,29229,1,8,0:0:0:0:
64,192,29229,1,0,0:0:0:0:
192,192,29229,1,0,0:0:0:0:
448,192,29460,1,0,0:0:0:0:
320,192,29576,1,0,0:0:0:0:
64,192,29691,1,0,0:0:0:0:
192,192,29691,1,2,0:0:0:0:
448,192,29806,1,0,0:0:0:0:
320,192,29922,1,0,0:0:0:0:
192,192,30037,1,0,0:0:0:0:
64,192,30152,1,0,0:0:0:0:
448,192,30152,1,8,0:0:0:0:
320,192,30152,1,0,0:0:0:0:
192,192,30268,1,0,0:0:0:0:
320,192,30383,1,0,0:0:0:0:
448,192,30499,1,0,0:0:0:0:
64,192,30614,1,0,0:0:0:0:
192,192,30614,1,2,0:0:0:0:
320,192,30845,1,0,0:0:0:0:
64,192,31076,1,0,0:0:0:0:
448,192,31076,1,8,0:0:0:0:
192,192,31076,1,0,0:0:0:0:
320,192,31191,1,0,0:0:0:0:
192,192,31306,1,0,0:0:0:0:
64,192,31537,1,0,0:0:0:0:
448,192,31537,1,2,0:0:0:0:
192,192,31768,1,0,0:0:0:0:
64,192,31999,1,0,0:0:0:0:
448,192,31999,1,8,0:0:0:0:
320,192,31999,1,0,0:0:0:0:
192,192,32114,1,0,0:0:0:0:
320,192,32229,1,0,0:0:0:0:
448,192,32460,5,0,0:0:0:0:
64,192,32460,1,2,0:0:0:0:
192,192,32460,1,4,0:0:0:0:
320,192,32576,1,2,0:0:0:0:
192,192,32691,1,2,0:0:0:0:
448,192,32691,1,0,0:0:0:0:
64,192,32806,1,2,0:0:0:0:
320,192,32922,1,8,0:0:0:0:
448,192,32922,1,0,0:0:0:0:
192,192,33152,1,2,0:0:0:0:
64,192,33383,5,0,0:0:0:0:
320,192,33383,1,2,0:0:0:0:
448,192,33383,1,4,0:0:0:0:
192,192,33499,1,2,0:0:0:0:
64,192,33614,1,0,0:0:0:0:
320,192,33614,1,2,0:0:0:0:
448,192,33729,1,2,0:0:0:0:
192,192,33845,1,4,0:0:0:0:
64,192,33845,1,8,0:0:0:0:
320,192,33845,1,0,0:0:0:0:
448,192,34076,1,2,0:0:0:0:
64,192,34306,1,4,0:0:0:0:
192,192,34306,1,2,0:0:0:0:
448,192,34306,1,0,0:0:0:0:
64,192,34768,1,0,0:0:0:0:
448,192,34768,1,2,0:0:0:0:
192,192,34999,1,0,0:0:0:0:
448,192,35229,1,2,0:0:0:0:
320,192,35229,1,0,0:0:0:0:
64,192,35460,1,0,0:0:0:0:
192,192,35691,1,0,0:0:0:0:
448,192,35691,1,2,0:0:0:0:
320,192,35922,1,0,0:0:0:0:
192,192,36152,1,2,0:0:0:0:
64,192,36152,1,0,0:0:0:0:
448,192,36383,1,0,0:0:0:0:
320,192,36614,1,2,0:0:0:0:
64,192,36614,1,0,0:0:0:0:
192,192,36845,1,0,0:0:0:0:
448,192,37076,1,2,0:0:0:0:
64,192,37076,1,0,0:0:0:0:
320,192,37306,1,0,0:0:0:0:
64,192,37537,1,0,0:0:0:0:
192,192,37537,1,2,0:0:0:0:
448,192,37768,1,0,0:0:0:0:
320,192,37999,1,2,0:0:0:0:
64,192,37999,1,0,0:0:0:0:
192,192,38229,1,0,0:0:0:0:
320,192,38460,1,0,0:0:0:0:
448,192,38460,1,2,0:0:0:0:
64,192,38691,1,0,0:0:0:0:
192,192,38922,1,0,0:0:0:0:
448,192,38922,1,2,0:0:0:0:
320,192,39152,1,0,0:0:0:0:
64,192,39383,1,0,0:0:0:0:
448,192,39383,1,2,0:0:0:0:
192,192,39614,1,0,0:0:0:0:
320,192,39845,1,0,0:0:0:0:
448,192,39845,1,2,0:0:0:0:
64,192,40076,1,0,0:0:0:0:
448,192,40306,1,0,0:0:0:0:
192,192,40306,1,2,0:0:0:0:
320,192,40537,1,0,0:0:0:0:
64,192,40768,1,0,0:0:0:0:
192,192,40768,1,2,0:0:0:0:
448,192,40999,1,0,0:0:0:0:
64,192,41229,1,2,0:0:0:0:
320,192,41229,1,0,0:0:0:0:
192,192,41460,1,0,0:0:0:0:
64,192,41691,1,2,0:0:0:0:
448,192,41691,1,0,0:0:0:0:
320,192,41691,1,4,0:0:0:0:
64,192,42152,1,0,0:0:0:0:
192,192,42152,1,2,0:0:0:0:
448,192,42383,1,0,0:0:0:0:
320,192,42614,1,2,0:0:0:0:
64,192,42614,1,0,0:0:0:0:
192,192,42845,1,0,0:0:0:0:
320,192,43076,1,0,0:0:0:0:
448,192,43076,1,2,0:0:0:0:
64,192,43306,1,0,0:0:0:0:
192,192,43537,1,0,0:0:0:0:
448,192,43537,1,2,0:0:0:0:
320,192,43768,1,0,0:0:0:0:
64,192,43999,1,0,0:0:0:0:
448,192,43999,1,2,0:0:0:0:
192,192,44229,1,0,0:0:0:0:
320,192,44460,1,0,0:0:0:0:
448,192,44460,1,2,0:0:0:0:
64,192,44691,1,0,0:0:0:0:
448,192,44922,1,0,0:0:0:0:
192,192,44922,1,2,0:0:0:0:
320,192,45152,1,0,0:0:0:0:
64,192,45383,1,0,0:0:0:0:
192,192,45383,1,2,0:0:0:0:
448,192,45614,1,0,0:0:0:0:
64,192,45845,1,2,0:0:0:0:
320,192,45845,1,0,0:0:0:0:
192,192,46076,1,0,0:0:0:0:
64,192,46306,1,2,0:0:0:0:
448,192,46306,1,0,0:0:0:0:
320,192,46537,1,0,0:0:0:0:
192,192,46768,1,0,0:0:0:0:
64,192,46768,1,2,0:0:0:0:
320,192,46999,5,0,0:0:0:0:
448,192,47229,1,0,0:0:0:0:
64,192,47229,1,2,0:0:0:0:
192,192,47460,1,0,0:0:0:0:
64,192,47691,1,2,0:0:0:0:
448,192,47691,1,0,0:0:0:0:
320,192,47922,128,0,48152:0:0:0:0:
64,192,48152,5,2,0:0:0:0:
192,192,48152,1,0,0:0:0:0:
192,192,48383,1,0,0:0:0:0:
64,192,48383,1,2,0:0:0:0:
320,192,48614,1,8,0:0:0:0:
448,192,48614,1,0,0:0:0:0:
64,192,48614,1,0,0:0:0:0:
192,192,48729,1,0,0:0:0:0:
320,192,48845,1,0,0:0:0:0:
448,192,48960,1,0,0:0:0:0:
320,192,49076,1,4,0:0:0:0:
192,192,49076,1,0,0:0:0:0:
64,192,49076,128,2,49306:0:0:0:0:
448,192,49306,1,0,0:0:0:0:
64,192,49537,128,0,49768:0:0:0:0:
192,192,49537,1,0,0:0:0:0:
320,192,49537,1,8,0:0:0:0:
448,192,49768,1,0,0:0:0:0:
64,192,49999,128,0,50460:0:0:0:0:
320,192,49999,1,2,0:0:0:0:
192,192,50229,1,0,0:0:0:0:
320,192,50460,1,8,0:0:0:0:
192,192,50460,1,0,0:0:0:0:
448,192,50460,1,0,0:0:0:0:
448,192,50922,128,0,51152:0:0:0:0:
320,192,50922,1,2,0:0:0:0:
64,192,51152,1,0,0:0:0:0:
448,192,51383,128,0,51614:0:0:0:0:
320,192,51383,1,0,0:0:0:0:
192,192,51383,1,8,0:0:0:0:
64,192,51614,1,0,0:0:0:0:
448,192,51845,128,0,52306:0:0:0:0:
192,192,51845,1,2,0:0:0:0:
320,192,52076,1,0,0:0:0:0:
320,192,52306,1,0,0:0:0:0:
192,192,52306,1,8,0:0:0:0:
64,192,52306,1,0,0:0:0:0:
192,192,52537,1,0,0:0:0:0:
320,192,52768,128,4,53229:0:0:0:0:
64,192,52768,1,0,0:0:0:0:
448,192,52768,1,2,0:0:0:0:
192,192,52999,1,0,0:0:0:0:
192,192,53229,1,8,0:0:0:0:
64,192,53229,1,0,0:0:0:0:
448,192,53229,1,0,0:0:0:0:
320,192,53460,1,0,0:0:0:0:
192,192,53691,128,2,54152:0:0:0:0:
64,192,53691,1,0,0:0:0:0:
320,192,53922,1,0,0:0:0:0:
320,192,54152,1,0,0:0:0:0:
448,192,54152,1,8,0:0:0:0:
64,192,54152,1,0,0:0:0:0:
192,192,54383,1,0,0:0:0:0:
448,192,54614,128,0,55076:0:0:0:0:
320,192,54614,1,2,0:0:0:0:
64,192,54845,1,0,0:0:0:0:
64,192,55076,1,0,0:0:0:0:
192,192,55076,1,0,0:0:0:0:
320,192,55076,1,8,0:0:0:0:
448,192,55306,1,0,0:0:0:0:
64,192,55537,128,0,55999:0:0:0:0:
192,192,55537,1,2,0:0:0:0:
448,192,55768,1,0,0:0:0:0:
192,192,55999,1,0,0:0:0:0:
320,192,55999,1,8,0:0:0:0:
64,192,56229,1,0,0:0:0:0:
320,192,56460,128,4,56691:0:0:0:0:
192,192,56460,1,2,0:0:0:0:
448,192,56460,1,0,0:0:0:0:
64,192,56691,1,0,0:0:0:0:
320,192,56922,128,8,57152:0:0:0:0:
192,192,56922,1,0,0:0:0:0:
448,192,56922,1,0,0:0:0:0:
64,192,57152,1,0,0:0:0:0:
320,192,57383,128,2,57845:0:0:0:0:
448,192,57383,1,0,0:0:0:0:
192,192,57614,1,0,0:0:0:0:
64,192,57845,1,0,0:0:0:0:
192,192,57845,1,8,0:0:0:0:
448,192,57845,1,0,0:0:0:0:
448,192,58076,1,0,0:0:0:0:
64,192,58306,1,2,0:0:0:0:
192,192,58306,128,0,58537:0:0:0:0:
448,192,58537,1,0,0:0:0:0:
192,192,58768,128,0,58999:0:0:0:0:
64,192,58768,1,0,0:0:0:0:
320,192,58768,1,8,0:0:0:0:
448,192,58999,1,0,0:0:0:0:
192,192,59229,128,2,59691:0:0:0:0:
64,192,59229,1,0,0:0:0:0:
320,192,59460,1,0,0:0:0:0:
64,192,59691,1,0,0:0:0:0:
320,192,59691,1,8,0:0:0:0:
448,192,59691,1,0,0:0:0:0:
192,192,59922,1,0,0:0:0:0:
320,192,60152,1,2,0:0:0:0:
448,192,60152,1,0,0:0:0:0:
64,192,60152,1,4,0:0:0:0:
320,192,60383,1,2,0:0:0:0:
448,192,60383,1,0,0:0:0:0:
192,192,60614,1,2,0:0:0:0:
64,192,60614,1,0,0:0:0:0:
64,192,60845,1,0,0:0:0:0:
192,192,60845,1,2,0:0:0:0:
320,192,61076,1,2,0:0:0:0:
448,192,61076,1,0,0:0:0:0:
320,192,61306,1,2,0:0:0:0:
448,192,61306,1,0,0:0:0:0:
192,192,61537,1,2,0:0:0:0:
64,192,61537,1,0,0:0:0:0:
320,192,61652,1,0,0:0:0:0:
448,192,61652,1,2,0:0:0:0:
64,192,61768,1,0,0:0:0:0:
192,192,61768,1,2,0:0:0:0:
320,192,61883,1,0,0:0:0:0:
448,192,61883,1,2,0:0:0:0:
64,192,62922,128,0,63383:0:0:0:0:
448,192,63383,128,0,63729:0:0:0:0:
320,192,63383,1,8,0:0:0:0:
192,192,63845,1,4,0:0:0:0:
320,192,63845,1,0,0:0:0:0:
64,192,63845,128,2,64306:0:0:0:0:
320,192,64076,1,0,0:0:0:0:
448,192,64306,1,0,0:0:0:0:
192,192,64306,128,0,64768:0:0:0:0:
320,192,64537,1,0,0:0:0:0:
320,192,64768,128,0,65691:0:0:0:0:
64,192,64768,1,0,0:0:0:0:
448,192,64999,1,0,0:0:0:0:
64,192,65229,1,0,0:0:0:0:
192,192,65229,1,0,0:0:0:0:
448,192,65460,1,0,0:0:0:0:
448,192,65691,128,0,66152:0:0:0:0:
64,192,65691,1,0,0:0:0:0:
192,192,65922,1,0,0:0:0:0:
320,192,66152,128,0,66614:0:0:0:0:
64,192,66152,1,0,0:0:0:0:
192,192,66383,1,0,0:0:0:0:
192,192,66614,128,0,67537:0:0:0:0:
448,192,66614,1,0,0:0:0:0:
64,192,66845,1,0,0:0:0:0:
448,192,67076,1,0,0:0:0:0:
320,192,67076,1,0,0:0:0:0:
64,192,67306,1,0,0:0:0:0:
64,192,67537,128,0,67999:0:0:0:0:
448,192,67537,1,0,0:0:0:0:
320,192,67768,1,0,0:0:0:0:
320,192,67999,128,0,68460:0:0:0:0:
448,192,67999,1,0,0:0:0:0:
192,192,68229,1,0,0:0:0:0:
192,192,68460,128,0,69383:0:0:0:0:
64,192,68460,1,0,0:0:0:0:
448,192,68691,1,0,0:0:0:0:
64,192,68922,1,0,0:0:0:0:
320,192,68922,1,0,0:0:0:0:
448,192,69152,1,0,0:0:0:0:
448,192,69383,128,0,69845:0:0:0:0:
64,192,69383,1,0,0:0:0:0:
320,192,69614,1,0,0:0:0:0:
192,192,69845,128,0,70306:0:0:0:0:
320,192,69845,1,0,0:0:0:0:
64,192,70076,1,0,0:0:0:0:
64,192,70306,1,0,0:0:0:0:
448,192,70306,1,0,0:0:0:0:
448,192,70537,1,0,0:0:0:0:
64,192,70537,1,0,0:0:0:0:
320,192,70652,1,0,0:0:0:0:
192,192,70768,1,0,0:0:0:0:
64,192,70768,1,0,0:0:0:0:
448,192,70883,1,0,0:0:0:0:
64,192,70999,1,0,0:0:0:0:
192,192,71056,1,0,0:0:0:0:
320,192,71114,1,0,0:0:0:0:
448,192,71172,1,0,0:0:0:0:
192,192,71229,1,0,0:0:0:0:
320,192,71229,1,0,0:0:0:0:
64,192,71229,1,0,0:0:0:0:
448,192,74922,132,0,75383:0:0:0:0:
320,192,74922,1,0,0:0:0:0:
192,192,75152,1,0,0:0:0:0:
320,192,75383,1,0,0:0:0:0:
64,192,75383,1,0,0:0:0:0:
192,192,75614,1,0,0:0:0:0:
320,192,75845,128,0,76306:0:0:0:0:
448,192,75845,1,0,0:0:0:0:
192,192,76076,1,0,0:0:0:0:
64,192,76306,1,0,0:0:0:0:
448,192,76306,1,0,0:0:0:0:
192,192,76537,1,0,0:0:0:0:
448,192,76768,1,0,0:0:0:0:
320,192,76768,1,0,0:0:0:0:
64,192,77229,1,0,0:0:0:0:
192,192,77229,1,0,0:0:0:0:
448,192,77691,1,0,0:0:0:0:
320,192,77691,1,0,0:0:0:0:
192,192,77922,1,0,0:0:0:0:
64,192,77922,1,0,0:0:0:0:
320,192,78152,1,0,0:0:0:0:
448,192,78152,1,0,0:0:0:0:
192,192,78268,1,0,0:0:0:0:
64,192,78268,1,0,0:0:0:0:
320,192,78383,1,0,0:0:0:0:
448,192,78383,1,0,0:0:0:0:
192,192,78499,1,0,0:0:0:0:
64,192,78499,1,0,0:0:0:0:
320,192,78614,1,0,0:0:0:0:
448,192,78614,1,0,0:0:0:0:
64,192,78614,1,0,0:0:0:0:
192,192,78845,1,0,0:0:0:0:
448,192,79076,1,0,0:0:0:0:
64,192,79076,1,0,0:0:0:0:
320,192,79191,1,0,0:0:0:0:
192,192,79306,1,0,0:0:0:0:
64,192,79537,1,0,0:0:0:0:
320,192,79537,1,0,0:0:0:0:
192,192,79768,1,0,0:0:0:0:
448,192,79999,1,0,0:0:0:0:
64,192,79999,1,8,0:0:0:0:
320,192,80229,1,0,0:0:0:0:
448,192,80460,1,0,0:0:0:0:
64,192,80460,1,2,0:0:0:0:
192,192,80691,1,0,0:0:0:0:
320,192,80922,1,0,0:0:0:0:
64,192,80922,1,8,0:0:0:0:
448,192,80922,1,0,0:0:0:0:
192,192,81152,1,0,0:0:0:0:
448,192,81383,1,0,0:0:0:0:
64,192,81383,1,2,0:0:0:0:
320,192,81499,1,0,0:0:0:0:
192,192,81614,1,0,0:0:0:0:
64,192,81729,1,0,0:0:0:0:
448,192,81845,1,0,0:0:0:0:
192,192,81845,1,8,0:0:0:0:
320,192,81845,1,0,0:0:0:0:
64,192,81960,1,0,0:0:0:0:
192,192,82076,1,0,0:0:0:0:
320,192,82191,1,0,0:0:0:0:
448,192,82306,1,0,0:0:0:0:
64,192,82306,1,2,0:0:0:0:
192,192,82537,1,0,0:0:0:0:
64,192,82768,1,8,0:0:0:0:
448,192,82768,1,0,0:0:0:0:
320,192,82883,1,0,0:0:0:0:
192,192,82999,1,0,0:0:0:0:
64,192,83229,1,2,0:0:0:0:
448,192,83229,1,0,0:0:0:0:
192,192,83345,1,0,0:0:0:0:
448,192,83460,1,0,0:0:0:0:
320,192,83576,1,0,0:0:0:0:
448,192,83691,1,0,0:0:0:0:
192,192,83691,1,0,0:0:0:0:
64,192,83691,1,8,0:0:0:0:
320,192,83806,1,0,0:0:0:0:
192,192,83922,1,0,0:0:0:0:
448,192,84152,1,0,0:0:0:0:
64,192,84152,1,2,0:0:0:0:
320,192,84152,1,0,0:0:0:0:
192,192,84383,1,0,0:0:0:0:
64,192,84614,1,8,0:0:0:0:
448,192,84614,1,0,0:0:0:0:
320,192,84845,1,0,0:0:0:0:
64,192,85076,1,2,0:0:0:0:
448,192,85076,1,0,0:0:0:0:
320,192,85191,1,0,0:0:0:0:
192,192,85306,1,0,0:0:0:0:
64,192,85422,1,0,0:0:0:0:
448,192,85537,1,0,0:0:0:0:
192,192,85537,1,8,0:0:0:0:
320,192,85537,1,0,0:0:0:0:
64,192,85652,1,0,0:0:0:0:
192,192,85768,1,0,0:0:0:0:
320,192,85883,1,0,0:0:0:0:
448,192,85999,1,0,0:0:0:0:
192,192,85999,1,4,0:0:0:0:
64,192,85999,1,2,0:0:0:0:
192,192,86114,1,0,0:0:0:0:
64,192,86114,1,0,0:0:0:0:
320,192,86229,1,0,0:0:0:0:
448,192,86229,1,0,0:0:0:0:
192,192,86345,1,0,0:0:0:0:
64,192,86345,1,0,0:0:0:0:
320,192,86576,1,0,0:0:0:0:
448,192,86576,1,0,0:0:0:0:
320,192,86806,1,0,0:0:0:0:
448,192,86806,1,0,0:0:0:0:
192,192,87037,1,0,0:0:0:0:
64,192,87037,1,0,0:0:0:0:
320,192,87268,1,0,0:0:0:0:
448,192,87268,1,0,0:0:0:0:
192,192,87383,1,0,0:0:0:0:
64,192,87383,1,0,0:0:0:0:
64,192,87614,1,0,0:0:0:0:
192,192,87614,1,0,0:0:0:0:
448,192,87729,1,0,0:0:0:0:
320,192,87729,1,0,0:0:0:0:
