osu file format v14

[General]
AudioFilename: audio.mp3
AudioLeadIn: 0
PreviewTime: 62949
Countdown: 0
SampleSet: Soft
StackLeniency: 0.5
Mode: 0
LetterboxInBreaks: 0
WidescreenStoryboard: 1

[Editor]
Bookmarks: 2026,5718,9410,13102,16795,20487,24172,27865,31564,35256,38949,42641,46333,50026,53718,57410,61102,64795,71718,72179,79564,83256,86949,88679
DistanceSpacing: 0.9
BeatDivisor: 4
GridSize: 32
TimelineZoom: 2.5

[Metadata]
Title:hectopascal (TV Size)
TitleUnicode:hectopascal (TV Size)
Artist:Koito Yuu (CV: Takada Yuuki) & Nanami Touko (CV: Kotobuki Minako)
ArtistUnicode:小糸 侑 (CV: 高田憂希) & 七海燈子 (CV: 寿 美菜子)
Creator:eiri-
Version:Normal
Source:やがて君になる
Tags:Ayyri Trynna Yagate Kimi ni Naru Ending ED Bloom into You Anime Japanese Pop
BeatmapID:2245067
BeatmapSetID:1070054

[Difficulty]
HPDrainRate:4
CircleSize:3
OverallDifficulty:4
ApproachRate:5
SliderMultiplier:1.2
SliderTickRate:1

[Events]
//Background and Video events
0,0,"Touko Yuu 283.jpg",0,0
//Break Periods
//Storyboard Layer 0 (Background)
//Storyboard Layer 1 (Fail)
//Storyboard Layer 2 (Pass)
//Storyboard Layer 3 (Foreground)
//Storyboard Layer 4 (Overlay)
//Storyboard Sound Samples

[TimingPoints]
2026,461.538461538462,4,2,1,30,1,0
2026,-100,4,2,1,50,0,0
5718,-100,4,2,1,60,0,0
13102,-100,4,2,1,75,0,0
20487,-100,4,2,1,80,0,0
35256,-100,4,2,1,75,0,0
50026,-100,4,2,1,80,0,0
61102,-100,4,2,1,90,0,0
62949,-100,4,2,1,30,0,0
64102,-100,4,2,1,75,0,0
64795,-100,4,2,1,100,0,1
71718,-100,4,2,1,100,0,0
72179,-100,4,2,1,100,0,1
79564,-100,4,2,1,80,0,0
83256,-100,4,2,1,85,0,0
86949,-100,4,2,1,90,0,0
88679,-100,4,2,1,100,0,0

[Colours]
Combo1 : 234,125,106
Combo2 : 174,205,230
Combo3 : 239,197,165
Combo4 : 118,158,180

[HitObjects]
435,302,1333,6,0,L|440:224,2,60,2|0|0,0:0|0:0|0:0,0:0:0:0:
410,350,2026,6,0,B|325:362|325:362|290:318,1,120,2|2,0:0|0:0,0:0:0:0:
275,289,2718,1,2,0:0:0:0:
169,313,3179,2,0,L|173:240,1,60,2|2,0:0|0:0,0:0:0:0:
200,206,3641,1,2,0:0:0:0:
145,112,4102,2,0,L|65:125,1,60,2|0,0:0|0:0,0:0:0:0:
49,161,4564,1,2,0:0:0:0:
49,161,5718,6,0,L|136:171,1,60,6|2,0:0|0:0,0:0:0:0:
149,203,6179,1,0,1:0:0:0:
149,203,6410,2,0,L|236:193,1,60,2|2,0:0|0:0,0:0:0:0:
256,222,6872,1,2,0:0:0:0:
319,134,7333,2,0,L|309:46,2,60,2|2|2,0:0|0:0|0:0,0:0:0:0:
360,168,8026,1,0,1:2:0:0:
360,168,8256,1,2,0:0:0:0:
465,144,8718,1,2,0:0:0:0:
465,144,8949,2,0,L|475:232,1,60,2|2,0:0|0:0,0:0:0:0:
499,249,9410,6,0,P|439:271|379:301,1,120,2|0,0:0|1:0,0:0:0:0:
356,338,10102,1,2,0:0:0:0:
259,289,10564,2,0,L|183:297,1,60,2|2,0:0|1:2,0:0:0:0:
157,330,11026,1,2,0:0:0:0:
157,330,11256,6,0,P|177:278|183:193,1,120,2|0,0:0|1:0,0:0:0:0:
164,163,11949,1,2,0:0:0:0:
59,188,12410,2,0,L|45:46,1,120,2|2,0:0|0:0,0:0:0:0:
70,19,13102,6,0,L|149:31,1,60,14|2,0:0|0:0,0:0:0:0:
160,72,13564,1,0,1:0:0:0:
160,72,13795,2,0,L|239:60,1,60,2|10,0:0|0:0,0:0:0:0:
267,86,14256,1,2,0:0:0:0:
366,44,14718,1,2,0:0:0:0:
366,44,14949,2,0,L|359:125,1,60,10|2,0:0|0:0,0:0:0:0:
391,148,15410,1,2,1:2:0:0:
391,148,15641,1,2,0:0:0:0:
305,213,16102,2,0,L|224:206,2,60,2|2|2,0:0|1:2|0:0,0:0:0:0:
337,256,16795,5,8,0:0:0:0:
337,256,17026,2,0,L|329:336,1,60,10|10,0:0|1:2,0:0:0:0:
347,367,17487,1,10,0:0:0:0:
451,338,17949,1,10,0:0:0:0:
451,338,18179,2,0,L|459:258,1,60,10|10,1:2|0:0,0:0:0:0:
442,225,18641,5,14,0:0:0:0:
337,256,19102,1,14,0:0:0:0:
243,202,19564,2,0,L|100:217,1,120,14|14,1:2|1:2,0:0:0:0:
29,161,20487,6,0,P|38:104|98:65,1,120,14|2,0:0|1:2,0:0:0:0:
128,100,21179,1,2,0:0:0:0:
128,100,21410,2,0,L|257:109,1,120,10|2,0:0|1:2,0:0:0:0:
301,112,22102,1,2,0:0:0:0:
401,73,22564,1,2,0:0:0:0:
401,73,22795,2,0,L|405:146,1,60,2|2,1:2|0:0,0:0:0:0:
415,185,23256,2,0,B|469:193|469:193|459:264,1,120,10|2,0:0|1:2,0:0:0:0:
443,364,24179,6,0,P|407:346|326:328,1,120,10|2,0:0|1:2,0:0:0:0:
279,348,24872,1,2,0:0:0:0:
279,348,25102,2,0,L|208:336,1,60,10|2,0:0|0:0,0:0:0:0:
169,357,25564,2,0,L|98:369,1,60,2|2,1:2|0:0,0:0:0:0:
17,310,26256,1,2,0:0:0:0:
17,310,26487,2,0,L|7:237,1,60,2|2,1:2|0:0,0:0:0:0:
21,197,26949,2,0,P|83:211|165:215,1,120,10|2,0:0|1:2,0:0:0:0:
240,177,27872,6,0,B|261:137|261:137|241:39,1,120,14|2,0:0|1:2,0:0:0:0:
233,11,28564,1,2,0:0:0:0:
233,11,28795,2,0,B|108:22,1,120,10|2,0:0|1:2,0:0:0:0:
71,55,29487,1,2,0:0:0:0:
130,145,29949,1,2,0:0:0:0:
130,145,30179,2,0,L|121:226,1,60,2|2,1:2|0:0,0:0:0:0:
150,251,30641,2,0,L|26:272,1,120,10|2,0:0|1:2,0:0:0:0:
106,348,31564,6,0,P|194:366|248:370,1,120,10|2,0:0|1:2,0:0:0:0:
272,344,32257,1,2,0:0:0:0:
272,344,32487,2,0,L|278:266,1,60,10|2,0:0|0:0,0:0:0:0:
295,233,32949,2,0,L|289:155,1,60,2|2,1:2|0:0,0:0:0:0:
283,119,33410,5,14,0:0:0:0:
204,44,33872,1,2,1:2:0:0:
204,44,34102,1,10,0:0:0:0:
204,44,34333,2,0,L|121:66,1,60,10|10,0:0|0:0,0:0:0:0:
95,40,34795,1,2,1:2:0:0:
42,134,35256,5,14,0:0:0:0:
42,134,35487,2,0,L|52:206,1,60,2|10,0:0|0:0,0:0:0:0:
80,238,35949,1,2,0:0:0:0:
80,238,36179,2,0,L|70:310,1,60,10|2,0:0|0:0,0:0:0:0:
149,372,36872,1,2,0:0:0:0:
149,372,37102,6,0,L|236:362,1,60,10|2,0:0|0:0,0:0:0:0:
245,325,37564,1,10,0:0:0:0:
245,325,37795,1,2,0:0:0:0:
344,367,38256,1,2,0:0:0:0:
344,367,38487,2,0,L|350:299,1,60,10|0,0:0|0:0,0:0:0:0:
355,253,38949,6,0,P|317:196|256:174,1,120,10|10,0:0|0:0,0:0:0:0:
221,197,39641,1,2,0:0:0:0:
127,142,40102,1,0,0:0:0:0:
127,142,40333,2,0,L|139:61,1,60,10|0,0:0|0:0,0:0:0:0:
137,28,40795,6,0,P|206:54|263:61,1,120,10|10,0:0|0:0,0:0:0:0:
302,43,41487,1,2,0:0:0:0:
373,124,41949,2,0,L|366:204,2,60,0|10|2,0:0|0:0|0:0,0:0:0:0:
413,88,42641,5,14,0:0:0:0:
413,88,42872,2,0,L|479:114,1,60,2|10,0:0|0:0,0:0:0:0:
488,160,43333,1,2,0:0:0:0:
488,160,43564,2,0,L|502:247,1,60,10|2,0:0|0:0,0:0:0:0:
463,321,44256,1,2,0:0:0:0:
463,321,44487,6,0,P|419:298|382:291,1,60,10|2,0:0|0:0,0:0:0:0:
359,316,44949,1,10,0:0:0:0:
359,316,45179,1,2,0:0:0:0:
278,244,45641,1,2,0:0:0:0:
278,244,45872,2,0,L|206:254,1,60,10|2,0:0|0:0,0:0:0:0:
178,288,46333,6,0,P|129:265|86:207,1,120,10|10,0:0|0:0,0:0:0:0:
101,161,47026,1,2,0:0:0:0:
199,116,47487,1,0,0:0:0:0:
199,116,47718,2,0,L|204:36,1,60,10|2,0:0|0:0,0:0:0:0:
235,13,48179,6,0,P|295:38|364:57,1,120,10|10,0:0|0:0,0:0:0:0:
401,40,48872,1,2,0:0:0:0:
401,40,49102,2,0,L|484:28,2,60,10|2|10,0:0|1:2|1:2,0:0:0:0:
373,144,50026,6,0,L|380:225,1,60,14|2,0:0|0:0,0:0:0:0:
388,256,50487,2,0,L|464:274,1,60,2|2,1:2|0:0,0:0:0:0:
500,267,50949,2,0,L|470:377,1,90,10|2,0:0|0:0,0:0:0:0:
341,341,51872,2,0,L|262:352,1,60,10|2,0:0|0:0,0:0:0:0:
236,319,52333,2,0,L|246:237,1,60,2|0,1:2|0:0,0:0:0:0:
269,211,52795,2,0,L|240:99,1,90,10|2,0:0|0:0,0:0:0:0:
114,152,53718,6,0,L|36:169,1,60,10|2,0:0|0:0,0:0:0:0:
35,58,54410,1,2,0:0:0:0:
35,58,54641,2,0,L|113:41,1,60,10|2,0:0|0:0,0:0:0:0:
195,80,55333,1,2,0:0:0:0:
195,80,55564,2,0,L|273:63,1,60,10|2,0:0|0:0,0:0:0:0:
290,27,56026,1,2,1:2:0:0:
290,27,56256,2,0,L|277:169,1,120,2|2,0:0|0:0,0:0:0:0:
307,193,56949,1,2,1:2:0:0:
236,274,57410,6,0,L|157:288,1,60,14|2,0:0|0:0,0:0:0:0:
132,315,57872,2,0,L|53:301,1,60,2|2,1:2|0:0,0:0:0:0:
51,255,58333,2,0,P|85:203|128:172,1,90,10|2,0:0|0:0,0:0:0:0:
222,117,59256,2,0,L|210:50,1,60,10|2,0:0|0:0,0:0:0:0:
202,4,59718,2,0,L|277:23,1,60,2|0,1:2|0:0,0:0:0:0:
306,47,60179,2,0,L|415:35,1,90,10|2,0:0|0:0,0:0:0:0:
494,128,61102,6,0,L|488:214,1,60,14|8,0:0|0:0,0:0:0:0:
489,242,61564,1,10,0:0:0:0:
489,242,61795,2,0,L|403:236,1,60,8|10,0:0|0:0,0:0:0:0:
374,237,62257,1,8,0:0:0:0:
374,237,62487,2,0,L|383:318,1,60,10|10,0:0|0:0,0:0:0:0:
360,347,62949,5,2,0:0:0:0:
360,347,64102,2,0,L|435:341,2,60,2|2|2,0:0|1:2|0:0,0:0:0:0:
316,314,64795,5,14,0:0:0:0:
212,344,65256,1,2,1:2:0:0:
135,268,65718,2,0,L|153:164,1,90,10|2,0:0|1:2,0:0:0:0:
180,47,66641,6,0,L|266:65,1,60,10|2,0:0|0:0,0:0:0:0:
272,101,67102,2,0,L|358:83,1,60,2|2,1:2|0:0,0:0:0:0:
369,51,67564,2,0,L|356:147,1,90,10|2,0:0|1:2,0:0:0:0:
334,273,68487,5,10,0:0:0:0:
242,215,68949,1,2,1:2:0:0:
173,298,69410,2,0,L|67:312,1,90,10|2,0:0|1:2,0:0:0:0:
11,195,70333,6,0,L|23:120,1,60,10|2,0:0|0:0,0:0:0:0:
5,83,70795,2,0,L|91:68,1,60,2|2,1:2|0:0,0:0:0:0:
101,34,71256,2,0,L|179:54,2,60,8|8|10,0:0|0:0|1:2,0:0:0:0:
24,110,72179,5,14,0:0:0:0:
115,168,72641,1,2,1:2:0:0:
214,125,73102,2,0,L|201:239,1,90,10|2,0:0|1:2,0:0:0:0:
189,348,74026,6,0,L|266:337,1,60,10|2,0:0|0:0,0:0:0:0:
287,301,74487,2,0,L|364:312,1,60,2|2,1:2|0:0,0:0:0:0:
387,345,74949,2,0,L|374:237,1,90,10|2,0:0|1:2,0:0:0:0:
362,121,75872,6,0,L|449:135,1,60,10|2,0:0|0:0,0:0:0:0:
421,22,76564,1,2,0:0:0:0:
421,22,76795,2,0,L|334:36,1,60,10|0,0:0|0:0,0:0:0:0:
319,64,77256,2,0,L|232:50,1,60,2|10,1:2|0:0,0:0:0:0:
215,85,77718,5,14,0:0:0:0:
240,189,78179,1,14,0:0:0:0:
196,287,78641,1,14,0:0:0:0:
196,287,78872,1,14,0:0:0:0:
196,287,79102,2,0,L|121:305,1,60,14|10,1:2|0:0,0:0:0:0:
84,288,79564,6,0,P|48:229|51:172,1,120,14|2,0:0|1:2,0:0:0:0:
71,130,80256,1,2,0:0:0:0:
71,130,80487,2,0,B|127:137|127:137|148:54,1,120,10|2,0:0|1:2,0:0:0:0:
156,23,81179,1,2,0:0:0:0:
257,60,81641,1,2,0:0:0:0:
257,60,81872,2,0,L|340:52,1,60,2|2,1:2|0:0,0:0:0:0:
358,20,82333,2,0,B|342:166,1,120,10|2,0:0|1:2,0:0:0:0:
335,246,83256,6,0,B|417:256|417:256|454:232,1,120,14|2,0:0|1:2,0:0:0:0:
496,209,83949,1,2,0:0:0:0:
496,209,84179,2,0,L|477:349,1,120,10|2,0:0|1:2,0:0:0:0:
439,363,84872,1,2,0:0:0:0:
439,363,85102,5,14,0:0:0:0:
378,273,85564,1,2,1:2:0:0:
378,273,85795,1,10,0:0:0:0:
378,273,86026,2,0,L|245:284,1,120,10|10,0:0|1:2,0:0:0:0:
151,297,86949,5,14,0:0:0:0:
134,163,87526,2,0,P|183:127|243:132,1,120,10|10,0:0|0:0,0:0:0:0:
283,162,88218,2,0,P|277:95|247:42,1,120,14|14,0:0|0:0,0:0:0:0:
