osu file format v14

[General]
AudioFilename: audio.ogg
AudioLeadIn: 0
PreviewTime: 54671
Countdown: 0
SampleSet: Soft
StackLeniency: 0.7
Mode: 0
LetterboxInBreaks: 0
WidescreenStoryboard: 1

[Editor]
Bookmarks: 327,12130,22622,33113,43605,48687,54753,65244,78359,88851,94097
DistanceSpacing: 0.9
BeatDivisor: 4
GridSize: 4
TimelineZoom: 1.5

[Metadata]
Title:Love note (Short Ver.)
TitleUnicode:Love note (Short Ver.)
Artist:Koimi Eil (CV: Hachimitsuko)
ArtistUnicode:恋見エイル(CV:はちみつこ)
Creator:tomatas95
Version:Hard
Source:俺の恋天使がポンコツすぎてコワ~い。
Tags:eroge hulotte Ore no Cupid ga Ponkotsu Sugite Kowa~i My Klutzy Cupid galgame visual novel 恋天使 ポンコワ Ponkowa video game hachi mitsuko vn opening op japanese kowai 鈴木ぷよ Puyo Suzuki jpop j-pop pop
BeatmapID:4143577
BeatmapSetID:1992645

[Difficulty]
HPDrainRate:4
CircleSize:3.3
OverallDifficulty:6
ApproachRate:8
SliderMultiplier:1.3
SliderTickRate:1

[Events]
//Background and Video events
Video,0,"erogedaisukidesu.mp4"
0,0,"HimeRinka.jpg",0,0
//Break Periods
//Storyboard Layer 0 (Background)
//Storyboard Layer 1 (Fail)
//Storyboard Layer 2 (Pass)
//Storyboard Layer 3 (Foreground)
//Storyboard Layer 4 (Overlay)
//Storyboard Sound Samples

[TimingPoints]
327,327.868852459016,4,2,1,40,1,0
327,-142.857142857143,4,2,1,40,0,0
490,-142.857142857143,4,2,1,30,0,0
2786,-142.857142857143,4,2,1,35,0,0
2949,-142.857142857143,4,2,1,40,0,0
5081,-142.857142857143,4,2,1,35,0,0
5245,-142.857142857143,4,2,1,30,0,0
5572,-142.857142857143,4,2,1,45,0,0
6720,-142.857142857143,4,2,1,40,0,0
6884,-142.857142857143,4,2,1,45,0,0
7867,-142.857142857143,4,2,1,40,0,0
8195,-111.111111111111,4,2,1,45,0,0
8359,-111.111111111111,4,2,1,50,0,0
8523,-111.111111111111,4,2,1,55,0,0
8687,-111.111111111111,4,2,1,60,0,0
9015,-111.111111111111,4,2,1,65,0,0
9343,-142.857142857143,4,2,2,70,0,0
9507,-142.857142857143,4,2,1,35,0,0
9835,-142.857142857143,4,2,1,40,0,0
10163,-142.857142857143,4,2,1,45,0,0
10490,-142.857142857143,4,2,1,50,0,0
10818,-125,4,2,1,60,0,0
11638,-125,4,2,1,55,0,0
11802,-125,4,2,1,65,0,0
12130,-100,4,2,3,75,0,0
12458,-100,4,2,2,70,0,0
13277,-100,4,2,2,75,0,0
13605,-100,4,2,2,70,0,0
14753,-100,4,2,2,75,0,0
14917,-100,4,2,2,70,0,0
15900,-100,4,2,2,75,0,0
16064,-100,4,2,2,70,0,0
17294,-100,4,2,2,5,0,0
17376,-100,4,2,3,75,0,0
17622,-100,4,2,3,5,0,0
17704,-100,4,2,2,70,0,0
18523,-100,4,2,2,75,0,0
18687,-100,4,2,2,70,0,0
19999,-100,4,2,2,75,0,0
20163,-100,4,2,2,70,0,0
21146,-100,4,2,2,75,0,0
21310,-100,4,2,2,70,0,0
21966,-100,4,2,2,75,0,0
22130,-100,4,2,2,65,0,0
22294,-100,4,2,2,75,0,0
22622,-125,4,2,3,65,0,0
22867,-125,4,2,3,5,0,0
22949,-125,4,2,2,60,0,0
23769,-125,4,2,2,65,0,0
23933,-125,4,2,2,60,0,0
25163,-125,4,2,2,5,0,0
25245,-125,4,2,2,65,0,0
25409,-125,4,2,2,60,0,0
26392,-125,4,2,2,65,0,0
26556,-125,4,2,2,60,0,0
27867,-125,4,2,2,65,0,0
28031,-125,4,2,2,60,0,0
29015,-125,4,2,2,65,0,0
29179,-125,4,2,2,60,0,0
30163,-125,4,2,2,65,0,0
30490,-111.111111111111,4,2,3,70,0,0
30654,-111.111111111111,4,2,2,70,0,0
31638,-111.111111111111,4,2,2,65,0,0
31884,-111.111111111111,4,2,2,5,0,0
31966,-111.111111111111,4,2,2,65,0,0
32212,-111.111111111111,4,2,2,5,0,0
32294,-111.111111111111,4,2,2,65,0,0
32458,-111.111111111111,4,2,2,70,0,0
32786,-111.111111111111,4,2,2,65,0,0
32949,-111.111111111111,4,2,1,60,0,0
33031,-111.111111111111,4,2,2,60,0,0
33113,-100,4,2,3,70,0,0
33441,-100,4,2,2,70,0,0
33605,-100,4,2,1,60,0,0
33687,-100,4,2,2,60,0,0
33769,-100,4,2,3,60,0,0
33933,-100,4,2,2,70,0,0
34917,-100,4,2,1,60,0,0
34999,-100,4,2,2,60,0,0
35081,-100,4,2,3,60,0,0
35245,-100,4,2,2,70,0,0
36228,-100,4,2,1,60,0,0
36310,-100,4,2,2,60,0,0
36392,-100,4,2,3,60,0,0
36556,-100,4,2,2,70,0,0
37540,-100,4,2,1,60,0,0
37622,-100,4,2,2,60,0,0
37704,-100,4,2,3,60,0,0
37867,-100,4,2,2,70,0,0
38277,-100,4,2,2,5,0,0
38359,-100,4,2,3,70,0,0
38687,-100,4,2,2,70,0,0
38851,-100,4,2,1,60,0,0
38933,-100,4,2,2,60,0,0
39015,-100,4,2,3,60,0,0
39179,-100,4,2,2,70,0,0
40163,-100,4,2,1,60,0,0
40245,-100,4,2,2,60,0,0
40327,-100,4,2,3,60,0,0
40490,-100,4,2,2,70,0,0
40900,-100,4,2,2,5,0,0
40982,-100,4,2,3,70,0,0
41146,-100,4,2,2,70,0,0
41474,-100,4,2,2,75,0,0
41802,-100,4,2,2,70,0,0
42130,-100,4,2,2,65,0,0
42376,-100,4,2,2,5,0,0
42458,-100,4,2,2,65,0,0
42704,-100,4,2,2,5,0,0
42786,-100,4,2,3,70,0,0
42949,-100,4,2,2,70,0,0
43277,-100,4,2,1,65,0,0
43441,-100,4,2,2,60,0,0
43605,-111.111111111111,4,2,2,65,0,0
46146,-111.111111111111,4,2,2,5,0,0
46228,-111.111111111111,4,2,2,65,0,0
48687,-100,4,2,3,70,0,0
49015,-100,4,2,1,50,0,0
49179,-100,4,2,5,55,0,0
49507,-100,4,2,5,60,0,0
49835,-100,4,2,5,65,0,0
50163,-100,4,2,5,70,0,0
50490,-100,4,2,5,75,0,0
51474,-100,4,2,3,75,0,0
51720,-100,4,2,2,5,0,0
51802,-100,4,2,2,75,0,0
52212,-100,4,2,2,5,0,0
52294,-100,4,2,2,75,0,0
52622,-100,4,2,2,70,0,0
53277,-100,4,2,2,65,0,0
53441,-100,4,2,2,70,0,0
53523,-100,4,2,1,60,0,0
53605,-100,4,2,2,60,0,0
53687,-100,4,2,3,60,0,0
53769,-100,4,2,2,70,0,0
54097,-100,4,2,2,5,0,0
54753,327.868852459016,4,2,3,80,1,0
54753,-90.9090909090909,4,2,3,80,0,1
54998,-90.9090909090909,4,2,3,5,0,1
55080,-90.9090909090909,4,2,2,80,0,1
59916,-90.9090909090909,4,2,2,5,0,1
59998,-90.9090909090909,4,2,2,80,0,1
60244,-90.9090909090909,4,2,2,5,0,1
60326,-90.9090909090909,4,2,2,80,0,1
61228,-90.9090909090909,4,2,2,5,0,1
61310,-90.9090909090909,4,2,3,80,0,1
61638,-90.9090909090909,4,2,2,80,0,1
62539,-90.9090909090909,4,2,2,5,0,1
62621,-90.9090909090909,4,2,2,80,0,1
63769,-90.9090909090909,4,2,3,80,0,1
64097,-90.9090909090909,4,2,2,80,0,1
64425,-90.9090909090909,4,2,1,80,0,1
64752,-90.9090909090909,4,2,2,70,0,1
64916,-90.9090909090909,4,2,2,75,0,0
65244,-90.9090909090909,4,2,3,80,0,1
65489,-90.9090909090909,4,2,3,5,0,1
65571,-90.9090909090909,4,2,2,80,0,1
67867,-90.9090909090909,4,2,2,70,0,1
68195,-90.9090909090909,4,2,2,75,0,1
68523,-90.9090909090909,4,2,2,70,0,1
68851,-90.9090909090909,4,2,2,75,0,1
69015,-90.9090909090909,4,2,1,80,0,1
69179,-90.9090909090909,4,2,2,80,0,1
70408,-90.9090909090909,4,2,3,5,0,1
70490,-90.9090909090909,4,2,3,80,0,1
70818,-90.9090909090909,4,2,2,80,0,1
73113,-90.9090909090909,4,2,1,80,0,1
73359,-90.9090909090909,4,2,2,5,0,1
73441,-90.9090909090909,4,2,2,80,0,1
73851,-90.9090909090909,4,2,2,5,0,1
73933,-90.9090909090909,4,2,2,80,0,1
74343,-90.9090909090909,4,2,2,5,0,1
74425,-90.9090909090909,4,2,2,80,0,1
75654,-90.9090909090909,4,2,2,5,0,1
75736,-90.9090909090909,4,2,2,80,0,1
75818,-90.9090909090909,4,2,5,70,0,1
76228,-90.9090909090909,4,2,2,80,0,1
76310,-90.9090909090909,4,2,5,70,0,1
76720,-90.9090909090909,4,2,2,80,0,1
76802,-90.9090909090909,4,2,5,70,0,1
77212,-90.9090909090909,4,2,2,80,0,1
77703,-100,4,2,2,80,0,0
78031,-100,4,2,1,50,0,0
78359,-100,4,2,3,75,0,0
78687,-100,4,2,2,70,0,0
79506,-100,4,2,2,75,0,0
79834,-100,4,2,2,70,0,0
80982,-100,4,2,2,75,0,0
81146,-100,4,2,2,70,0,0
82129,-100,4,2,2,75,0,0
82293,-100,4,2,2,70,0,0
83523,-100,4,2,2,5,0,0
83605,-100,4,2,3,75,0,0
83851,-100,4,2,3,5,0,0
83933,-100,4,2,2,70,0,0
84752,-100,4,2,2,75,0,0
84916,-100,4,2,2,70,0,0
86228,-100,4,2,2,75,0,0
86392,-100,4,2,2,70,0,0
87375,-100,4,2,2,75,0,0
87539,-100,4,2,2,70,0,0
88195,-100,4,2,2,75,0,0
88359,-100,4,2,2,65,0,0
88523,-100,4,2,2,75,0,0
88851,-100,4,2,3,75,0,0
89179,-100,4,2,1,70,0,0
89507,-100,4,2,1,65,0,0
89834,-100,4,2,1,60,0,0
90162,-100,4,2,1,55,0,0
90490,-100,4,2,1,50,0,0
90818,-100,4,2,1,45,0,0
91146,-100,4,2,1,40,0,0
91474,-100,4,2,1,35,0,0
91802,-100,4,2,1,30,0,0
92130,-100,4,2,1,25,0,0
92457,-100,4,2,1,20,0,0
92785,-100,4,2,1,15,0,0
93113,-100,4,2,1,10,0,0
94097,-100,4,2,1,5,0,0

[Colours]
Combo1 : 248,213,165
Combo2 : 245,169,169
Combo3 : 117,175,240
Combo4 : 244,168,216

[HitObjects]
100,104,327,6,0,B|181:123|197:2|126:-51|16:3|-21:32|-16:95|-15:145|16:161|43:197|75:174|102:181|127:203|153:233|137:324|40:321|-4:275|37:197,1,636.999980560303,0|0,3:2|0:0,0:0:0:0:
176,171,2949,6,0,B|340:268|520:212|564:-30|338:-77|265:42|325:160,1,636.999980560303,2|2,3:2|0:0,0:0:0:0:
393,274,5572,6,0,P|345:290|284:287,1,90.9999972229005,2|0,0:0|0:0,0:0:0:0:
235,344,6064,2,0,P|187:328|126:331,2,90.9999972229005,2|2|0,0:0|0:0|3:0,0:0:0:0:
304,290,6884,2,0,P|291:246|314:191,1,90.9999972229005,0|0,3:0|0:0,0:0:0:0:
301,119,7376,2,0,P|257:130|227:163,2,90.9999972229005,2|2|0,0:0|3:2|0:0,0:0:0:0:
374,159,8195,6,0,P|402:163|434:171,1,58.4999982147217,0|8,3:2|0:0,0:0:0:0:
501,120,8523,2,0,P|505:91|513:60,1,58.4999982147217,0|8,3:0|0:0,0:0:0:0:
444,3,8851,1,8,0:0:0:0:
387,69,9015,1,8,0:0:0:0:
314,21,9179,1,8,0:0:0:0:
301,119,9343,6,0,B|229:166|155:113|200:75|131:31|59:81|59:81|39:130|87:162,1,363.999988891602,4|0,3:2|0:0,0:0:0:0:
132,230,10818,6,0,P|106:242|74:244,1,52,8|0,0:0|3:0,0:0:0:0:
29,316,11146,2,0,P|52:332|70:359,1,52,8|0,0:0|3:0,0:0:0:0:
155,363,11474,2,0,P|157:334|171:305,1,52,8|8,0:0|0:0,0:0:0:0:
221,243,11802,1,8,0:0:0:0:
306,295,11966,1,8,0:0:0:0:
306,295,12048,1,8,0:0:0:0:
306,295,12130,6,0,P|367:284|449:271,2,130,4|10|2,3:2|0:0|3:2,0:0:0:0:
221,243,12949,1,0,3:0:0:0:
270,159,13113,1,8,0:0:0:0:
191,101,13277,2,0,P|139:129|59:108,1,130,2|0,3:2|3:0,0:0:0:0:
125,38,13769,1,10,0:0:0:0:
125,38,13933,2,0,P|176:9|256:30,1,130,0|0,0:0|3:0,0:0:0:0:
324,78,14425,2,0,L|387:65,1,65,10|0,0:0|0:0,0:0:0:0:
405,162,14753,6,0,L|341:174,2,65,2|2|8,3:2|0:0|0:0,0:0:0:0:
503,158,15245,2,0,P|496:117|488:75,1,65,2|0,0:0|3:0,0:0:0:0:
405,162,15572,2,0,P|412:203|420:245,1,65,0|8,3:0|0:0,0:0:0:0:
479,300,15900,2,0,P|426:320|351:295,1,130,2|0,3:2|3:0,0:0:0:0:
281,240,16392,1,8,0:0:0:0:
281,240,16556,2,0,L|210:253,1,65,2|0,3:2|0:0,0:0:0:0:
124,223,16884,1,0,3:0:0:0:
146,317,17048,1,14,0:0:0:0:
195,157,17376,6,0,P|203:103|148:28,2,130,4|10|2,3:2|0:0|3:2,0:0:0:0:
107,114,18195,1,0,3:0:0:0:
107,114,18359,1,10,0:0:0:0:
25,168,18523,2,0,P|36:217|50:309,1,130,2|0,3:2|3:0,0:0:0:0:
137,336,19015,1,8,0:0:0:0:
218,284,19179,2,0,P|207:235|193:143,1,130,0|0,0:0|3:0,0:0:0:0:
290,175,19671,2,0,P|294:207|301:238,1,65,10|0,0:0|0:0,0:0:0:0:
355,320,19999,6,0,P|319:335|291:334,2,65,2|0|10,3:2|3:0|0:0,0:0:0:0:
456,315,20490,1,0,3:0:0:0:
456,315,20654,2,0,P|450:353|436:377,2,65,0|2|8,3:0|3:2|0:0,0:0:0:0:
503,226,21146,2,0,L|480:73,1,130,2|0,3:2|3:0,0:0:0:0:
388,74,21638,2,0,L|397:138,1,65,10|0,0:0|3:0,0:0:0:0:
402,231,21966,1,10,0:0:0:0:
483,97,22294,1,10,0:0:0:0:
309,119,22622,6,0,P|260:127|182:140,1,104,4|8,3:2|0:0,0:0:0:0:
130,176,23113,2,0,L|121:120,1,52,2|0,0:0|0:0,0:0:0:0:
34,101,23441,2,0,L|50:203,2,104,2|2|0,3:2|3:2|3:0,0:0:0:0:
0,22,24261,2,0,L|51:14,1,52,10|0,0:0|0:0,0:0:0:0:
129,47,24589,2,0,L|231:61,1,104,2|10,0:0|0:0,0:0:0:0:
397,16,25245,5,2,3:2:0:0:
397,16,25408,2,0,L|406:68,1,52,0|8,3:2|0:0,0:0:0:0:
324,102,25736,2,0,L|308:0,2,104,2|2|2,0:0|3:2|3:2,0:0:0:0:
405,233,26720,1,2,3:2:0:0:
405,233,26884,2,0,P|350:242|295:251,2,104,10|2|10,0:0|0:0|0:0,0:0:0:0:
483,263,27704,1,2,3:2:0:0:
483,263,27867,6,0,P|487:208|440:158,2,104,0|10|2,3:2|0:0|0:0,0:0:0:0:
405,233,28687,2,0,P|377:237|350:242,1,52,0|8,3:0|0:0,0:0:0:0:
272,273,29015,2,0,P|263:224|245:155,1,104,2|0,3:2|3:0,0:0:0:0:
296,100,29507,2,0,P|246:86|182:122,1,104,10|2,0:0|0:0,0:0:0:0:
165,182,29999,1,0,3:0:0:0:
165,182,30163,2,0,L|100:190,1,52,14|0,0:0|0:0,0:0:0:0:
31,237,30490,6,0,P|22:188|6:116,1,116.999996429443,4|8,3:2|0:0,0:0:0:0:
58,45,30982,2,0,P|86:51|115:56,1,58.4999982147217,2|0,0:0|3:0,0:0:0:0:
198,103,31310,2,0,P|226:96|255:91,1,58.4999982147217,0|8,3:0|0:0,0:0:0:0:
323,25,31638,1,10,0:2:0:0:
321,223,31966,1,10,0:2:0:0:
494,125,32294,2,0,L|515:240,1,116.999996429443,10|10,0:2|0:0,0:0:0:0:
421,215,32786,2,0,L|410:157,1,58.4999982147217,4|4,3:0|3:0,0:0:0:0:
438,44,33113,6,0,P|389:60|321:27,1,130,4|8,3:2|0:0,0:0:0:0:
251,83,33605,1,0,3:0:0:0:
251,83,33769,2,0,P|215:69|176:78,1,65,0|0,3:0|3:0,0:0:0:0:
138,0,34097,2,0,P|107:24|96:62,1,65,10|0,0:0|3:0,0:0:0:0:
30,114,34425,2,0,P|12:87|8:55,2,65,2|2|10,3:2|0:0|0:0,0:0:0:0:
122,140,34917,2,0,P|113:187|94:275,1,130,0|2,3:0|3:2,0:0:0:0:
177,317,35408,2,0,P|183:285|190:253,1,65,2|8,3:2|0:0,0:0:0:0:
206,167,35736,6,0,L|344:193,1,130,0|10,3:0|0:0,0:0:0:0:
416,223,36228,1,0,3:0:0:0:
416,223,36392,2,0,L|427:147,1,65,0|0,3:0|3:0,0:0:0:0:
512,180,36720,2,0,L|501:256,1,65,2|8,3:2|0:0,0:0:0:0:
452,313,37048,2,0,P|487:329|526:321,2,65,2|0|10,3:2|3:0|0:0,0:0:0:0:
372,352,37540,2,0,P|321:314|242:325,1,130,0|0,3:0|3:0,0:0:0:0:
178,353,38031,1,10,0:0:0:0:
163,172,38359,6,0,P|101:181|29:192,1,130,4|10,3:2|0:0,0:0:0:0:
91,273,38851,1,0,3:0:0:0:
91,273,39015,2,0,P|123:268|155:263,1,65,0|0,3:0|3:0,0:0:0:0:
238,225,39343,2,0,P|270:229|302:234,1,65,2|8,3:2|0:0,0:0:0:0:
387,267,39671,2,0,L|399:196,2,65,2|2|2,3:2|0:0|3:2,0:0:0:0:
472,314,40163,2,0,L|494:178,1,130,0|0,3:0|3:0,0:0:0:0:
431,111,40654,1,14,0:0:0:0:
283,73,40982,6,0,L|271:2,2,65,4|2|8,3:2|0:0|0:0,0:0:0:0:
343,134,41474,2,0,P|306:154|223:137,1,130,4|0,3:2|3:0,0:0:0:0:
131,119,41966,1,8,0:0:0:0:
192,49,42130,1,2,3:2:0:0:
161,206,42458,1,2,3:2:0:0:
40,105,42786,2,0,L|64:254,1,130,4|8,3:2|0:0,0:0:0:0:
64,322,43277,2,0,L|-12:333,1,65,0|8,3:0|3:0,0:0:0:0:
151,349,43605,6,0,P|202:342|290:326,1,116.999996429443,6|2,3:2|0:0,0:0:0:0:
363,227,44261,2,0,P|312:220|224:204,1,116.999996429443,10|0,0:0|0:0,0:0:0:0:
161,206,44753,2,0,L|140:77,2,116.999996429443,0|2|0,3:0|0:0|0:0,0:0:0:0:
247,208,45572,2,0,L|236:143,2,58.4999982147217,10|0|2,0:0|3:0|3:2,0:0:0:0:
220,335,46228,6,0,P|270:323|333:354,1,116.999996429443,2|2,3:2|0:0,0:0:0:0:
492,271,46884,2,0,P|442:283|380:249,1,116.999996429443,10|0,0:0|0:0,0:0:0:0:
446,199,47376,2,0,L|465:65,1,116.999996429443,2|2,3:2|0:0,0:0:0:0:
372,68,47867,2,0,L|381:11,2,58.4999982147217,0|0|8,3:0|0:0|0:0,0:0:0:0:
353,160,48359,1,2,3:2:0:0:
353,160,48523,1,10,0:0:0:0:
385,255,48687,6,0,P|319:241|253:230,1,130,4|0,3:2|0:0,0:0:0:0:
162,236,49179,2,0,L|173:172,1,65,10|0,0:0|3:0,0:0:0:0:
86,156,49507,2,0,L|76:221,2,65,10|0|10,0:0|3:0|0:0,0:0:0:0:
64,71,49999,1,0,3:0:0:0:
64,71,50081,1,0,3:0:0:0:
64,71,50163,6,0,P|22:77|-11:83,1,65,10|0,0:0|3:0,0:0:0:0:
148,94,50490,2,0,P|190:88|223:82,1,65,10|0,0:0|3:0,0:0:0:0:
267,5,50818,1,10,0:0:0:0:
321,87,50982,1,8,0:0:0:0:
365,8,51146,1,10,0:0:0:0:
463,32,51310,1,8,0:0:0:0:
463,32,51392,1,8,0:0:0:0:
463,32,51474,6,0,P|476:95|491:158,1,130,4|10,3:2|0:0,0:0:0:0:
487,268,51966,2,0,P|439:230|354:251,1,130,6|0,3:2|3:2,0:0:0:0:
413,323,52458,1,10,0:0:0:0:
331,366,52622,2,0,L|197:343,1,130,2|8,3:2|0:0,0:0:0:0:
199,247,53113,2,0,L|263:257,1,65,8|0,0:0|3:0,0:0:0:0:
272,258,53359,1,0,3:0:0:0:
281,259,53441,2,0,P|291:228|296:196,1,65,8|8,0:0|3:0,0:0:0:0:
348,110,53769,2,0,P|358:79|363:47,1,65,10|0,0:0|0:0,0:0:0:0:
364,48,54753,6,0,P|431:58|508:71,2,143.000004364014,4|10|2,3:2|0:0|3:2,0:0:0:0:
276,2,55572,2,0,P|242:18|204:15,1,71.5000021820069,0|8,3:0|0:0,0:0:0:0:
160,105,55900,2,0,P|112:76|26:100,1,143.000004364014,2|0,3:2|3:0,0:0:0:0:
89,171,56392,2,0,L|68:253,1,71.5000021820069,8|2,0:0|0:0,0:0:0:0:
117,329,56720,1,0,3:0:0:0:
199,271,56884,2,0,L|220:189,2,71.5000021820069,2|10|2,3:2|0:0|0:0,0:0:0:0:
270,340,57375,6,0,P|326:333|431:313,1,143.000004364014,2|8,3:2|0:0,0:0:0:0:
504,278,57867,1,2,0:0:0:0:
423,216,58031,2,0,P|404:159|455:85,1,143.000004364014,2|8,3:2|0:0,0:0:0:0:
354,56,58523,1,0,3:2:0:0:
354,56,58687,2,0,P|314:100|224:93,1,143.000004364014,2|8,0:0|0:0,0:0:0:0:
167,34,59179,1,2,3:2:0:0:
167,34,59343,1,2,0:0:0:0:
111,116,59507,1,0,3:0:0:0:
50,36,59671,1,8,0:0:0:0:
140,214,59998,6,0,P|79:200|-7:185,2,143.000004364014,4|10|2,3:2|0:0|3:2,0:0:0:0:
217,278,60818,1,0,3:0:0:0:
233,179,60982,2,0,L|215:84,1,71.5000021820069,10|0,0:0|0:0,0:0:0:0:
275,24,61310,6,0,P|315:56|407:39,1,143.000004364014,4|8,3:2|0:0,0:0:0:0:
496,10,61802,1,0,3:0:0:0:
478,109,61966,2,0,P|467:143|459:195,1,71.5000021820069,2|0,3:2|3:0,0:0:0:0:
373,228,62293,2,0,P|366:192|355:158,1,71.5000021820069,10|0,0:0|0:0,0:0:0:0:
446,276,62621,6,0,P|406:308|314:291,1,143.000004364014,4|10,3:2|0:0,0:0:0:0:
256,232,63113,1,0,3:0:0:0:
256,232,63195,1,0,3:0:0:0:
256,232,63277,1,10,0:0:0:0:
197,313,63441,1,2,3:2:0:0:
139,230,63605,1,8,0:0:0:0:
62,294,63769,6,0,P|48:228|26:140,1,143.000004364014,4|0,3:2|3:0,0:0:0:0:
10,55,64261,1,8,0:0:0:0:
104,89,64425,2,0,L|270:64,1,143.000004364014,4|0,3:2|3:0,0:0:0:0:
330,121,64916,1,8,0:0:0:0:
386,41,65080,1,8,0:0:0:0:
386,41,65162,1,8,0:0:0:0:
386,41,65244,6,0,P|433:25|514:69,2,143.000004364014,4|10|2,3:2|0:0|3:2,0:0:0:0:
435,121,66064,2,0,L|423:209,1,71.5000021820069,0|8,3:0|0:0,0:0:0:0:
461,285,66392,2,0,P|400:274|297:253,1,143.000004364014,2|0,3:2|3:0,0:0:0:0:
251,184,66884,2,0,P|215:191|180:197,1,71.5000021820069,8|2,0:0|0:0,0:0:0:0:
95,143,67212,1,0,3:0:0:0:
24,213,67375,2,0,L|34:283,2,71.5000021820069,2|10|2,3:2|0:0|0:0,0:0:0:0:
6,113,67867,5,2,3:2:0:0:
6,113,68031,1,0,3:0:0:0:
57,27,68195,2,0,P|122:62|193:35,1,143.000004364014,12|2,0:0|3:2,0:0:0:0:
278,6,68687,1,0,3:0:0:0:
356,69,68851,1,8,0:0:0:0:
262,105,69015,6,0,P|249:175|237:245,1,143.000004364014,4|0,3:2|3:0,0:0:0:0:
204,341,69507,1,8,0:0:0:0:
302,321,69671,2,0,L|452:302,1,143.000004364014,4|0,3:2|3:0,0:0:0:0:
418,206,70162,2,0,L|347:214,1,71.5000021820069,8|0,0:0|0:0,0:0:0:0:
495,241,70490,6,0,P|502:198|438:122,1,143.000004364014,4|8,3:2|0:0,0:0:0:0:
391,30,70982,1,2,3:2:0:0:
336,122,71146,1,8,0:0:0:0:
283,28,71310,1,0,3:0:0:0:
229,121,71474,2,0,L|124:107,1,71.5000021820069,10|0,0:0|3:0,0:0:0:0:
74,69,71802,6,0,P|65:109|79:158,1,71.5000021820069,10|0,0:0|3:0,0:0:0:0:
0,197,72130,2,0,P|30:224|79:237,1,71.5000021820069,10|0,0:0|3:0,0:0:0:0:
73,325,72457,2,0,P|112:312|147:276,1,71.5000021820069,10|0,0:0|3:0,0:0:0:0:
147,198,72785,1,10,0:0:0:0:
147,198,72867,1,8,0:0:0:0:
147,198,72949,1,8,0:0:0:0:
224,256,73113,6,0,L|395:234,1,143.000004364014,4|8,3:2|0:0,0:0:0:0:
381,138,73605,2,0,L|239:156,1,143.000004364014,6|8,3:2|0:0,0:0:0:0:
147,198,74097,2,0,P|136:149|111:59,1,143.000004364014,6|0,3:2|3:0,0:0:0:0:
29,118,74589,2,0,P|38:152|46:187,1,71.5000021820069,8|0,0:0|3:0,0:0:0:0:
86,279,74916,1,8,0:0:0:0:
147,198,75080,1,8,0:0:0:0:
186,291,75244,2,0,L|198:334,2,35.7500010910034,0|0|8,3:0|3:0|0:0,0:0:0:0:
205,119,75736,6,0,P|260:157|348:132,1,143.000004364014,12|0,0:2|3:0,0:0:0:0:
385,80,76228,1,8,0:2:0:0:
385,80,76310,1,0,3:0:0:0:
385,80,76392,2,0,L|431:85,3,35.7500010910034,0|0|0|0,3:0|3:0|3:0|3:0,0:0:0:0:
450,115,76720,2,0,L|496:120,4,35.7500010910034,8|0|0|0|0,0:2|3:0|3:0|3:0|3:0,0:0:0:0:
498,230,77212,6,0,L|426:222,1,71.5000021820069,8|0,0:2|0:0,0:0:0:0:
310,267,77539,1,10,0:0:0:0:
331,145,77703,1,10,0:0:0:0:
189,31,78359,6,0,L|211:159,2,130,4|10|2,3:2|0:0|3:2,0:0:0:0:
100,5,79179,1,0,3:0:0:0:
100,5,79343,1,8,0:0:0:0:
34,67,79507,2,0,L|56:195,1,130,2|0,3:2|3:0,0:0:0:0:
16,277,79998,1,10,0:0:0:0:
83,337,80162,2,0,P|131:318|213:353,1,130,0|0,0:0|3:0,0:0:0:0:
270,280,80654,2,0,P|306:294|355:288,1,65,10|0,0:0|0:0,0:0:0:0:
421,275,80982,6,0,P|425:312|404:348,2,65,2|2|8,3:2|0:0|0:0,0:0:0:0:
498,226,81474,2,0,P|477:201|447:189,1,65,2|0,0:0|3:0,0:0:0:0:
443,98,81802,2,0,P|411:103|386:123,1,65,0|8,3:0|0:0,0:0:0:0:
360,210,82130,2,0,P|293:198|225:185,1,130,2|0,3:2|3:0,0:0:0:0:
167,130,82621,1,8,0:0:0:0:
167,130,82785,2,0,P|135:136|103:141,1,65,2|0,3:2|3:0,0:0:0:0:
15,114,83113,1,0,3:0:0:0:
32,202,83277,1,14,0:0:0:0:
82,55,83605,6,0,P|145:42|209:31,2,130,4|10|2,3:2|0:0|3:2,0:0:0:0:
15,114,84425,1,0,3:0:0:0:
15,114,84589,1,10,0:0:0:0:
103,141,84752,2,0,P|166:128|230:117,1,130,2|0,3:2|3:0,0:0:0:0:
304,62,85244,1,8,0:0:0:0:
322,152,85408,2,0,P|335:214|355:299,1,130,0|0,0:0|3:0,0:0:0:0:
433,240,85900,2,0,P|425:208|418:176,1,65,10|0,0:0|0:0,0:0:0:0:
391,92,86228,6,0,L|484:80,2,65,2|0|10,3:2|3:0|0:0,0:0:0:0:
305,67,86720,1,0,3:0:0:0:
305,67,86884,2,0,L|284:-14,2,65,0|2|8,3:0|3:2|0:0,0:0:0:0:
230,117,87375,2,0,P|166:128|103:141,1,130,2|0,3:2|3:0,0:0:0:0:
11,144,87867,2,0,P|21:181|31:218,1,65,10|0,0:0|3:0,0:0:0:0:
48,295,88195,1,10,0:0:0:0:
102,141,88523,1,10,0:0:0:0:
208,264,88851,1,4,3:2:0:0:
256,192,89015,12,0,94097,0:0:0:0:
