osu file format v14

[General]
AudioFilename: audio.mp3
AudioLeadIn: 0
PreviewTime: 54671
Countdown: 0
SampleSet: Soft
StackLeniency: 0.3
Mode: 0
LetterboxInBreaks: 0
WidescreenStoryboard: 1

[Editor]
Bookmarks: 12130,22622,33113,43605,70490,78359
DistanceSpacing: 1.42
BeatDivisor: 4
GridSize: 8
TimelineZoom: 1.5

[Metadata]
Title:Love note (Short Ver.)
TitleUnicode:Love note (Short Ver.)
Artist:Koimi Eil (CV: Hachimitsuko)
ArtistUnicode:恋見エイル (CV: はちみつこ)
Creator:TNTlealu
Version:Love <3
Source:俺の恋天使がポンコツすぎてコワ~い。
Tags:suzuki puyo ore no cupid ga ponkotsu sugite kowa~i. kowai [_TNTlealu_] Matsuyuki Ame GfMRT chu arronchu arronchu1207 RK657 LeeGod Video Game HULOTTE japanese j-pop pop jpop galgame eroge visual novel op opening Duca 鈴木ぷよ パスタ
BeatmapID:3236407
BeatmapSetID:1584423

[Difficulty]
HPDrainRate:6.5
CircleSize:4
OverallDifficulty:8.5
ApproachRate:9.3
SliderMultiplier:2
SliderTickRate:1

[Events]
//Background and Video events
0,0,"1.jpg",0,0
//Break Periods
//Storyboard Layer 0 (Background)
//Storyboard Layer 1 (Fail)
//Storyboard Layer 2 (Pass)
//Storyboard Layer 3 (Foreground)
//Storyboard Layer 4 (Overlay)
//Storyboard Sound Samples

[TimingPoints]
297,327.868852459016,4,2,1,40,1,0
297,-200,4,2,1,40,0,0
2919,-142.857142857143,4,2,1,40,0,0
5542,-142.857142857143,4,2,1,50,0,0
8165,-142.857142857143,4,3,1,50,0,0
8493,-142.857142857143,4,3,1,60,0,0
8821,-142.857142857143,4,3,1,70,0,0
9149,-142.857142857143,4,3,1,80,0,0
10624,-142.857142857143,4,3,1,5,0,0
10788,-142.857142857143,4,3,1,70,0,0
11608,-142.857142857143,4,3,1,50,0,0
11772,-142.857142857143,4,3,1,70,0,0
12100,-83.3333333333334,4,2,1,80,0,0
12345,-83.3333333333334,4,2,1,5,0,0
12428,-83.3333333333334,4,2,1,80,0,0
15378,-200,4,2,1,80,0,0
15870,-83.3333333333333,4,2,1,80,0,0
17263,-83.3333333333333,4,2,1,5,0,0
17346,-83.3333333333333,4,2,1,80,0,0
17591,-83.3333333333333,4,2,1,5,0,0
17674,-83.3333333333333,4,2,1,80,0,0
22509,-83.3333333333333,4,2,1,5,0,0
22592,-125,4,2,1,50,0,0
30133,-83.3333333333333,4,2,1,65,0,0
30378,-83.3333333333333,4,2,1,5,0,0
30460,-83.3333333333333,4,2,1,65,0,0
31853,-83.3333333333333,4,2,1,5,0,0
31936,-83.3333333333333,4,2,1,65,0,0
32181,-83.3333333333333,4,2,1,5,0,0
32264,-83.3333333333333,4,2,1,65,0,0
33083,-83.3333333333333,4,2,1,70,0,0
40869,-83.3333333333333,4,2,1,5,0,0
40952,-83.3333333333333,4,2,1,70,0,0
41689,-83.3333333333333,4,2,1,5,0,0
41772,-83.3333333333333,4,2,1,70,0,0
42345,-83.3333333333333,4,2,1,5,0,0
42428,-83.3333333333333,4,2,1,70,0,0
42673,-83.3333333333333,4,2,1,5,0,0
42756,-83.3333333333333,4,2,1,70,0,0
43492,-83.3333333333333,4,2,1,5,0,0
43575,-125,4,2,1,55,0,0
44231,-125,4,2,1,55,0,0
48657,-83.3333333333333,4,2,1,65,0,0
50133,-83.3333333333333,4,2,1,70,0,0
51444,-47.6190476190476,4,2,1,75,0,0
51772,-83.3333333333333,4,2,1,75,0,0
51936,-55.5555555555556,4,2,1,75,0,0
52181,-55.5555555555556,4,2,1,5,0,0
52264,-83.3333333333333,4,2,1,75,0,0
52428,-66.6666666666667,4,2,1,75,0,0
52592,-55.5555555555556,4,2,1,75,0,0
52837,-55.5555555555556,4,2,1,5,0,0
52919,-83.3333333333333,4,2,1,75,0,0
53083,-55.5555555555556,4,2,1,75,0,0
54231,-55.5555555555556,4,2,20,35,0,0
54313,-55.5555555555556,4,2,20,40,0,0
54395,-55.5555555555556,4,2,20,45,0,0
54477,-55.5555555555556,4,2,20,50,0,0
54559,-55.5555555555556,4,2,20,55,0,0
54641,-55.5555555555556,4,2,20,60,0,0
54723,327.868852459016,4,2,1,90,1,1
54723,-83.3333333333333,4,2,1,90,0,1
54968,-83.3333333333333,4,2,1,5,0,1
55050,-83.3333333333333,4,2,1,90,0,1
59886,-83.3333333333333,4,2,1,5,0,1
59968,-83.3333333333333,4,2,1,90,0,1
61197,-83.3333333333333,4,2,1,5,0,1
61280,-83.3333333333333,4,2,1,90,0,1
62508,-83.3333333333333,4,2,1,5,0,1
62591,-83.3333333333333,4,2,1,90,0,1
64395,-60.6060606060606,4,2,1,90,0,1
64640,-60.6060606060606,4,2,1,5,0,1
64722,-60.6060606060606,4,2,1,90,0,1
65459,-60.6060606060606,4,2,1,5,0,1
65542,-83.3333333333333,4,2,1,90,0,1
68985,-83.3333333333333,4,2,1,60,0,1
69149,-83.3333333333333,4,2,1,90,0,1
70377,-83.3333333333333,4,2,1,5,0,1
70460,-83.3333333333333,4,2,1,90,0,1
70788,-83.3333333333333,4,3,1,90,0,1
73083,-71.4285714285714,4,2,1,90,0,1
73328,-71.4285714285714,4,2,1,5,0,1
73411,-71.4285714285714,4,2,1,90,0,1
73820,-71.4285714285714,4,2,1,5,0,1
73903,-71.4285714285714,4,2,1,90,0,1
74312,-71.4285714285714,4,2,1,5,0,1
74395,-71.4285714285714,4,2,1,90,0,1
75623,-71.4285714285714,4,2,1,5,0,1
75707,-71.4285714285714,4,2,1,90,0,1
78001,-125,4,2,1,90,0,1
78246,-200,4,2,1,5,0,1
78329,-83.3333333333333,4,2,1,80,0,0
78574,-83.3333333333333,4,2,1,5,0,0
78657,-83.3333333333333,4,2,1,80,0,0
81608,-200,4,2,1,80,0,0
82100,-83.3333333333333,4,2,1,80,0,0
83492,-83.3333333333333,4,2,1,5,0,0
83575,-83.3333333333333,4,2,1,80,0,0
83820,-83.3333333333333,4,2,1,5,0,0
83903,-83.3333333333333,4,2,1,80,0,0
88738,-83.3333333333333,4,2,1,5,0,0
88821,-83.3333333333333,4,2,1,70,0,0
88903,-83.3333333333333,4,2,1,65,0,0
89477,-83.3333333333333,4,2,1,60,0,0
90132,-83.3333333333333,4,2,1,55,0,0
90788,-83.3333333333333,4,2,1,50,0,0
91444,-83.3333333333333,4,2,1,45,0,0
92100,-83.3333333333333,4,2,1,40,0,0
92755,-83.3333333333333,4,2,1,35,0,0
93411,-83.3333333333333,4,2,1,30,0,0
94067,-83.3333333333333,4,2,1,25,0,0

[Colours]
Combo1 : 140,140,198
Combo2 : 255,192,203
Combo3 : 254,205,193

[HitObjects]
449,320,133,5,0,0:0:0:0:
449,320,215,1,0,0:0:0:0:
449,320,297,6,0,L|389:339,1,50,10|2,0:0|0:0,0:0:0:0:
341,380,624,2,0,L|285:351,1,50,10|2,0:0|0:0,0:0:0:0:
222,344,952,2,0,L|202:284,1,50,10|2,0:0|0:0,0:0:0:0:
151,244,1280,2,0,L|179:188,1,50,10|2,0:0|0:0,0:0:0:0:
362,45,1608,6,0,L|338:89,1,50,8|2,0:0|0:0,0:0:0:0:
328,163,1935,2,0,L|280:178,1,50,8|2,0:0|0:0,0:0:0:0:
218,222,2263,2,0,L|173:198,1,50,10|2,0:0|0:0,0:0:0:0:
97,201,2591,2,0,L|81:153,1,50,10|0,0:0|3:0,0:0:0:0:
238,41,2919,6,0,P|229:74|222:109,2,69.9999978637696,10|2|10,0:3|0:0|0:0,0:0:0:0:
81,153,3411,2,0,P|71:83|52:16,1,139.999995727539,2|2,0:0|0:0,0:0:0:0:
222,109,3903,2,0,P|213:142|206:177,1,69.9999978637696,8|2,0:0|0:0,0:0:0:0:
5,219,4231,6,0,B|77:223|49:282|151:294,1,139.999995727539,10|8,0:0|0:0,0:0:0:0:
207,258,4723,1,2,0:0:0:0:
293,358,4887,6,0,L|298:312,1,34.9999989318848,8|0,0:0|0:0,0:0:0:0:
306,250,5051,1,2,3:0:0:0:
380,384,5215,6,0,L|385:338,1,34.9999989318848,10|0,3:0|0:0,0:0:0:0:
393,276,5379,1,8,0:0:0:0:
369,128,5542,5,10,3:0:0:0:
487,203,5706,1,2,0:0:0:0:
355,131,5870,1,10,0:0:0:0:
483,5,6034,2,0,P|459:70|441:138,1,139.999995727539,2|2,0:0|0:0,0:0:0:0:
306,250,6526,2,0,P|303:216|294:180,1,69.9999978637696,8|8,0:3|0:0,0:0:0:0:
118,64,6854,5,10,0:3:0:0:
262,93,7018,1,2,0:0:0:0:
107,53,7182,1,10,0:0:0:0:
144,241,7346,2,0,P|159:172|181:106,1,139.999995727539,2|2,0:0|3:0,0:0:0:0:
8,16,7837,2,0,P|16:50|21:84,1,69.9999978637696,8|0,0:3|0:0,0:0:0:0:
24,272,8165,5,10,0:2:0:0:
69,169,8329,1,10,0:0:0:0:
179,366,8493,5,10,0:0:0:0:
144,241,8657,1,10,0:0:0:0:
69,360,8821,5,10,0:0:0:0:
253,213,8985,1,10,0:0:0:0:
338,345,9149,5,10,0:0:0:0:
180,106,9313,1,12,0:2:0:0:
256,192,9395,12,0,10624,0:0:0:0:
372,79,10788,5,8,0:0:0:0:
230,272,10952,1,0,0:0:0:0:
254,107,11116,5,8,0:0:0:0:
361,234,11280,1,0,0:0:0:0:
240,90,11444,1,12,0:1:0:0:
477,33,11608,5,0,0:0:0:0:
477,33,11690,1,8,0:0:0:0:
477,33,11772,1,8,0:0:0:0:
472,67,11853,1,0,0:0:0:0:
467,102,11935,1,8,0:0:0:0:
462,137,12017,1,8,0:0:0:0:
458,171,12100,6,0,B|387:182|387:182|359:201|359:201|271:212,1,179.999994506836,6|0,0:1|0:0,0:0:0:0:
230,272,12428,2,0,P|201:221|216:164,1,119.999996337891,10|0,1:0|0:0,0:0:0:0:
323,67,12756,1,2,0:0:0:0:
426,253,12919,1,0,0:0:0:0:
216,164,13083,1,10,1:0:0:0:
477,33,13247,6,0,P|467:92|460:151,1,119.999996337891,2|0,0:0|0:0,0:0:0:0:
385,347,13575,2,0,B|397:370|397:370|391:338,1,59.9999981689454,2|2,0:0|0:0,0:0:0:0:
230,271,13739,2,0,B|290:266|290:266|297:269|297:269|368:263,1,119.999996337891,10|2,1:0|0:0,0:0:0:0:
426,253,13985,1,8,0:0:0:0:
426,253,14067,1,2,0:0:0:0:
280,374,14231,1,0,3:0:0:0:
216,164,14395,2,0,P|222:104|232:45,1,119.999996337891,10|0,1:0|0:0,0:0:0:0:
1,178,14723,5,2,0:0:0:0:
124,278,14887,1,2,0:0:0:0:
113,88,15051,1,10,1:0:0:0:
10,337,15215,1,2,0:0:0:0:
10,337,15296,1,2,0:0:0:0:
10,337,15378,6,0,L|20:299,1,25,0|0,3:0|0:0,0:0:0:0:
103,172,15542,2,0,L|109:196,1,25,2|0,0:0|0:0,0:0:0:0:
210,310,15706,2,0,L|216:285,1,25,8|0,1:0|0:0,0:0:0:0:
277,57,15870,6,0,P|276:161|378:138,1,239.999992675781,2|2,0:0|0:0,0:0:0:0:
464,22,16362,1,8,1:0:0:0:
509,247,16526,6,0,L|495:169,1,59.9999981689454,2|0,0:0|0:0,0:0:0:0:
493,164,16690,1,2,0:0:0:0:
400,319,16854,5,2,0:0:0:0:
396,299,16935,1,0,0:0:0:0:
392,279,17018,2,0,B|378:191|289:241|294:116,1,179.999994506836,8|0,1:0|0:0,0:0:0:0:
425,177,17346,6,0,P|339:203|255:236,1,179.999994506836,6|0,0:1|0:0,0:0:0:0:
200,298,17674,2,0,P|144:276|87:257,1,119.999996337891,10|0,1:0|0:0,0:0:0:0:
16,241,17919,1,8,0:0:0:0:
16,241,18002,1,10,2:0:0:0:
185,197,18165,1,10,2:0:0:0:
42,352,18329,1,8,1:0:0:0:
0,101,18493,6,0,P|59:94|118:84,1,119.999996337891,2|0,0:0|0:0,0:0:0:0:
298,14,18821,2,0,B|317:18|330:14|330:14|317:18|305:36,1,59.9999981689454,2|2,0:0|0:0,0:0:0:0:
185,197,18985,2,0,P|191:137|201:78,1,119.999996337891,10|2,1:0|0:0,0:0:0:0:
221,6,19231,1,8,0:0:0:0:
221,6,19313,1,2,0:0:0:0:
104,171,19477,1,0,3:0:0:0:
290,115,19641,2,0,P|299:174|306:233,1,119.999996337891,10|0,1:0|0:0,0:0:0:0:
391,384,19969,5,2,0:0:0:0:
374,160,20133,1,2,0:0:0:0:
183,280,20297,1,10,1:0:0:0:
411,369,20460,1,2,0:0:0:0:
411,369,20542,1,8,0:0:0:0:
411,369,20624,6,0,P|395:343|370:327,1,59.9999981689454,2|0,0:0|0:0,0:0:0:0:
355,151,20788,2,0,P|340:177|339:206,1,59.9999981689454,2|0,0:0|0:0,0:0:0:0:
188,302,20952,2,0,P|217:301|244:287,1,59.9999981689454,8|0,1:0|0:0,0:0:0:0:
404,87,21116,6,0,B|349:45|286:93|290:99|292:105|238:146|182:113,1,239.999992675781,2|2,0:0|0:0,0:0:0:0:
19,33,21608,1,10,1:0:0:0:
80,187,21772,5,0,3:0:0:0:
85,157,21854,1,0,3:0:0:0:
90,127,21935,1,8,1:0:0:0:
252,247,22100,5,0,3:0:0:0:
248,267,22181,1,0,0:0:0:0:
244,287,22264,2,0,B|208:336|206:379|206:379|208:336|183:298,1,179.999994506836,8|0,1:0|0:0,0:0:0:0:
161,223,22592,5,4,0:1:0:0:
161,223,22756,1,0,3:0:0:0:
114,361,22919,2,0,P|99:320|102:282,1,80,10|2,0:1|0:0,0:0:0:0:
229,175,23247,1,2,3:0:0:0:
168,112,23411,2,0,L|68:130,1,80,2|8,3:0|0:1,0:0:0:0:
0,145,23739,5,2,3:0:0:0:
0,145,24067,5,2,3:0:0:0:
161,223,24231,1,10,0:1:0:0:
161,223,24559,5,2,3:0:0:0:
265,159,24723,1,0,3:0:0:0:
426,237,24887,1,10,0:1:0:0:
425,236,25215,6,0,P|422:197|427:157,1,80,2|2,3:0|3:0,0:0:0:0:
496,35,25542,1,8,0:1:0:0:
349,126,25706,5,2,0:0:0:0:
349,126,26034,5,2,3:0:0:0:
510,204,26198,1,10,0:1:0:0:
350,312,26362,1,2,3:0:0:0:
350,312,26690,5,2,3:0:0:0:
202,231,26854,1,10,0:1:0:0:
269,102,27018,2,0,P|265:122|261:142,2,40,0|0|2,3:0|0:0|0:0,0:0:0:0:
110,240,27346,1,0,3:0:0:0:
112,222,27427,1,0,3:0:0:0:
117,200,27509,1,10,0:1:0:0:
230,311,27674,1,0,3:0:0:0:
77,371,27837,5,2,3:0:0:0:
77,371,28001,1,0,3:0:0:0:
230,310,28165,2,0,P|269:312|307:324,1,80,10|0,0:1|0:0,0:0:0:0:
410,167,28493,1,2,0:0:0:0:
321,197,28657,2,0,P|281:195|243:183,1,80,2|8,3:0|0:1,0:0:0:0:
164,118,28985,5,2,3:0:0:0:
164,118,29313,5,2,3:0:0:0:
312,34,29477,1,10,0:1:0:0:
312,34,29805,5,2,3:0:0:0:
410,167,29969,1,0,3:0:0:0:
410,167,30051,1,0,3:0:0:0:
410,167,30133,2,0,B|379:256|470:243|444:335,1,179.999994506836,10|0,0:1|0:0,0:0:0:0:
365,309,30460,6,0,B|348:308|331:317|331:317|348:307|354:289,1,59.9999981689454,2|0,0:0|0:0,0:0:0:0:
493,198,30624,1,2,0:0:0:0:
373,384,30788,1,8,0:1:0:0:
204,223,30952,2,0,P|263:221|321:206,1,119.999996337891,2|0,0:0|3:0,0:0:0:0:
489,107,31280,1,2,0:0:0:0:
365,309,31444,1,8,0:1:0:0:
268,43,31608,6,0,B|245:127|341:131|320:210,1,179.999994506836,14|0,0:3|0:0,0:0:0:0:
235,186,31936,2,0,B|257:101|342:146|363:67,1,179.999994506836,14|0,0:3|0:0,0:0:0:0:
332,0,32264,5,14,0:3:0:0:
321,205,32428,1,0,3:0:0:0:
185,52,32592,1,2,0:0:0:0:
399,166,32756,1,10,0:0:0:0:
208,298,32919,1,8,0:0:0:0:
208,298,33001,1,8,0:0:0:0:
208,298,33083,6,0,P|151:284|89:278,1,119.999996337891,4|2,1:0|0:0,0:0:0:0:
4,190,33411,1,10,0:0:0:0:
35,340,33575,1,2,3:0:0:0:
38,355,33657,1,0,3:0:0:0:
41,370,33738,1,10,0:0:0:0:
200,199,33903,1,0,3:0:0:0:
17,269,34067,1,10,1:0:0:0:
175,384,34231,1,0,3:0:0:0:
113,112,34395,6,0,P|104:171|98:231,1,119.999996337891,10|2,0:0|3:0,0:0:0:0:
297,338,34723,2,0,P|291:278|282:218,1,119.999996337891,10|2,1:0|3:0,0:0:0:0:
264,142,34969,1,0,3:0:0:0:
264,142,35051,1,8,0:0:0:0:
353,178,35215,1,2,3:0:0:0:
334,84,35378,1,10,0:0:0:0:
423,120,35542,1,10,1:0:0:0:
282,218,35706,6,0,P|216:207|186:160,1,119.999996337891,8|2,0:0|3:0,0:0:0:0:
137,4,36034,1,10,1:0:0:0:
21,132,36198,1,2,3:0:0:0:
21,132,36280,1,0,3:0:0:0:
21,132,36362,1,10,0:0:0:0:
210,71,36526,1,0,3:0:0:0:
42,35,36690,1,10,0:0:0:0:
95,198,36854,1,8,1:0:0:0:
263,0,37018,6,0,L|379:27,1,119.999996337891,10|2,0:0|0:3,0:0:0:0:
462,133,37264,1,0,0:3:0:0:
462,133,37346,2,0,L|345:105,1,119.999996337891,10|2,1:0|3:0,0:0:0:0:
199,164,37592,1,0,3:0:0:0:
199,164,37674,2,0,L|316:192,1,119.999996337891,8|2,0:0|3:0,0:0:0:0:
384,384,38001,1,10,1:0:0:0:
512,244,38165,1,2,0:0:0:0:
315,191,38329,6,0,P|304:250|298:309,1,119.999996337891,4|2,1:0|0:0,0:0:0:0:
153,354,38657,1,10,1:0:0:0:
66,172,38821,1,2,3:0:0:0:
51,168,38902,1,0,3:0:0:0:
37,165,38984,1,10,0:0:0:0:
217,286,39149,1,0,3:0:0:0:
56,376,39313,1,10,0:0:0:0:
175,184,39477,1,8,1:0:0:0:
0,67,39641,6,0,L|140:105,1,119.999996337891,10|2,0:0|3:0,0:0:0:0:
217,286,39969,2,0,L|77:248,1,119.999996337891,10|2,1:0|3:0,0:0:0:0:
27,234,40215,1,0,3:0:0:0:
27,234,40296,1,8,0:0:0:0:
237,87,40460,2,0,P|246:115|253:144,1,59.9999981689454,0|0,3:0|3:0,0:0:0:0:
344,317,40624,6,0,P|359:228|378:140,1,179.999994506836,10|0,1:0|0:0,0:0:0:0:
398,62,40952,1,6,0:0:0:0:
480,272,41116,1,2,0:0:0:0:
253,144,41280,1,10,1:0:0:0:
493,187,41444,6,0,P|407:214|322:244,1,179.999994506836,2|0,3:0|0:0,0:0:0:0:
260,295,41772,2,0,P|203:275|144:263,1,119.999996337891,2|10,3:0|1:0,0:0:0:0:
38,148,42100,6,0,B|-2:230|103:226|62:331,1,179.999994506836,10|0,0:0|0:0,0:0:0:0:
0,298,42428,2,0,B|6:206|95:262|112:151,1,179.999994506836,8|0,0:0|0:0,0:0:0:0:
92,74,42756,5,8,1:0:0:0:
275,141,42919,1,2,3:0:0:0:
166,9,43083,1,10,1:0:0:0:
199,202,43247,2,0,P|271:179|385:166,1,179.999994506836,10|0,0:0|0:0,0:0:0:0:
457,171,43575,6,0,P|445:208|440:248,1,80,6|0,1:0|0:0,0:0:0:0:
366,329,43903,2,0,P|361:289|348:251,1,80,2|0,0:0|0:0,0:0:0:0:
275,141,44231,2,0,P|195:133|118:112,1,160,10|2,1:0|3:0,0:0:0:0:
20,66,44723,5,2,0:0:0:0:
20,66,45051,1,2,0:0:0:0:
20,66,45542,5,10,1:0:0:0:
29,145,45706,1,2,0:0:0:0:
38,224,45870,1,2,3:0:0:0:
38,224,46198,6,0,P|77:236|112:254,1,80,2|0,0:0|3:0,0:0:0:0:
169,342,46526,2,0,P|204:324|243:312,1,80,2|0,3:0|0:0,0:0:0:0:
398,215,46854,2,0,P|400:286|329:284,1,160,10|2,1:0|3:0,0:0:0:0:
308,194,47346,5,2,3:0:0:0:
308,194,47674,1,2,0:0:0:0:
308,194,48165,5,8,1:0:0:0:
324,95,48329,1,2,3:0:0:0:
340,0,48493,1,10,1:0:0:0:
443,88,48657,6,0,P|325:111|209:142,1,239.999992675781,6|2,0:0|3:0,0:0:0:0:
126,159,49067,1,0,3:0:0:0:
125,158,49149,2,0,P|129:128|139:100,3,59.9999981689454,10|0|0|0,0:0|3:0|3:0|3:0,0:0:0:0:
217,272,49477,6,0,P|208:243|194:216,1,59.9999981689454,10|0,0:0|3:0,0:0:0:0:
125,269,49641,2,0,P|104:290|88:316,1,59.9999981689454,2|0,3:0|3:0,0:0:0:0:
170,352,49805,2,0,P|199:358|229:360,1,59.9999981689454,10|0,0:0|3:0,0:0:0:0:
311,251,49969,1,2,0:0:0:0:
311,251,50051,1,0,3:0:0:0:
311,251,50133,6,0,P|315:280|319:310,3,59.9999981689454,8|0|0|0,0:0|0:0|3:0|3:0,0:0:0:0:
407,207,50460,2,0,P|410:177|415:147,3,59.9999981689454,10|0|0|0,0:0|0:0|3:0|3:0,0:0:0:0:
393,55,50788,5,10,0:0:0:0:
348,60,50869,1,0,3:0:0:0:
303,66,50951,1,0,3:0:0:0:
259,73,51033,1,8,0:0:0:0:
214,79,51115,1,10,0:0:0:0:
170,86,51197,1,0,3:0:0:0:
125,92,51280,1,8,0:1:0:0:
81,99,51361,1,8,0:1:0:0:
36,107,51444,6,0,B|23:119|-1:117|-1:117|63:132|120:163|120:163|100:145|102:130,1,209.999993591309,6|0,0:0|3:0,0:0:0:0:
143,20,51690,1,8,0:0:0:0:
143,20,51772,2,0,L|159:77,1,59.9999981689454,10|0,0:0|0:0,0:0:0:0:
189,263,51936,6,0,P|297:185|429:162,1,269.999991760254,6|0,0:0|0:0,0:0:0:0:
506,144,52264,2,0,P|508:173|497:201,1,59.9999981689454,2|0,3:0|0:0,0:0:0:0:
493,311,52428,2,0,P|454:320|415:313,1,75.0000028610231,10|0,0:1|0:0,0:0:0:0:
308,369,52592,6,0,B|233:226|391:246|328:107,1,269.999991760254,6|0,0:0|0:0,0:0:0:0:
336,39,52919,2,0,L|243:68,1,59.9999981689454,10|0,0:0|0:0,0:0:0:0:
219,160,53083,2,0,L|133:133,1,89.9999972534181,10|0,0:0|0:0,0:0:0:0:
0,67,53247,1,0,3:0:0:0:
0,67,53329,1,0,3:0:0:0:
0,67,53411,5,10,0:1:0:0:
8,114,53492,1,0,0:0:0:0:
16,161,53574,1,0,3:0:0:0:
24,208,53656,1,0,3:0:0:0:
32,255,53738,1,10,0:1:0:0:
32,255,54067,5,0,0:0:0:0:
51,245,54149,1,0,0:0:0:0:
77,245,54231,1,0,0:0:0:0:
109,253,54313,1,0,0:0:0:0:
138,278,54395,1,0,0:0:0:0:
167,311,54477,1,0,0:0:0:0:
216,328,54559,1,0,0:0:0:0:
271,303,54641,1,0,0:0:0:0:
302,239,54723,6,0,L|319:45,1,179.999994506836,6|0,0:1|0:0,0:0:0:0:
368,0,55050,2,0,P|403:46|389:102,1,119.999996337891,10|0,0:1|0:0,0:0:0:0:
218,160,55378,1,2,3:0:0:0:
392,292,55542,1,2,3:0:0:0:
208,153,55706,1,8,0:1:0:0:
368,0,55870,6,0,P|249:20|132:47,1,239.999992675781,2|2,3:0|0:0,0:0:0:0:
0,97,56362,1,10,0:1:0:0:
220,247,56526,1,2,0:0:0:0:
220,247,56608,1,0,0:0:0:0:
220,247,56690,1,0,3:0:0:0:
132,47,56854,5,2,3:0:0:0:
109,160,57017,1,10,0:1:0:0:
86,274,57182,1,2,0:0:0:0:
366,384,57345,6,0,B|331:361|274:336|274:336|301:282|324:209,1,239.999992675781,2|8,3:0|0:1,0:0:0:0:
378,44,57837,1,10,0:0:0:0:
378,44,57919,1,8,0:0:0:0:
378,44,58001,1,2,0:0:0:0:
443,253,58165,1,0,3:0:0:0:
278,122,58329,1,8,0:1:0:0:
476,48,58493,1,2,3:0:0:0:
324,209,58657,6,0,B|233:227|233:227|196:270|196:270|94:293,1,239.999992675781,2|8,0:0|0:1,0:0:0:0:
306,306,59149,1,2,3:0:0:0:
138,190,59313,1,2,0:0:0:0:
58,382,59477,1,0,3:0:0:0:
123,106,59641,6,0,B|188:120|188:120|217:152|217:152|284:166,1,179.999994506836,8|0,0:1|0:0,0:0:0:0:
341,233,59968,2,0,P|371:183|356:126,1,119.999996337891,6|0,0:1|0:0,0:0:0:0:
139,0,60296,2,0,P|108:49|123:106,1,119.999996337891,10|0,0:1|0:0,0:0:0:0:
306,306,60624,1,2,3:0:0:0:
256,77,60788,1,0,3:0:0:0:
52,207,60952,2,0,P|134:230|227:271,1,179.999994506836,10|0,0:1|0:0,0:0:0:0:
306,306,61280,5,6,0:1:0:0:
111,349,61444,1,0,3:0:0:0:
179,164,61608,1,8,0:1:0:0:
224,384,61772,5,10,0:0:0:0:
224,384,61854,1,8,0:0:0:0:
224,384,61936,1,2,3:0:0:0:
290,177,62100,1,0,3:0:0:0:
69,245,62263,2,0,B|35:228|-2:216|-2:216|18:170|34:120,1,179.999994506836,10|0,0:1|0:0,0:0:0:0:
40,39,62591,6,0,P|99:61|158:75,1,119.999996337891,6|0,0:1|0:0,0:0:0:0:
411,30,62919,1,10,0:1:0:0:
290,177,63083,1,2,3:0:0:0:
290,177,63165,1,0,3:0:0:0:
290,177,63247,1,8,0:1:0:0:
243,8,63411,1,2,0:0:0:0:
437,227,63575,1,8,0:1:0:0:
168,301,63739,6,0,P|173:241|180:181,1,119.999996337891,6|0,0:0|0:0,0:0:0:0:
375,123,64067,1,2,3:0:0:0:
375,123,64149,1,0,0:0:0:0:
375,123,64231,2,0,B|405:119|405:119|377:149,1,59.9999981689454,4|0,1:0|0:0,0:0:0:0:
405,366,64395,6,0,P|288:323|167:300,1,247.500002360344,4|0,0:0|0:0,0:0:0:0:
87,350,64722,1,0,3:0:0:0:
77,335,64804,1,0,3:0:0:0:
74,313,64886,1,8,3:1:0:0:
82,282,64968,1,8,3:1:0:0:
111,248,65050,1,8,3:1:0:0:
135,195,65132,1,8,3:1:0:0:
91,139,65214,6,0,L|127:394,1,247.500002360344,6|0,0:0|0:0,0:0:0:0:
217,384,65542,2,0,B|246:328|246:328|194:275,1,119.999996337891,10|0,0:1|0:0,0:0:0:0:
12,210,65870,1,2,3:0:0:0:
193,77,66034,1,2,3:0:0:0:
7,233,66198,1,8,0:1:0:0:
165,2,66362,6,0,B|227:-22|270:30|265:34|259:39|312:109|397:68,1,239.999992675781,2|2,3:0|3:0,0:0:0:0:
448,257,66854,1,10,0:1:0:0:
344,0,67018,1,2,3:0:0:0:
344,0,67100,1,8,0:0:0:0:
344,0,67182,1,0,3:0:0:0:
510,108,67345,5,2,3:0:0:0:
401,148,67508,1,10,0:1:0:0:
292,188,67673,1,2,0:0:0:0:
429,350,67837,6,0,P|403:334|375:324,1,59.9999981689454,2|0,3:0|0:0,0:0:0:0:
188,147,68001,1,0,3:0:0:0:
188,147,68083,1,0,3:0:0:0:
188,147,68165,6,0,P|208:265|224:384,1,239.999992675781,12|2,0:1|3:0,0:0:0:0:
120,219,68657,1,0,3:0:0:0:
299,330,68821,1,8,0:1:0:0:
78,307,68985,2,0,B|48:324|48:324|73:292,1,59.9999981689454,6|0,0:0|0:0,0:0:0:0:
188,147,69149,6,0,P|304:173|421:201,1,239.999992675781,2|8,0:0|0:1,0:0:0:0:
290,93,69641,1,2,0:0:0:0:
443,275,69804,1,2,0:0:0:0:
416,32,69968,1,0,3:0:0:0:
210,234,70132,2,0,P|126:216|105:133,1,179.999994506836,8|0,0:1|0:0,0:0:0:0:
213,29,70460,6,0,P|198:87|187:146,1,119.999996337891,10|0,0:0|0:0,0:0:0:0:
161,354,70788,1,8,0:0:0:0:
105,133,70952,1,2,0:0:0:0:
105,133,71034,1,0,0:0:0:0:
105,133,71116,1,8,0:0:0:0:
275,295,71280,1,0,0:0:0:0:
40,378,71444,2,0,B|11:333|11:333|39:272,1,119.999996337891,10|0,0:0|0:0,0:0:0:0:
142,60,71772,5,10,0:0:0:0:
193,279,71936,1,0,0:0:0:0:
229,31,72100,5,10,0:0:0:0:
113,305,72263,1,0,0:0:0:0:
300,88,72427,5,8,0:0:0:0:
39,272,72591,2,0,B|16:298|16:298|19:273,1,59.9999981689454
12,10,72755,1,10,0:0:0:0:
12,10,72837,1,8,0:0:0:0:
12,10,72919,2,0,P|41:16|69:26,1,59.9999981689454
106,155,73083,6,0,B|184:137|184:137|213:108|213:108|312:84,1,209.999993591309,4|0,0:0|0:0,0:0:0:0:
360,35,73411,2,0,P|376:65|378:100,1,69.9999978637696,8|0,1:0|0:0,0:0:0:0:
418,351,73575,6,0,P|324:351|334:259,1,209.999993591309,8|0,0:0|0:0,0:0:0:0:
354,185,73903,2,0,P|384:201|404:229,1,69.9999978637696,8|0,1:0|0:0,0:0:0:0:
193,384,74067,6,0,P|193:279|185:174,1,209.999993591309,8|0,0:0|0:0,0:0:0:0:
166,95,74395,1,8,0:0:0:0:
334,259,74559,1,8,1:0:0:0:
108,345,74722,1,0,3:0:0:0:
271,65,74886,6,0,P|280:98|272:132,1,69.9999978637696,8|0,1:0|0:0,0:0:0:0:
235,244,75050,2,0,P|203:258|168:257,1,69.9999978637696,8|0,1:0|0:0,0:0:0:0:
1,75,75214,1,0,3:0:0:0:
1,75,75296,1,0,3:0:0:0:
1,75,75378,2,0,P|96:118|185:174,1,209.999993591309,8|0,1:0|0:0,0:0:0:0:
235,244,75707,5,12,1:0:0:0:
264,235,75788,1,0,0:0:0:0:
293,229,75870,1,0,3:0:0:0:
323,224,75952,1,0,3:0:0:0:
353,220,76034,2,0,P|387:213|422:209,1,69.9999978637696,0|0,3:0|3:0,0:0:0:0:
458,30,76198,5,8,1:0:0:0:
429,39,76279,1,0,0:0:0:0:
400,45,76361,1,8,0:0:0:0:
370,50,76443,1,0,3:0:0:0:
340,54,76525,2,0,P|305:60|270:64,1,69.9999978637696,0|0,3:0|3:0,0:0:0:0:
77,24,76690,5,8,1:0:0:0:
86,68,76771,1,0,3:0:0:0:
94,113,76853,1,0,3:0:0:0:
101,159,76935,1,0,3:0:0:0:
107,203,77018,2,0,P|112:238|117:273,1,69.9999978637696,8|0,0:0|0:0,0:0:0:0:
126,384,77182,1,4,0:0:0:0:
126,384,77509,5,4,0:0:0:0:
77,24,77673,1,4,0:0:0:0:
188,127,77837,1,0,3:0:0:0:
188,127,77919,1,0,3:0:0:0:
188,126,78001,2,0,P|242:98|305:105,1,120,0|0,3:0|0:0,0:0:0:0:
448,68,78329,6,0,P|473:146|397:178,1,179.999994506836,6|0,0:1|0:0,0:0:0:0:
340,231,78657,2,0,P|319:181|346:120,1,119.999996337891,10|0,1:0|0:0,0:0:0:0:
448,68,78985,1,2,0:0:0:0:
240,193,79148,1,0,0:0:0:0:
418,256,79312,1,10,1:0:0:0:
286,32,79477,6,0,B|231:41|231:41|229:46|229:46|151:59,1,119.999996337891,2|0,0:0|0:0,0:0:0:0:
17,184,79804,2,0,P|-5:194|8:170,1,59.9999981689454,2|2,0:0|0:0,0:0:0:0:
93,7,79968,2,0,P|85:66|79:126,1,119.999996337891,10|2,1:0|0:0,0:0:0:0:
97,207,80214,1,8,0:0:0:0:
97,207,80296,1,2,0:0:0:0:
0,61,80460,1,0,3:0:0:0:
137,280,80624,2,0,P|194:262|253:255,1,119.999996337891,10|0,1:0|0:0,0:0:0:0:
418,256,80952,5,2,0:0:0:0:
224,371,81116,1,2,0:0:0:0:
335,190,81280,1,10,1:0:0:0:
442,384,81445,1,2,0:0:0:0:
442,384,81526,1,2,0:0:0:0:
442,384,81608,6,0,L|452:346,1,25,0|0,3:0|0:0,0:0:0:0:
341,204,81771,2,0,L|347:228,1,25,2|0,0:0|0:0,0:0:0:0:
498,142,81935,2,0,L|504:117,1,25,8|0,1:0|0:0,0:0:0:0:
346,24,82100,6,0,B|250:37|250:37|223:69|223:69|122:82,1,239.999992675781,2|2,0:0|0:0,0:0:0:0:
307,112,82591,1,8,1:0:0:0:
107,0,82755,6,0,L|117:59,1,59.9999981689454,2|0,0:0|0:0,0:0:0:0:
123,83,82919,1,2,0:0:0:0:
127,256,83083,5,2,0:0:0:0:
123,236,83164,1,0,0:0:0:0:
119,216,83247,2,0,B|105:128|16:178|21:53,1,179.999994506836,8|0,1:0|0:0,0:0:0:0:
13,212,83575,6,0,P|99:186|183:153,1,179.999994506836,6|0,0:1|0:0,0:0:0:0:
229,85,83903,2,0,P|263:136|254:195,1,119.999996337891,10|0,1:0|0:0,0:0:0:0:
231,269,84148,1,8,0:0:0:0:
231,269,84231,1,10,2:0:0:0:
346,55,84394,1,10,2:0:0:0:
182,153,84558,1,8,1:0:0:0:
420,311,84722,6,0,P|417:251|427:192,1,119.999996337891,2|0,0:0|0:0,0:0:0:0:
470,52,85050,2,0,B|489:56|502:52|502:52|489:56|477:74,1,59.9999981689454,2|2,0:0|0:0,0:0:0:0:
300,168,85214,2,0,P|240:162|181:152,1,119.999996337891,10|2,1:0|0:0,0:0:0:0:
99,129,85460,1,8,0:0:0:0:
99,129,85542,1,2,0:0:0:0:
231,269,85706,1,0,3:0:0:0:
316,49,85870,2,0,P|308:108|299:167,1,119.999996337891,10|0,1:0|0:0,0:0:0:0:
82,363,86198,5,2,0:0:0:0:
304,340,86362,1,2,0:0:0:0:
181,152,86526,1,10,1:0:0:0:
97,381,86689,1,2,0:0:0:0:
97,381,86771,1,8,0:0:0:0:
97,381,86853,6,0,P|122:364|138:339,1,59.9999981689454,2|0,0:0|0:0,0:0:0:0:
313,322,87017,2,0,P|286:307|257:306,1,59.9999981689454,2|0,0:0|0:0,0:0:0:0:
159,156,87181,2,0,P|160:184|174:211,1,59.9999981689454,8|0,1:0|0:0,0:0:0:0:
401,383,87345,6,0,P|404:264|427:146,1,239.999992675781,2|2,0:0|0:0,0:0:0:0:
494,8,87837,1,10,1:0:0:0:
261,79,88001,5,0,3:0:0:0:
237,75,88082,1,0,3:0:0:0:
214,71,88164,1,8,1:0:0:0:
463,243,88329,5,0,3:0:0:0:
405,253,88410,1,0,3:0:0:0:
346,264,88493,2,0,L|168:291,1,179.999994506836,8|0,1:0|0:0,0:0:0:0:
0,321,88821,5,4,0:0:0:0:
256,192,88903,12,0,94067,0:0:0:0:
