osu file format v14

[General]
AudioFilename: audio.mp3
AudioLeadIn: 0
PreviewTime: 26773
Countdown: 0
SampleSet: Soft
StackLeniency: 0.7
Mode: 2
LetterboxInBreaks: 0
WidescreenStoryboard: 0

[Editor]
Bookmarks: 8961,17532,35746
DistanceSpacing: 1
BeatDivisor: 4
GridSize: 4
TimelineZoom: 2.4

[Metadata]
Title:The Magikarp Song
TitleUnicode:コイキングのうた「I LOVE コイキング」
Artist:KoikinGO
ArtistUnicode:コイキンGO
Creator:tasuke912
Version:Overdose
Source:
Tags:Pokemon Koiking no Uta
BeatmapID:1310990
BeatmapSetID:621359

[Difficulty]
HPDrainRate:6
CircleSize:3.8
OverallDifficulty:8.8
ApproachRate:8.8
SliderMultiplier:2.1
SliderTickRate:2

[Events]
//Background and Video events
0,0,"BG.png",0,0
//Break Periods
//Storyboard Layer 0 (Background)
//Storyboard Layer 1 (Fail)
//Storyboard Layer 2 (Pass)
//Storyboard Layer 3 (Foreground)
//Storyboard Sound Samples

[TimingPoints]
390,535.714285714286,4,2,1,65,1,0
24229,-100,4,2,1,40,0,0
24497,-100,4,2,1,65,0,0
24765,-100,4,2,1,40,0,0
25032,-66.6666666666667,4,2,3,65,0,0
25300,-66.6666666666667,4,2,3,40,0,0
26640,-66.6666666666667,4,2,1,30,0,0
27175,535.714285714286,4,2,1,65,1,1
27175,-90.9090909090909,4,2,1,65,0,1
43246,-66.6666666666667,4,2,1,65,0,1
44050,-66.6666666666667,4,2,1,30,0,1
44317,-100,4,2,2,40,0,0

[Colours]
Combo1 : 255,128,128
Combo2 : 0,128,255
Combo3 : 255,255,128
Combo4 : 255,0,0

[HitObjects]
433,47,8247,5,8,3:3:0:0:
434,73,8336,1,8,3:3:0:0:
436,99,8425,2,8,L|435:213,1,105,8|8,3:3|3:3,3:3:0:0:
104,73,8961,5,6,0:0:0:0:
263,170,9229,1,0,0:0:0:0:
50,238,9497,2,0,P|36:288|49:338,1,105,8|0,0:0|0:0,0:0:0:0:
407,311,10032,1,2,0:0:0:0:
249,214,10300,1,0,0:0:0:0:
462,146,10568,2,0,P|476:96|463:46,1,105,8|0,0:0|0:0,0:0:0:0:
114,85,11104,5,2,0:0:0:0:
320,88,11372,1,0,0:0:0:0:
256,88,11506,1,0,0:0:0:0:
191,87,11640,1,8,0:0:0:0:
398,85,11907,1,0,0:0:0:0:
47,195,12175,2,0,L|28:332,1,105,2|0,0:0|0:0,0:0:0:0:
477,195,12711,2,0,L|496:332,1,105,8|8,0:2|0:0,0:0:0:0:
101,99,13247,5,2,0:0:0:0:
276,122,13515,2,0,L|283:248,1,105,0|8,0:0|0:0,0:0:0:0:
80,272,14050,1,0,0:0:0:0:
411,99,14318,1,2,0:0:0:0:
236,122,14586,2,0,L|229:248,1,105,0|8,0:0|0:0,0:0:0:0:
432,272,15122,1,0,0:0:0:0:
95,96,15390,6,0,L|80:242,1,105,6|0,0:0|0:0,0:0:0:0:
417,96,15925,2,0,L|432:242,1,105,6|0,0:0|0:0,0:0:0:0:
35,356,16461,2,0,L|18:219,1,105,6|0,0:0|0:0,0:0:0:0:
260,157,16997,1,8,0:0:0:0:
51,42,17265,1,8,0:0:0:0:
436,173,17532,5,6,0:0:0:0:
187,175,17800,2,0,L|42:174,2,105,0|8|0,0:0|0:0|0:0,0:0:0:0:
383,275,18604,2,0,L|259:274,1,105,2|0,0:0|0:0,0:0:0:0:
61,318,19140,2,0,L|185:317,1,105,8|0,0:0|0:0,0:0:0:0:
496,84,19675,5,2,0:0:0:0:
256,28,19943,1,0,0:0:0:0:
256,72,20077,1,0,0:0:0:0:
256,112,20211,1,8,0:0:0:0:
16,84,20479,1,0,0:0:0:0:
364,192,20747,2,0,L|397:329,1,105,2|0,0:0|0:0,0:0:0:0:
148,192,21282,2,0,L|115:324,1,105,8|8,0:2|0:0,0:0:0:0:
464,175,21818,5,2,0:0:0:0:
260,132,22086,1,0,0:0:0:0:
462,79,22354,2,0,P|481:126|463:175,1,105,8|0,0:0|0:0,0:0:0:0:
48,208,22890,1,2,0:0:0:0:
252,252,23157,1,0,0:0:0:0:
49,304,23425,2,0,P|30:257|48:208,1,105,8|0,0:0|0:0,0:0:0:0:
401,48,23961,6,0,P|435:108|376:187,1,157.5,6|0,0:0|0:0,0:0:0:0:
111,48,24497,2,0,P|77:108|136:187,1,157.5,6|0,0:0|0:0,0:0:0:0:
368,364,25032,6,0,P|324:40|278:363,1,945.000036048891,14|0,0:0|0:0,0:0:0:0:
49,335,26907,1,0,0:0:0:0:
416,328,27175,6,0,L|443:191,1,115.50000352478,6|0,0:0|0:0,0:0:0:0:
192,72,27710,2,0,L|205:186,1,115.50000352478,8|0,0:0|0:0,0:0:0:0:
469,177,28246,2,0,L|456:63,1,115.50000352478,2|0,0:0|0:3,0:3:0:0:
124,128,28782,1,8,0:0:0:0:
455,62,29050,1,0,0:3:0:0:
96,324,29317,6,0,L|69:187,1,115.50000352478,2|0,3:2|0:0,0:0:0:0:
320,72,29853,2,0,L|307:186,1,115.50000352478,8|0,0:0|0:0,0:0:0:0:
43,177,30389,2,0,L|56:63,1,115.50000352478,2|8,0:0|3:2,0:3:0:0:
388,128,30925,1,8,3:2:0:0:
57,62,31192,1,0,0:0:0:0:
456,288,31460,5,2,0:2:0:0:
232,260,31728,1,0,0:0:0:0:
474,217,31996,2,0,P|491:162|476:107,1,115.50000352478,8|0,0:0|0:0,0:0:0:0:
56,96,32532,1,2,0:0:0:0:
280,124,32800,1,0,0:0:0:0:
38,167,33067,2,0,P|20:221|35:276,1,115.50000352478,8|0,0:0|0:0,0:0:0:0:
368,40,33603,5,2,0:2:0:0:
144,40,33871,1,0,0:0:0:0:
376,40,34139,1,8,0:0:0:0:
136,40,34407,1,0,0:0:0:0:
492,88,34675,2,0,P|510:143|493:197,1,115.50000352478,2|8,0:0|0:0,0:0:0:0:
164,240,35210,1,8,0:0:0:0:
400,328,35478,1,0,0:0:0:0:
72,328,35746,6,0,L|45:191,1,115.50000352478,6|0,0:0|0:0,0:0:0:0:
304,72,36282,2,0,L|291:186,1,115.50000352478,8|0,0:0|0:0,0:0:0:0:
28,176,36817,2,0,L|41:62,1,115.50000352478,2|0,0:0|0:3,0:3:0:0:
384,128,37353,1,8,0:0:0:0:
57,62,37621,1,0,0:0:0:0:
432,328,37889,6,0,L|459:191,1,115.50000352478,2|0,0:2|0:0,0:0:0:0:
208,72,38425,2,0,L|221:186,1,115.50000352478,8|0,0:0|0:0,0:0:0:0:
484,176,38960,2,0,L|471:62,1,115.50000352478,2|8,0:0|3:2,0:3:0:0:
128,128,39496,1,8,3:2:0:0:
455,62,39764,1,0,0:0:0:0:
44,318,40032,5,2,0:2:0:0:
276,203,40300,1,0,0:0:0:0:
84,95,40567,1,8,0:0:0:0:
325,330,40835,1,0,0:0:0:0:
107,203,41103,1,2,0:0:0:0:
465,65,41371,1,0,0:0:0:0:
134,315,41639,2,0,P|81:328|11:310,1,115.50000352478,8|0,0:0|0:0,0:0:0:0:
443,31,42175,6,0,P|507:64|448:107,1,173.250005287171,6|0,0:0|0:0,0:0:0:0:
221,200,42710,2,0,P|201:257|299:232,1,173.250005287171,6|0,0:0|0:0,0:0:0:0:
26,117,43246,2,0,P|7:198|70:90,1,472.500018024445,6|0,0:0|0:0,0:0:0:0:
440,32,44317,5,2,0:0:0:0:
456,32,44585,1,0,0:0:0:0:
468,32,44853,1,0,0:0:0:0:
72,32,45389,1,2,0:0:0:0:
56,32,45657,1,0,0:0:0:0:
44,32,45925,1,0,0:0:0:0:
364,108,46427,5,2,0:0:0:0:
368,120,46460,2,0,L|373:224,1,105,2|0,0:0|0:0,0:0:0:0:
144,120,46996,2,0,L|139:224,1,105,2|0,0:0|0:0,0:0:0:0:
478,59,47532,2,0,L|489:286,1,210,2|0,0:0|0:0,0:0:0:0:
