osu file format v14

[General]
AudioFilename: audio.mp3
AudioLeadIn: 0
PreviewTime: 26773
Countdown: 0
SampleSet: Normal
StackLeniency: 0.7
Mode: 1
LetterboxInBreaks: 0
WidescreenStoryboard: 1

[Editor]
DistanceSpacing: 0.8
BeatDivisor: 4
GridSize: 32
TimelineZoom: 0.5999999

[Metadata]
Title:The Magikarp Song
TitleUnicode:コイキングのうた「I LOVE コイキング」
Artist:KoikinGO
ArtistUnicode:コイキンGO
Creator:tasuke912
Version:Futsuu
Source:
Tags:Pokemon Koiking no Uta
BeatmapID:1310092
BeatmapSetID:621359

[Difficulty]
HPDrainRate:8
CircleSize:5
OverallDifficulty:3
ApproachRate:5
SliderMultiplier:1.4
SliderTickRate:1

[Events]
//Background and Video events
0,0,"BG.png",0,40
//Break Periods
//Storyboard Layer 0 (Background)
//Storyboard Layer 1 (Fail)
//Storyboard Layer 2 (Pass)
//Storyboard Layer 3 (Foreground)
//Storyboard Sound Samples

[TimingPoints]
390,535.714285714286,4,1,0,65,1,0
27175,535.714285714286,4,1,0,65,1,1
44317,-100,4,1,0,40,0,0

[Colours]
Combo1 : 255,128,128
Combo2 : 0,128,255
Combo3 : 255,255,128
Combo4 : 255,0,0

[HitObjects]
256,192,8961,5,4,0:0:0:0:
256,192,10032,1,2,0:0:0:0:
256,192,10568,1,2,0:0:0:0:
256,192,11104,1,0,0:0:0:0:
256,192,11372,1,0,0:0:0:0:
256,192,11640,1,0,0:0:0:0:
256,192,12175,1,2,0:0:0:0:
256,192,13247,1,0,0:0:0:0:
256,192,14318,1,0,0:0:0:0:
256,192,14854,1,2,0:0:0:0:
256,192,15390,1,6,0:0:0:0:
256,192,15925,1,6,0:0:0:0:
256,192,16461,1,4,0:0:0:0:
256,192,17532,1,4,0:0:0:0:
256,192,18604,1,2,0:0:0:0:
256,192,19140,1,0,0:0:0:0:
256,192,19675,1,2,0:0:0:0:
256,192,19943,1,2,0:0:0:0:
256,192,20211,1,0,0:0:0:0:
256,192,20747,1,2,0:0:0:0:
256,192,21818,1,0,0:0:0:0:
256,192,22354,1,0,0:0:0:0:
256,192,22890,1,2,0:0:0:0:
256,192,23157,1,2,0:0:0:0:
256,192,23425,1,2,0:0:0:0:
256,192,23961,1,4,0:0:0:0:
256,192,24497,1,4,0:0:0:0:
256,192,25032,1,4,0:0:0:0:
256,192,27175,5,4,0:0:0:0:
256,192,27710,1,0,0:0:0:0:
256,192,27978,1,0,0:0:0:0:
256,192,28246,1,0,0:0:0:0:
256,192,29317,1,2,0:0:0:0:
256,192,29853,1,2,0:0:0:0:
256,192,30121,1,2,0:0:0:0:
256,192,30389,1,2,0:0:0:0:
256,192,31460,1,0,0:0:0:0:
256,192,31996,1,0,0:0:0:0:
256,192,32532,1,2,0:0:0:0:
256,192,32800,1,2,0:0:0:0:
256,192,33067,1,2,0:0:0:0:
256,192,33603,1,0,0:0:0:0:
256,192,33871,1,0,0:0:0:0:
256,192,34139,1,0,0:0:0:0:
256,192,34675,1,2,0:0:0:0:
256,192,35746,5,4,0:0:0:0:
256,192,36282,1,0,0:0:0:0:
256,192,36550,1,0,0:0:0:0:
256,192,36817,1,0,0:0:0:0:
256,192,37889,1,2,0:0:0:0:
256,192,38425,1,2,0:0:0:0:
256,192,38692,1,2,0:0:0:0:
256,192,38960,1,2,0:0:0:0:
256,192,40032,1,0,0:0:0:0:
256,192,40567,1,0,0:0:0:0:
256,192,41103,1,2,0:0:0:0:
256,192,41371,1,2,0:0:0:0:
256,192,41639,1,2,0:0:0:0:
256,192,42175,1,4,0:0:0:0:
256,192,42710,1,4,0:0:0:0:
256,192,43246,1,6,0:0:0:0:
256,192,44317,1,2,0:0:0:0:
256,192,45389,1,2,0:0:0:0:
256,192,46460,1,2,0:0:0:0:
256,192,46728,1,2,0:0:0:0:
256,192,46996,1,2,0:0:0:0:
256,192,47532,1,2,0:0:0:0:
