osu file format v14

[General]
AudioFilename: Joanna Koike - BEAUTIFUL WORLD.mp3
AudioLeadIn: 0
PreviewTime: 159667
Countdown: 0
SampleSet: Normal
StackLeniency: 0.7
Mode: 3
LetterboxInBreaks: 0
SpecialStyle: 0
WidescreenStoryboard: 0

[Editor]
DistanceSpacing: 2
BeatDivisor: 4
GridSize: 8
TimelineZoom: 2.5

[Metadata]
Title:BEAUTIFUL WORLD
TitleUnicode:BEAUTIFUL WORLD
Artist:Koike Joanna
ArtistUnicode:小池ジョアンナ
Creator:Akary
Version:Sekai
Source:それでも世界は美しい
Tags:soredemo sekai wa utsukushii still world is beautiful opening op
BeatmapID:1134892
BeatmapSetID:535829

[Difficulty]
HPDrainRate:8
CircleSize:7
OverallDifficulty:8
ApproachRate:5
SliderMultiplier:1.4
SliderTickRate:1

[Events]
//Background and Video events
0,0,"bg.jpg",0,0
//Break Periods
//Storyboard Layer 0 (Background)
//Storyboard Layer 1 (Fail)
//Storyboard Layer 2 (Pass)
//Storyboard Layer 3 (Foreground)
//Storyboard Sound Samples

[TimingPoints]
334,333.333333333333,4,1,0,0,1,0
40333,-100,4,1,0,0,0,1
56333,-100,4,1,0,0,0,0
61667,-100,4,1,0,0,0,1
69667,-100,4,1,0,0,0,0
96333,-100,4,1,0,0,0,1
112333,-100,4,1,0,0,0,0
112333,-100,4,1,0,0,0,0
117667,-100,4,1,0,0,0,1
123000,-100,4,1,0,0,0,0
133667,-100,4,1,0,0,0,1
159333,-100,4,1,0,0,0,0
181667,-100,4,1,0,0,0,1
197667,-100,4,1,0,0,0,0
203000,-100,4,1,0,0,0,1
209667,-100,4,1,0,0,0,0

[HitObjects]
329,192,334,5,0,0:0:0:0:
475,192,334,1,0,0:0:0:0:
36,192,334,1,0,0:0:0:0:
182,192,500,1,0,0:0:0:0:
36,192,667,1,0,0:0:0:0:
402,192,667,1,0,0:0:0:0:
182,192,833,1,0,0:0:0:0:
36,192,1000,1,0,0:0:0:0:
329,192,1000,1,0,0:0:0:0:
475,192,1000,1,0,0:0:0:0:
182,192,1167,1,0,0:0:0:0:
36,192,1333,1,0,0:0:0:0:
329,192,1333,1,0,0:0:0:0:
475,192,1333,1,0,0:0:0:0:
402,192,1500,1,0,0:0:0:0:
329,192,1667,1,0,0:0:0:0:
36,192,1667,1,0,0:0:0:0:
182,192,1667,1,0,0:0:0:0:
475,192,1833,1,0,0:0:0:0:
329,192,2000,1,0,0:0:0:0:
109,192,2000,1,0,0:0:0:0:
475,192,2167,1,0,0:0:0:0:
329,192,2333,1,0,0:0:0:0:
182,192,2333,1,0,0:0:0:0:
36,192,2333,1,0,0:0:0:0:
475,192,2500,1,0,0:0:0:0:
36,192,2667,1,0,0:0:0:0:
329,192,2667,1,0,0:0:0:0:
182,192,2667,1,0,0:0:0:0:
475,192,2833,1,0,0:0:0:0:
182,192,3000,1,0,0:0:0:0:
329,192,3000,1,0,0:0:0:0:
36,192,3000,1,0,0:0:0:0:
402,192,3000,1,0,0:0:0:0:
109,192,3167,1,0,0:0:0:0:
182,192,3167,1,0,0:0:0:0:
329,192,3167,1,0,0:0:0:0:
475,192,3167,1,0,0:0:0:0:
36,192,3500,1,0,0:0:0:0:
182,192,3500,1,0,0:0:0:0:
329,192,3500,1,0,0:0:0:0:
475,192,3500,1,0,0:0:0:0:
402,192,3667,1,0,0:0:0:0:
475,192,3667,1,0,0:0:0:0:
109,192,3667,1,0,0:0:0:0:
36,192,3667,1,0,0:0:0:0:
109,192,4000,1,0,0:0:0:0:
256,192,4000,1,0,0:0:0:0:
475,192,4000,1,0,0:0:0:0:
402,192,4000,1,0,0:0:0:0:
36,192,4167,1,0,0:0:0:0:
182,192,4167,1,0,0:0:0:0:
329,192,4167,1,0,0:0:0:0:
402,192,4167,1,0,0:0:0:0:
109,192,4500,1,0,0:0:0:0:
36,192,4500,1,0,0:0:0:0:
402,192,4500,1,0,0:0:0:0:
475,192,4500,1,0,0:0:0:0:
475,192,4667,1,0,0:0:0:0:
329,192,4667,1,0,0:0:0:0:
182,192,4667,1,0,0:0:0:0:
36,192,4667,1,0,0:0:0:0:
36,192,4833,1,0,0:0:0:0:
109,192,4917,1,0,0:0:0:0:
182,192,5000,1,0,0:0:0:0:
256,192,5083,1,0,0:0:0:0:
329,192,5167,1,0,0:0:0:0:
402,192,5250,1,0,0:0:0:0:
475,192,5333,1,0,0:0:0:0:
182,192,5333,1,0,0:0:0:0:
36,192,5333,1,0,0:0:0:0:
256,192,5333,1,0,0:0:0:0:
329,192,5667,128,0,6000:0:0:0:0:
109,192,5667,1,0,0:0:0:0:
475,192,5667,1,0,0:0:0:0:
256,192,5833,1,0,0:0:0:0:
182,192,6000,1,0,0:0:0:0:
36,192,6000,1,0,0:0:0:0:
402,192,6000,128,0,6333:0:0:0:0:
256,192,6167,1,0,0:0:0:0:
329,192,6333,128,0,6667:0:0:0:0:
109,192,6333,1,0,0:0:0:0:
475,192,6333,1,0,0:0:0:0:
402,192,6500,128,0,6667:0:0:0:0:
182,192,6500,1,0,0:0:0:0:
256,192,6667,1,0,0:0:0:0:
36,192,6667,1,0,0:0:0:0:
109,192,6833,128,0,7000:0:0:0:0:
329,192,6833,1,0,0:0:0:0:
475,192,7000,1,0,0:0:0:0:
256,192,7000,1,0,0:0:0:0:
182,192,7167,128,0,7333:0:0:0:0:
402,192,7167,1,0,0:0:0:0:
329,192,7333,1,0,0:0:0:0:
36,192,7333,1,0,0:0:0:0:
256,192,7500,1,0,0:0:0:0:
109,192,7667,1,0,0:0:0:0:
475,192,7667,128,0,8000:0:0:0:0:
329,192,7667,128,0,7833:0:0:0:0:
182,192,7833,1,0,0:0:0:0:
402,192,8000,1,0,0:0:0:0:
256,192,8000,1,0,0:0:0:0:
36,192,8000,1,0,0:0:0:0:
182,192,8167,1,0,0:0:0:0:
109,192,8333,128,0,8833:0:0:0:0:
329,192,8333,128,0,8500:0:0:0:0:
475,192,8333,1,0,0:0:0:0:
402,192,8500,1,0,0:0:0:0:
329,192,8667,128,0,8833:0:0:0:0:
256,192,8667,1,0,0:0:0:0:
182,192,8667,1,0,0:0:0:0:
36,192,8833,128,0,9667:0:0:0:0:
475,192,8833,1,0,0:0:0:0:
329,192,9000,1,0,0:0:0:0:
109,192,9000,1,0,0:0:0:0:
475,192,9167,128,0,9333:0:0:0:0:
182,192,9167,1,0,0:0:0:0:
329,192,9333,128,0,9500:0:0:0:0:
256,192,9333,1,0,0:0:0:0:
182,192,9500,128,0,9667:0:0:0:0:
475,192,9500,1,0,0:0:0:0:
109,192,9500,1,0,0:0:0:0:
475,192,9667,1,0,0:0:0:0:
329,192,9667,1,0,0:0:0:0:
109,192,9833,128,0,10833:0:0:0:0:
402,192,9833,1,0,0:0:0:0:
182,192,10000,128,0,10833:0:0:0:0:
256,192,10000,1,0,0:0:0:0:
475,192,10000,1,0,0:0:0:0:
402,192,10167,1,0,0:0:0:0:
36,192,10333,128,0,10500:0:0:0:0:
256,192,10333,1,0,0:0:0:0:
475,192,10333,1,0,0:0:0:0:
329,192,10500,1,0,0:0:0:0:
36,192,10667,128,0,10833:0:0:0:0:
475,192,10667,1,0,0:0:0:0:
256,192,10667,1,0,0:0:0:0:
402,192,10667,1,0,0:0:0:0:
329,192,10833,1,0,0:0:0:0:
36,192,11000,1,0,0:0:0:0:
182,192,11000,1,0,0:0:0:0:
402,192,11000,1,0,0:0:0:0:
475,192,11000,128,0,11500:0:0:0:0:
256,192,11167,1,0,0:0:0:0:
402,192,11333,128,0,11500:0:0:0:0:
329,192,11333,1,0,0:0:0:0:
109,192,11333,1,0,0:0:0:0:
182,192,11500,1,0,0:0:0:0:
256,192,11667,1,0,0:0:0:0:
402,192,11667,1,0,0:0:0:0:
36,192,11667,128,0,11833:0:0:0:0:
109,192,11833,128,0,12000:0:0:0:0:
329,192,11833,1,0,0:0:0:0:
182,192,12000,128,0,12167:0:0:0:0:
475,192,12000,1,0,0:0:0:0:
256,192,12000,1,0,0:0:0:0:
329,192,12167,1,0,0:0:0:0:
109,192,12167,128,0,12333:0:0:0:0:
256,192,12333,128,0,12500:0:0:0:0:
475,192,12333,1,0,0:0:0:0:
36,192,12333,1,0,0:0:0:0:
402,192,12500,128,0,13500:0:0:0:0:
109,192,12500,1,0,0:0:0:0:
329,192,12667,128,0,13500:0:0:0:0:
36,192,12667,1,0,0:0:0:0:
182,192,12667,1,0,0:0:0:0:
256,192,12833,1,0,0:0:0:0:
475,192,13000,128,0,13167:0:0:0:0:
182,192,13000,1,0,0:0:0:0:
36,192,13000,1,0,0:0:0:0:
109,192,13167,1,0,0:0:0:0:
475,192,13333,128,0,13500:0:0:0:0:
182,192,13333,1,0,0:0:0:0:
36,192,13333,1,0,0:0:0:0:
256,192,13333,1,0,0:0:0:0:
109,192,13500,1,0,0:0:0:0:
182,192,13667,1,0,0:0:0:0:
329,192,13667,1,0,0:0:0:0:
36,192,13667,1,0,0:0:0:0:
475,192,13750,1,0,0:0:0:0:
109,192,13833,1,0,0:0:0:0:
256,192,13833,1,0,0:0:0:0:
402,192,13833,1,0,0:0:0:0:
36,192,13917,1,0,0:0:0:0:
475,192,14000,1,0,0:0:0:0:
182,192,14000,1,0,0:0:0:0:
329,192,14000,1,0,0:0:0:0:
329,192,14333,1,0,0:0:0:0:
36,192,14333,1,0,0:0:0:0:
182,192,14333,1,0,0:0:0:0:
182,192,14500,1,0,0:0:0:0:
329,192,14500,1,0,0:0:0:0:
475,192,14500,1,0,0:0:0:0:
36,192,14667,1,0,0:0:0:0:
182,192,14750,1,0,0:0:0:0:
36,192,14833,1,0,0:0:0:0:
256,192,14833,1,0,0:0:0:0:
475,192,14833,1,0,0:0:0:0:
402,192,15000,1,0,0:0:0:0:
256,192,15167,1,0,0:0:0:0:
109,192,15333,1,0,0:0:0:0:
329,192,15500,1,0,0:0:0:0:
182,192,15667,1,0,0:0:0:0:
475,192,15667,1,0,0:0:0:0:
402,192,15750,1,0,0:0:0:0:
329,192,15833,1,0,0:0:0:0:
36,192,15917,1,0,0:0:0:0:
109,192,16000,1,0,0:0:0:0:
182,192,16083,1,0,0:0:0:0:
475,192,16167,1,0,0:0:0:0:
402,192,16250,1,0,0:0:0:0:
329,192,16333,1,0,0:0:0:0:
36,192,16333,128,0,16667:0:0:0:0:
182,192,16333,128,0,16500:0:0:0:0:
402,192,16500,1,0,0:0:0:0:
475,192,16667,128,0,17000:0:0:0:0:
329,192,16667,128,0,16833:0:0:0:0:
182,192,16667,1,0,0:0:0:0:
36,192,16833,1,0,0:0:0:0:
109,192,17000,1,0,0:0:0:0:
256,192,17000,1,0,0:0:0:0:
402,192,17000,1,0,0:0:0:0:
182,192,17167,128,0,17333:0:0:0:0:
36,192,17167,1,0,0:0:0:0:
329,192,17333,128,0,17500:0:0:0:0:
109,192,17333,1,0,0:0:0:0:
475,192,17333,1,0,0:0:0:0:
475,192,17500,128,0,17667:0:0:0:0:
36,192,17500,128,0,17833:0:0:0:0:
256,192,17500,1,0,0:0:0:0:
182,192,17667,128,0,18000:0:0:0:0:
402,192,17667,1,0,0:0:0:0:
329,192,17833,128,0,18167:0:0:0:0:
256,192,17833,1,0,0:0:0:0:
475,192,18000,128,0,18333:0:0:0:0:
402,192,18000,1,0,0:0:0:0:
36,192,18000,1,0,0:0:0:0:
256,192,18167,128,0,18333:0:0:0:0:
402,192,18333,128,0,18500:0:0:0:0:
109,192,18333,1,0,0:0:0:0:
36,192,18333,1,0,0:0:0:0:
182,192,18500,128,0,18667:0:0:0:0:
475,192,18500,1,0,0:0:0:0:
329,192,18667,128,0,18833:0:0:0:0:
36,192,18667,1,0,0:0:0:0:
402,192,18667,1,0,0:0:0:0:
109,192,18833,128,0,19000:0:0:0:0:
182,192,18833,1,0,0:0:0:0:
256,192,19000,128,0,19167:0:0:0:0:
475,192,19000,128,0,19333:0:0:0:0:
402,192,19000,1,0,0:0:0:0:
36,192,19167,128,0,19333:0:0:0:0:
109,192,19167,1,0,0:0:0:0:
182,192,19333,128,0,19500:0:0:0:0:
329,192,19333,128,0,19667:0:0:0:0:
402,192,19333,1,0,0:0:0:0:
36,192,19500,1,0,0:0:0:0:
256,192,19667,1,0,0:0:0:0:
475,192,19667,1,0,0:0:0:0:
109,192,19667,128,0,19833:0:0:0:0:
256,192,19833,128,0,20000:0:0:0:0:
402,192,19833,1,0,0:0:0:0:
402,192,20000,128,0,20167:0:0:0:0:
36,192,20000,1,0,0:0:0:0:
109,192,20000,1,0,0:0:0:0:
182,192,20167,128,0,20333:0:0:0:0:
329,192,20167,1,0,0:0:0:0:
36,192,20333,1,0,0:0:0:0:
475,192,20333,1,0,0:0:0:0:
256,192,20333,1,0,0:0:0:0:
329,192,20500,128,0,20667:0:0:0:0:
109,192,20500,1,0,0:0:0:0:
36,192,20667,128,0,20833:0:0:0:0:
256,192,20667,128,0,21000:0:0:0:0:
475,192,20667,1,0,0:0:0:0:
109,192,20833,128,0,21000:0:0:0:0:
329,192,20833,1,0,0:0:0:0:
475,192,20917,1,0,0:0:0:0:
329,192,21000,1,0,0:0:0:0:
182,192,21000,128,0,21167:0:0:0:0:
402,192,21083,1,0,0:0:0:0:
109,192,21167,128,0,21333:0:0:0:0:
475,192,21167,1,0,0:0:0:0:
256,192,21167,1,0,0:0:0:0:
36,192,21333,128,0,21500:0:0:0:0:
256,192,21333,1,0,0:0:0:0:
475,192,21333,128,0,21583:0:0:0:0:
402,192,21417,1,0,0:0:0:0:
329,192,21500,1,0,0:0:0:0:
256,192,21583,1,0,0:0:0:0:
329,192,21667,128,0,21917:0:0:0:0:
109,192,21667,128,0,21833:0:0:0:0:
182,192,21667,1,0,0:0:0:0:
36,192,21833,1,0,0:0:0:0:
256,192,21833,1,0,0:0:0:0:
475,192,22000,128,0,22250:0:0:0:0:
182,192,22000,128,0,22167:0:0:0:0:
329,192,22000,1,0,0:0:0:0:
36,192,22167,1,0,0:0:0:0:
402,192,22167,1,0,0:0:0:0:
256,192,22333,128,0,22667:0:0:0:0:
182,192,22333,1,0,0:0:0:0:
475,192,22333,1,0,0:0:0:0:
109,192,22500,128,0,22667:0:0:0:0:
402,192,22500,1,0,0:0:0:0:
182,192,22667,128,0,23000:0:0:0:0:
329,192,22667,1,0,0:0:0:0:
475,192,22667,1,0,0:0:0:0:
36,192,22833,128,0,23000:0:0:0:0:
402,192,22833,1,0,0:0:0:0:
109,192,23000,1,0,0:0:0:0:
329,192,23000,1,0,0:0:0:0:
36,192,23167,128,0,23667:0:0:0:0:
182,192,23167,1,0,0:0:0:0:
402,192,23167,1,0,0:0:0:0:
109,192,23333,128,0,23667:0:0:0:0:
475,192,23333,128,0,23500:0:0:0:0:
329,192,23333,1,0,0:0:0:0:
256,192,23500,1,0,0:0:0:0:
402,192,23500,1,0,0:0:0:0:
329,192,23667,128,0,24167:0:0:0:0:
475,192,23667,1,0,0:0:0:0:
182,192,23667,1,0,0:0:0:0:
402,192,23833,128,0,24167:0:0:0:0:
36,192,23833,1,0,0:0:0:0:
475,192,24000,128,0,24167:0:0:0:0:
109,192,24000,1,0,0:0:0:0:
256,192,24000,128,0,24417:0:0:0:0:
36,192,24167,1,0,0:0:0:0:
182,192,24167,1,0,0:0:0:0:
402,192,24333,128,0,24417:0:0:0:0:
329,192,24333,128,0,24417:0:0:0:0:
109,192,24333,1,0,0:0:0:0:
182,192,24500,1,0,0:0:0:0:
475,192,24500,1,0,0:0:0:0:
402,192,24667,128,0,25000:0:0:0:0:
109,192,24667,128,0,25000:0:0:0:0:
256,192,24667,1,0,0:0:0:0:
329,192,24833,128,0,25000:0:0:0:0:
182,192,24833,128,0,25000:0:0:0:0:
475,192,25000,1,0,0:0:0:0:
36,192,25000,1,0,0:0:0:0:
256,192,25000,1,0,0:0:0:0:
109,192,25167,1,0,0:0:0:0:
402,192,25167,1,0,0:0:0:0:
475,192,25333,1,0,0:0:0:0:
36,192,25333,1,0,0:0:0:0:
256,192,25333,1,0,0:0:0:0:
109,192,25500,1,0,0:0:0:0:
402,192,25500,1,0,0:0:0:0:
329,192,25667,1,0,0:0:0:0:
182,192,25667,1,0,0:0:0:0:
36,192,25833,128,0,26667:0:0:0:0:
109,192,25833,1,0,0:0:0:0:
402,192,25833,1,0,0:0:0:0:
109,192,26000,128,0,26500:0:0:0:0:
182,192,26000,1,0,0:0:0:0:
475,192,26000,1,0,0:0:0:0:
182,192,26167,128,0,26333:0:0:0:0:
256,192,26167,1,0,0:0:0:0:
402,192,26250,1,0,0:0:0:0:
256,192,26333,128,0,26500:0:0:0:0:
329,192,26333,1,0,0:0:0:0:
475,192,26333,1,0,0:0:0:0:
182,192,26500,128,0,26667:0:0:0:0:
329,192,26500,1,0,0:0:0:0:
402,192,26583,1,0,0:0:0:0:
109,192,26667,128,0,26833:0:0:0:0:
475,192,26667,1,0,0:0:0:0:
329,192,26750,1,0,0:0:0:0:
402,192,26833,1,0,0:0:0:0:
36,192,26833,128,0,27000:0:0:0:0:
256,192,26917,1,0,0:0:0:0:
329,192,27000,1,0,0:0:0:0:
109,192,27000,1,0,0:0:0:0:
475,192,27000,128,0,27667:0:0:0:0:
256,192,27167,1,0,0:0:0:0:
402,192,27333,128,0,27667:0:0:0:0:
182,192,27333,1,0,0:0:0:0:
36,192,27333,1,0,0:0:0:0:
256,192,27500,1,0,0:0:0:0:
329,192,27667,128,0,28333:0:0:0:0:
109,192,27667,1,0,0:0:0:0:
36,192,27667,1,0,0:0:0:0:
182,192,27833,1,0,0:0:0:0:
402,192,27833,1,0,0:0:0:0:
256,192,28000,128,0,28333:0:0:0:0:
109,192,28000,1,0,0:0:0:0:
475,192,28000,1,0,0:0:0:0:
402,192,28167,128,0,28667:0:0:0:0:
36,192,28167,1,0,0:0:0:0:
182,192,28167,1,0,0:0:0:0:
109,192,28333,1,0,0:0:0:0:
36,192,28500,128,0,29000:0:0:0:0:
182,192,28500,1,0,0:0:0:0:
329,192,28500,1,0,0:0:0:0:
475,192,28667,128,0,29667:0:0:0:0:
256,192,28667,1,0,0:0:0:0:
109,192,28833,128,0,29000:0:0:0:0:
182,192,28833,1,0,0:0:0:0:
329,192,28833,1,0,0:0:0:0:
402,192,29000,128,0,29667:0:0:0:0:
256,192,29000,1,0,0:0:0:0:
182,192,29167,1,0,0:0:0:0:
329,192,29333,128,0,29667:0:0:0:0:
36,192,29333,1,0,0:0:0:0:
256,192,29333,1,0,0:0:0:0:
109,192,29500,1,0,0:0:0:0:
256,192,29667,1,0,0:0:0:0:
36,192,29667,1,0,0:0:0:0:
109,192,29667,1,0,0:0:0:0:
182,192,29667,1,0,0:0:0:0:
256,192,29833,1,0,0:0:0:0:
329,192,29833,1,0,0:0:0:0:
402,192,29833,1,0,0:0:0:0:
475,192,29833,1,0,0:0:0:0:
36,192,30167,1,0,0:0:0:0:
182,192,30167,1,0,0:0:0:0:
256,192,30167,1,0,0:0:0:0:
475,192,30167,1,0,0:0:0:0:
329,192,30500,1,0,0:0:0:0:
256,192,30500,1,0,0:0:0:0:
475,192,30500,1,0,0:0:0:0:
36,192,30500,1,0,0:0:0:0:
36,192,30833,1,0,0:0:0:0:
182,192,30833,1,0,0:0:0:0:
329,192,30833,1,0,0:0:0:0:
475,192,30833,1,0,0:0:0:0:
109,192,31167,1,0,0:0:0:0:
182,192,31167,1,0,0:0:0:0:
329,192,31167,1,0,0:0:0:0:
402,192,31167,1,0,0:0:0:0:
36,192,31500,1,0,0:0:0:0:
109,192,31500,1,0,0:0:0:0:
402,192,31500,1,0,0:0:0:0:
475,192,31500,1,0,0:0:0:0:
329,192,31833,1,0,0:0:0:0:
402,192,31833,1,0,0:0:0:0:
475,192,31833,1,0,0:0:0:0:
36,192,31833,1,0,0:0:0:0:
109,192,31917,1,0,0:0:0:0:
182,192,32000,1,0,0:0:0:0:
256,192,32083,1,0,0:0:0:0:
36,192,32167,1,0,0:0:0:0:
329,192,32167,1,0,0:0:0:0:
475,192,32333,128,0,33667:0:0:0:0:
256,192,32333,128,0,33667:0:0:0:0:
109,192,32333,128,0,33667:0:0:0:0:
182,192,33667,128,0,33833:0:0:0:0:
329,192,33667,1,0,0:0:0:0:
402,192,33667,1,0,0:0:0:0:
109,192,33833,128,0,34000:0:0:0:0:
402,192,33833,1,0,0:0:0:0:
475,192,33833,1,0,0:0:0:0:
36,192,34000,128,0,34167:0:0:0:0:
402,192,34000,1,0,0:0:0:0:
329,192,34000,1,0,0:0:0:0:
109,192,34167,128,0,34333:0:0:0:0:
329,192,34167,1,0,0:0:0:0:
256,192,34167,1,0,0:0:0:0:
182,192,34333,128,0,34500:0:0:0:0:
329,192,34333,1,0,0:0:0:0:
402,192,34333,1,0,0:0:0:0:
109,192,34500,128,0,34667:0:0:0:0:
402,192,34500,1,0,0:0:0:0:
475,192,34500,1,0,0:0:0:0:
36,192,34667,128,0,34833:0:0:0:0:
402,192,34667,1,0,0:0:0:0:
329,192,34667,1,0,0:0:0:0:
256,192,34750,1,0,0:0:0:0:
182,192,34833,1,0,0:0:0:0:
475,192,34833,1,0,0:0:0:0:
109,192,34917,1,0,0:0:0:0:
36,192,35000,1,0,0:0:0:0:
402,192,35000,1,0,0:0:0:0:
256,192,35000,1,0,0:0:0:0:
36,192,35167,1,0,0:0:0:0:
256,192,35167,1,0,0:0:0:0:
402,192,35167,1,0,0:0:0:0:
402,192,35333,1,0,0:0:0:0:
256,192,35333,1,0,0:0:0:0:
36,192,35333,1,0,0:0:0:0:
109,192,35500,1,0,0:0:0:0:
182,192,35500,1,0,0:0:0:0:
329,192,35500,1,0,0:0:0:0:
475,192,35500,1,0,0:0:0:0:
402,192,35833,1,0,0:0:0:0:
256,192,35833,1,0,0:0:0:0:
109,192,35833,1,0,0:0:0:0:
36,192,35833,1,0,0:0:0:0:
475,192,36167,128,0,37000:0:0:0:0:
329,192,36167,1,0,0:0:0:0:
182,192,36167,1,0,0:0:0:0:
36,192,36167,1,0,0:0:0:0:
109,192,36333,1,0,0:0:0:0:
329,192,36500,128,0,36833:0:0:0:0:
182,192,36500,1,0,0:0:0:0:
36,192,36667,128,0,36833:0:0:0:0:
256,192,36667,1,0,0:0:0:0:
182,192,36833,1,0,0:0:0:0:
256,192,37000,128,0,37667:0:0:0:0:
329,192,37000,1,0,0:0:0:0:
36,192,37000,1,0,0:0:0:0:
402,192,37167,1,0,0:0:0:0:
109,192,37333,128,0,37667:0:0:0:0:
475,192,37333,1,0,0:0:0:0:
329,192,37333,1,0,0:0:0:0:
402,192,37500,1,0,0:0:0:0:
402,192,37667,128,0,37833:0:0:0:0:
36,192,37667,1,0,0:0:0:0:
109,192,37750,1,0,0:0:0:0:
475,192,37833,128,0,38000:0:0:0:0:
182,192,37833,1,0,0:0:0:0:
256,192,37917,1,0,0:0:0:0:
329,192,38000,128,0,38167:0:0:0:0:
36,192,38000,1,0,0:0:0:0:
109,192,38083,1,0,0:0:0:0:
402,192,38167,128,0,38333:0:0:0:0:
182,192,38167,1,0,0:0:0:0:
256,192,38250,1,0,0:0:0:0:
475,192,38333,128,0,38500:0:0:0:0:
182,192,38333,1,0,0:0:0:0:
109,192,38417,1,0,0:0:0:0:
402,192,38500,128,0,38667:0:0:0:0:
36,192,38500,1,0,0:0:0:0:
256,192,38583,1,0,0:0:0:0:
329,192,38667,128,0,38833:0:0:0:0:
182,192,38667,1,0,0:0:0:0:
109,192,38750,1,0,0:0:0:0:
402,192,38833,128,0,39000:0:0:0:0:
475,192,38833,128,0,39000:0:0:0:0:
36,192,38833,1,0,0:0:0:0:
256,192,38833,1,0,0:0:0:0:
36,192,39167,128,0,40000:0:0:0:0:
256,192,39167,1,0,0:0:0:0:
109,192,39333,128,0,39833:0:0:0:0:
402,192,39333,1,0,0:0:0:0:
475,192,39333,1,0,0:0:0:0:
182,192,39500,128,0,39667:0:0:0:0:
329,192,39500,1,0,0:0:0:0:
402,192,39583,1,0,0:0:0:0:
256,192,39667,128,0,39833:0:0:0:0:
475,192,39667,1,0,0:0:0:0:
402,192,39750,1,0,0:0:0:0:
182,192,39833,128,0,40000:0:0:0:0:
329,192,39833,1,0,0:0:0:0:
475,192,39917,1,0,0:0:0:0:
109,192,40000,128,0,40167:0:0:0:0:
329,192,40000,1,0,0:0:0:0:
402,192,40083,1,0,0:0:0:0:
36,192,40167,128,0,40333:0:0:0:0:
256,192,40167,1,0,0:0:0:0:
475,192,40167,1,0,0:0:0:0:
329,192,40250,1,0,0:0:0:0:
182,192,40333,1,0,0:0:0:0:
402,192,40333,128,0,41667:0:0:0:0:
256,192,40417,1,0,0:0:0:0:
329,192,40500,1,0,0:0:0:0:
36,192,40500,1,0,0:0:0:0:
109,192,40583,1,0,0:0:0:0:
182,192,40667,1,0,0:0:0:0:
475,192,40667,1,0,0:0:0:0:
256,192,40833,1,0,0:0:0:0:
109,192,40917,1,0,0:0:0:0:
329,192,41000,1,0,0:0:0:0:
475,192,41000,1,0,0:0:0:0:
182,192,41083,1,0,0:0:0:0:
36,192,41167,1,0,0:0:0:0:
256,192,41250,1,0,0:0:0:0:
109,192,41333,1,0,0:0:0:0:
182,192,41417,1,0,0:0:0:0:
256,192,41500,1,0,0:0:0:0:
182,192,41583,1,0,0:0:0:0:
329,192,41667,128,0,43000:0:0:0:0:
109,192,41667,1,0,0:0:0:0:
475,192,41667,1,0,0:0:0:0:
256,192,41750,1,0,0:0:0:0:
182,192,41833,1,0,0:0:0:0:
109,192,41917,1,0,0:0:0:0:
36,192,42000,1,0,0:0:0:0:
402,192,42000,1,0,0:0:0:0:
182,192,42083,1,0,0:0:0:0:
256,192,42167,1,0,0:0:0:0:
109,192,42250,1,0,0:0:0:0:
182,192,42333,1,0,0:0:0:0:
475,192,42333,1,0,0:0:0:0:
402,192,42333,1,0,0:0:0:0:
36,192,42417,1,0,0:0:0:0:
109,192,42500,1,0,0:0:0:0:
182,192,42583,1,0,0:0:0:0:
36,192,42667,128,0,43000:0:0:0:0:
256,192,42667,1,0,0:0:0:0:
402,192,42667,1,0,0:0:0:0:
109,192,42750,1,0,0:0:0:0:
182,192,42833,1,0,0:0:0:0:
256,192,42917,1,0,0:0:0:0:
109,192,43000,128,0,44333:0:0:0:0:
475,192,43000,1,0,0:0:0:0:
182,192,43000,1,0,0:0:0:0:
402,192,43083,1,0,0:0:0:0:
329,192,43167,1,0,0:0:0:0:
182,192,43250,1,0,0:0:0:0:
256,192,43333,1,0,0:0:0:0:
475,192,43333,1,0,0:0:0:0:
36,192,43333,1,0,0:0:0:0:
329,192,43417,1,0,0:0:0:0:
182,192,43500,1,0,0:0:0:0:
475,192,43500,1,0,0:0:0:0:
402,192,43583,1,0,0:0:0:0:
256,192,43667,1,0,0:0:0:0:
36,192,43667,1,0,0:0:0:0:
475,192,43750,1,0,0:0:0:0:
329,192,43833,1,0,0:0:0:0:
182,192,43917,1,0,0:0:0:0:
402,192,44000,128,0,44333:0:0:0:0:
256,192,44000,1,0,0:0:0:0:
475,192,44000,1,0,0:0:0:0:
329,192,44083,1,0,0:0:0:0:
182,192,44167,1,0,0:0:0:0:
36,192,44250,1,0,0:0:0:0:
182,192,44333,1,0,0:0:0:0:
329,192,44333,1,0,0:0:0:0:
109,192,44417,1,0,0:0:0:0:
256,192,44500,1,0,0:0:0:0:
402,192,44583,1,0,0:0:0:0:
329,192,44667,128,0,45167:0:0:0:0:
36,192,44667,1,0,0:0:0:0:
182,192,44667,1,0,0:0:0:0:
109,192,44750,1,0,0:0:0:0:
256,192,44833,1,0,0:0:0:0:
36,192,44917,1,0,0:0:0:0:
402,192,45000,128,0,45500:0:0:0:0:
182,192,45000,1,0,0:0:0:0:
475,192,45000,1,0,0:0:0:0:
256,192,45083,1,0,0:0:0:0:
109,192,45167,1,0,0:0:0:0:
182,192,45250,1,0,0:0:0:0:
475,192,45333,128,0,45833:0:0:0:0:
36,192,45333,1,0,0:0:0:0:
329,192,45333,1,0,0:0:0:0:
109,192,45417,1,0,0:0:0:0:
182,192,45500,1,0,0:0:0:0:
329,192,45583,1,0,0:0:0:0:
36,192,45667,128,0,46167:0:0:0:0:
256,192,45667,1,0,0:0:0:0:
402,192,45667,1,0,0:0:0:0:
182,192,45750,1,0,0:0:0:0:
109,192,45833,1,0,0:0:0:0:
329,192,45917,1,0,0:0:0:0:
256,192,46000,1,0,0:0:0:0:
475,192,46000,1,0,0:0:0:0:
182,192,46083,1,0,0:0:0:0:
109,192,46167,128,0,47000:0:0:0:0:
329,192,46167,1,0,0:0:0:0:
256,192,46250,1,0,0:0:0:0:
182,192,46333,1,0,0:0:0:0:
402,192,46333,1,0,0:0:0:0:
256,192,46417,1,0,0:0:0:0:
329,192,46500,1,0,0:0:0:0:
402,192,46583,1,0,0:0:0:0:
475,192,46667,1,0,0:0:0:0:
182,192,46667,1,0,0:0:0:0:
256,192,46750,1,0,0:0:0:0:
329,192,46833,1,0,0:0:0:0:
402,192,46917,1,0,0:0:0:0:
182,192,47000,128,0,47667:0:0:0:0:
36,192,47000,1,0,0:0:0:0:
475,192,47000,1,0,0:0:0:0:
256,192,47083,1,0,0:0:0:0:
402,192,47167,1,0,0:0:0:0:
329,192,47250,1,0,0:0:0:0:
36,192,47333,1,0,0:0:0:0:
256,192,47333,1,0,0:0:0:0:
329,192,47417,1,0,0:0:0:0:
402,192,47500,1,0,0:0:0:0:
475,192,47583,1,0,0:0:0:0:
256,192,47667,1,0,0:0:0:0:
36,192,47667,128,0,48000:0:0:0:0:
109,192,47667,1,0,0:0:0:0:
329,192,47750,1,0,0:0:0:0:
182,192,47833,1,0,0:0:0:0:
256,192,47917,1,0,0:0:0:0:
109,192,48000,128,0,48333:0:0:0:0:
329,192,48000,1,0,0:0:0:0:
475,192,48000,1,0,0:0:0:0:
402,192,48083,1,0,0:0:0:0:
329,192,48167,1,0,0:0:0:0:
256,192,48250,1,0,0:0:0:0:
182,192,48333,128,0,48667:0:0:0:0:
329,192,48333,1,0,0:0:0:0:
475,192,48333,1,0,0:0:0:0:
36,192,48333,1,0,0:0:0:0:
402,192,48417,1,0,0:0:0:0:
329,192,48500,1,0,0:0:0:0:
475,192,48583,1,0,0:0:0:0:
402,192,48667,1,0,0:0:0:0:
36,192,48667,1,0,0:0:0:0:
109,192,48667,1,0,0:0:0:0:
256,192,48667,128,0,49000:0:0:0:0:
329,192,48750,1,0,0:0:0:0:
402,192,48833,1,0,0:0:0:0:
475,192,48917,1,0,0:0:0:0:
329,192,49000,128,0,49167:0:0:0:0:
36,192,49000,1,0,0:0:0:0:
182,192,49000,1,0,0:0:0:0:
109,192,49083,1,0,0:0:0:0:
402,192,49167,128,0,49333:0:0:0:0:
182,192,49167,1,0,0:0:0:0:
109,192,49250,1,0,0:0:0:0:
475,192,49333,128,0,49667:0:0:0:0:
182,192,49333,1,0,0:0:0:0:
36,192,49333,1,0,0:0:0:0:
256,192,49417,1,0,0:0:0:0:
329,192,49500,1,0,0:0:0:0:
402,192,49583,1,0,0:0:0:0:
36,192,49667,128,0,50000:0:0:0:0:
182,192,49667,128,0,49833:0:0:0:0:
109,192,49667,1,0,0:0:0:0:
256,192,49833,128,0,50000:0:0:0:0:
402,192,49833,128,0,50167:0:0:0:0:
475,192,49833,1,0,0:0:0:0:
109,192,50000,128,0,50333:0:0:0:0:
329,192,50000,128,0,50167:0:0:0:0:
475,192,50000,1,0,0:0:0:0:
475,192,50167,128,0,50500:0:0:0:0:
182,192,50167,128,0,50333:0:0:0:0:
256,192,50167,1,0,0:0:0:0:
329,192,50250,1,0,0:0:0:0:
402,192,50333,1,0,0:0:0:0:
329,192,50417,1,0,0:0:0:0:
256,192,50500,1,0,0:0:0:0:
36,192,50500,1,0,0:0:0:0:
329,192,50583,1,0,0:0:0:0:
402,192,50667,1,0,0:0:0:0:
182,192,50667,1,0,0:0:0:0:
475,192,50750,1,0,0:0:0:0:
36,192,50750,1,0,0:0:0:0:
109,192,50833,1,0,0:0:0:0:
329,192,50833,1,0,0:0:0:0:
182,192,50917,1,0,0:0:0:0:
329,192,51000,1,0,0:0:0:0:
475,192,51000,1,0,0:0:0:0:
256,192,51000,1,0,0:0:0:0:
36,192,51167,1,0,0:0:0:0:
182,192,51167,1,0,0:0:0:0:
402,192,51167,1,0,0:0:0:0:
109,192,51333,1,0,0:0:0:0:
475,192,51333,1,0,0:0:0:0:
256,192,51333,1,0,0:0:0:0:
182,192,51500,1,0,0:0:0:0:
36,192,51500,1,0,0:0:0:0:
402,192,51500,1,0,0:0:0:0:
256,192,51667,1,0,0:0:0:0:
109,192,51667,1,0,0:0:0:0:
475,192,51667,1,0,0:0:0:0:
182,192,51833,1,0,0:0:0:0:
329,192,51833,1,0,0:0:0:0:
36,192,51833,1,0,0:0:0:0:
475,192,52000,1,0,0:0:0:0:
402,192,52000,1,0,0:0:0:0:
109,192,52000,1,0,0:0:0:0:
402,192,52167,1,0,0:0:0:0:
329,192,52167,1,0,0:0:0:0:
36,192,52167,1,0,0:0:0:0:
256,192,52333,1,0,0:0:0:0:
475,192,52333,1,0,0:0:0:0:
329,192,52333,1,0,0:0:0:0:
182,192,52500,1,0,0:0:0:0:
256,192,52500,1,0,0:0:0:0:
402,192,52500,1,0,0:0:0:0:
109,192,52667,1,0,0:0:0:0:
182,192,52667,1,0,0:0:0:0:
329,192,52667,1,0,0:0:0:0:
36,192,52833,1,0,0:0:0:0:
109,192,52833,1,0,0:0:0:0:
402,192,52833,1,0,0:0:0:0:
256,192,53000,1,0,0:0:0:0:
36,192,53000,1,0,0:0:0:0:
475,192,53000,1,0,0:0:0:0:
402,192,53167,1,0,0:0:0:0:
182,192,53167,1,0,0:0:0:0:
109,192,53167,1,0,0:0:0:0:
475,192,53333,1,0,0:0:0:0:
36,192,53333,1,0,0:0:0:0:
329,192,53333,1,0,0:0:0:0:
256,192,53500,1,0,0:0:0:0:
109,192,53500,1,0,0:0:0:0:
402,192,53500,1,0,0:0:0:0:
182,192,53667,1,0,0:0:0:0:
36,192,53667,1,0,0:0:0:0:
329,192,53667,1,0,0:0:0:0:
109,192,53833,1,0,0:0:0:0:
256,192,53833,1,0,0:0:0:0:
402,192,53833,1,0,0:0:0:0:
182,192,54000,1,0,0:0:0:0:
329,192,54000,1,0,0:0:0:0:
475,192,54000,1,0,0:0:0:0:
36,192,54167,1,0,0:0:0:0:
109,192,54167,1,0,0:0:0:0:
256,192,54167,1,0,0:0:0:0:
109,192,54333,1,0,0:0:0:0:
182,192,54333,1,0,0:0:0:0:
329,192,54333,1,0,0:0:0:0:
182,192,54500,1,0,0:0:0:0:
256,192,54500,1,0,0:0:0:0:
402,192,54500,1,0,0:0:0:0:
256,192,54667,1,0,0:0:0:0:
329,192,54667,1,0,0:0:0:0:
475,192,54667,1,0,0:0:0:0:
256,192,54833,1,0,0:0:0:0:
182,192,54833,1,0,0:0:0:0:
402,192,54833,1,0,0:0:0:0:
109,192,55000,1,0,0:0:0:0:
182,192,55000,1,0,0:0:0:0:
329,192,55000,1,0,0:0:0:0:
36,192,55167,1,0,0:0:0:0:
109,192,55167,1,0,0:0:0:0:
256,192,55167,1,0,0:0:0:0:
475,192,55333,1,0,0:0:0:0:
182,192,55333,1,0,0:0:0:0:
329,192,55333,1,0,0:0:0:0:
256,192,55500,1,0,0:0:0:0:
36,192,55500,1,0,0:0:0:0:
402,192,55500,1,0,0:0:0:0:
475,192,55583,1,0,0:0:0:0:
109,192,55667,1,0,0:0:0:0:
329,192,55667,1,0,0:0:0:0:
182,192,55667,1,0,0:0:0:0:
402,192,55750,1,0,0:0:0:0:
475,192,55833,1,0,0:0:0:0:
256,192,55833,1,0,0:0:0:0:
36,192,55833,1,0,0:0:0:0:
182,192,55917,1,0,0:0:0:0:
109,192,56000,1,0,0:0:0:0:
329,192,56000,1,0,0:0:0:0:
402,192,56000,1,0,0:0:0:0:
256,192,56083,1,0,0:0:0:0:
36,192,56167,1,0,0:0:0:0:
182,192,56167,1,0,0:0:0:0:
475,192,56167,1,0,0:0:0:0:
109,192,56250,1,0,0:0:0:0:
36,192,56333,1,0,0:0:0:0:
402,192,56333,128,0,56833:0:0:0:0:
256,192,56333,128,0,56667:0:0:0:0:
329,192,56333,1,0,0:0:0:0:
182,192,56500,1,0,0:0:0:0:
109,192,56667,128,0,57000:0:0:0:0:
36,192,56667,1,0,0:0:0:0:
329,192,56833,128,0,57167:0:0:0:0:
475,192,56833,1,0,0:0:0:0:
182,192,56833,1,0,0:0:0:0:
36,192,57000,1,0,0:0:0:0:
256,192,57000,1,0,0:0:0:0:
182,192,57167,128,0,57667:0:0:0:0:
402,192,57167,1,0,0:0:0:0:
475,192,57333,128,0,57500:0:0:0:0:
109,192,57333,1,0,0:0:0:0:
256,192,57500,128,0,57667:0:0:0:0:
329,192,57500,1,0,0:0:0:0:
402,192,57500,1,0,0:0:0:0:
36,192,57667,128,0,58167:0:0:0:0:
109,192,57667,1,0,0:0:0:0:
475,192,57667,1,0,0:0:0:0:
402,192,57833,1,0,0:0:0:0:
256,192,58000,128,0,58333:0:0:0:0:
329,192,58000,1,0,0:0:0:0:
109,192,58167,128,0,58500:0:0:0:0:
402,192,58167,1,0,0:0:0:0:
329,192,58333,128,0,58500:0:0:0:0:
475,192,58333,1,0,0:0:0:0:
182,192,58333,1,0,0:0:0:0:
402,192,58500,128,0,58667:0:0:0:0:
475,192,58667,128,0,58833:0:0:0:0:
36,192,58667,1,0,0:0:0:0:
182,192,58667,1,0,0:0:0:0:
329,192,58667,1,0,0:0:0:0:
329,192,58833,1,0,0:0:0:0:
182,192,58833,1,0,0:0:0:0:
36,192,58833,1,0,0:0:0:0:
36,192,59000,1,0,0:0:0:0:
182,192,59000,1,0,0:0:0:0:
329,192,59000,1,0,0:0:0:0:
402,192,59000,1,0,0:0:0:0:
475,192,59167,1,0,0:0:0:0:
402,192,59167,1,0,0:0:0:0:
256,192,59167,1,0,0:0:0:0:
109,192,59167,1,0,0:0:0:0:
402,192,59500,1,0,0:0:0:0:
329,192,59500,1,0,0:0:0:0:
36,192,59500,1,0,0:0:0:0:
109,192,59500,1,0,0:0:0:0:
109,192,59667,1,0,0:0:0:0:
182,192,59667,1,0,0:0:0:0:
402,192,59667,1,0,0:0:0:0:
475,192,59667,1,0,0:0:0:0:
475,192,60000,1,0,0:0:0:0:
402,192,60000,1,0,0:0:0:0:
109,192,60000,1,0,0:0:0:0:
36,192,60000,1,0,0:0:0:0:
36,192,60167,1,0,0:0:0:0:
182,192,60167,1,0,0:0:0:0:
329,192,60167,1,0,0:0:0:0:
475,192,60167,1,0,0:0:0:0:
109,192,60500,1,0,0:0:0:0:
329,192,60500,1,0,0:0:0:0:
475,192,60500,1,0,0:0:0:0:
36,192,60500,1,0,0:0:0:0:
36,192,60667,1,0,0:0:0:0:
182,192,60667,1,0,0:0:0:0:
402,192,60667,1,0,0:0:0:0:
475,192,60667,1,0,0:0:0:0:
329,192,61000,128,0,61667:0:0:0:0:
109,192,61000,1,0,0:0:0:0:
256,192,61000,1,0,0:0:0:0:
475,192,61000,1,0,0:0:0:0:
36,192,61167,1,0,0:0:0:0:
402,192,61167,1,0,0:0:0:0:
475,192,61333,128,0,61667:0:0:0:0:
256,192,61333,1,0,0:0:0:0:
182,192,61417,1,0,0:0:0:0:
36,192,61500,1,0,0:0:0:0:
109,192,61583,1,0,0:0:0:0:
256,192,61667,1,0,0:0:0:0:
182,192,61667,1,0,0:0:0:0:
402,192,61667,1,0,0:0:0:0:
329,192,61750,1,0,0:0:0:0:
256,192,61833,1,0,0:0:0:0:
182,192,61917,1,0,0:0:0:0:
109,192,62000,1,0,0:0:0:0:
329,192,62000,1,0,0:0:0:0:
402,192,62083,1,0,0:0:0:0:
475,192,62167,1,0,0:0:0:0:
36,192,62250,1,0,0:0:0:0:
109,192,62333,1,0,0:0:0:0:
329,192,62333,1,0,0:0:0:0:
182,192,62417,1,0,0:0:0:0:
475,192,62500,1,0,0:0:0:0:
402,192,62583,1,0,0:0:0:0:
329,192,62667,1,0,0:0:0:0:
36,192,62667,1,0,0:0:0:0:
182,192,62750,1,0,0:0:0:0:
475,192,62833,128,0,63500:0:0:0:0:
329,192,62833,1,0,0:0:0:0:
109,192,62917,1,0,0:0:0:0:
256,192,63000,1,0,0:0:0:0:
36,192,63000,1,0,0:0:0:0:
402,192,63083,1,0,0:0:0:0:
329,192,63167,1,0,0:0:0:0:
256,192,63250,1,0,0:0:0:0:
36,192,63333,1,0,0:0:0:0:
402,192,63333,1,0,0:0:0:0:
109,192,63417,1,0,0:0:0:0:
182,192,63500,1,0,0:0:0:0:
256,192,63583,1,0,0:0:0:0:
402,192,63667,128,0,64333:0:0:0:0:
182,192,63667,1,0,0:0:0:0:
475,192,63667,1,0,0:0:0:0:
256,192,63750,1,0,0:0:0:0:
36,192,63833,128,0,64333:0:0:0:0:
182,192,63833,1,0,0:0:0:0:
256,192,63917,1,0,0:0:0:0:
109,192,64000,128,0,64333:0:0:0:0:
329,192,64000,1,0,0:0:0:0:
475,192,64083,1,0,0:0:0:0:
182,192,64167,128,0,64333:0:0:0:0:
329,192,64167,1,0,0:0:0:0:
475,192,64250,1,0,0:0:0:0:
329,192,64333,1,0,0:0:0:0:
256,192,64417,1,0,0:0:0:0:
182,192,64500,1,0,0:0:0:0:
109,192,64583,1,0,0:0:0:0:
329,192,64667,128,0,65333:0:0:0:0:
36,192,64667,1,0,0:0:0:0:
256,192,64667,1,0,0:0:0:0:
182,192,64750,1,0,0:0:0:0:
475,192,64833,128,0,65333:0:0:0:0:
109,192,64833,1,0,0:0:0:0:
256,192,64917,1,0,0:0:0:0:
182,192,65000,1,0,0:0:0:0:
402,192,65000,1,0,0:0:0:0:
36,192,65083,1,0,0:0:0:0:
109,192,65167,1,0,0:0:0:0:
182,192,65250,1,0,0:0:0:0:
256,192,65333,1,0,0:0:0:0:
402,192,65333,1,0,0:0:0:0:
329,192,65417,1,0,0:0:0:0:
109,192,65500,128,0,67000:0:0:0:0:
402,192,65500,1,0,0:0:0:0:
475,192,65583,1,0,0:0:0:0:
256,192,65667,128,0,66333:0:0:0:0:
402,192,65667,128,0,66333:0:0:0:0:
182,192,65667,1,0,0:0:0:0:
36,192,65667,1,0,0:0:0:0:
475,192,66333,128,0,67000:0:0:0:0:
36,192,66333,128,0,67000:0:0:0:0:
329,192,66333,1,0,0:0:0:0:
182,192,66333,1,0,0:0:0:0:
329,192,67000,128,0,68000:0:0:0:0:
256,192,67000,128,0,67500:0:0:0:0:
402,192,67000,1,0,0:0:0:0:
182,192,67000,1,0,0:0:0:0:
36,192,67083,1,0,0:0:0:0:
109,192,67167,1,0,0:0:0:0:
182,192,67250,1,0,0:0:0:0:
109,192,67333,1,0,0:0:0:0:
475,192,67333,1,0,0:0:0:0:
36,192,67417,1,0,0:0:0:0:
402,192,67500,1,0,0:0:0:0:
182,192,67583,1,0,0:0:0:0:
36,192,67667,1,0,0:0:0:0:
475,192,67667,1,0,0:0:0:0:
256,192,67750,1,0,0:0:0:0:
402,192,67833,1,0,0:0:0:0:
182,192,67917,1,0,0:0:0:0:
475,192,68000,1,0,0:0:0:0:
36,192,68000,1,0,0:0:0:0:
109,192,68083,1,0,0:0:0:0:
182,192,68167,128,0,69667:0:0:0:0:
256,192,68167,1,0,0:0:0:0:
329,192,68250,1,0,0:0:0:0:
475,192,68333,1,0,0:0:0:0:
109,192,68333,1,0,0:0:0:0:
256,192,68417,1,0,0:0:0:0:
402,192,68500,1,0,0:0:0:0:
36,192,68583,1,0,0:0:0:0:
329,192,68667,1,0,0:0:0:0:
256,192,68667,1,0,0:0:0:0:
475,192,68750,1,0,0:0:0:0:
402,192,68833,1,0,0:0:0:0:
329,192,68917,1,0,0:0:0:0:
36,192,69000,128,0,69667:0:0:0:0:
109,192,69000,1,0,0:0:0:0:
256,192,69000,1,0,0:0:0:0:
402,192,69083,1,0,0:0:0:0:
475,192,69167,1,0,0:0:0:0:
329,192,69250,1,0,0:0:0:0:
402,192,69333,1,0,0:0:0:0:
109,192,69333,1,0,0:0:0:0:
256,192,69417,1,0,0:0:0:0:
329,192,69500,1,0,0:0:0:0:
402,192,69583,1,0,0:0:0:0:
475,192,69667,1,0,0:0:0:0:
109,192,69667,1,0,0:0:0:0:
256,192,69667,1,0,0:0:0:0:
329,192,69667,1,0,0:0:0:0:
109,192,69833,1,0,0:0:0:0:
256,192,69833,1,0,0:0:0:0:
329,192,69833,1,0,0:0:0:0:
475,192,69833,1,0,0:0:0:0:
36,192,70167,1,0,0:0:0:0:
182,192,70167,1,0,0:0:0:0:
256,192,70167,1,0,0:0:0:0:
402,192,70167,1,0,0:0:0:0:
109,192,70500,1,0,0:0:0:0:
256,192,70500,1,0,0:0:0:0:
475,192,70500,1,0,0:0:0:0:
402,192,70500,1,0,0:0:0:0:
36,192,70833,1,0,0:0:0:0:
109,192,70833,1,0,0:0:0:0:
256,192,70833,1,0,0:0:0:0:
402,192,70833,1,0,0:0:0:0:
36,192,71167,1,0,0:0:0:0:
182,192,71167,1,0,0:0:0:0:
329,192,71167,1,0,0:0:0:0:
475,192,71167,1,0,0:0:0:0:
402,192,71333,1,0,0:0:0:0:
475,192,71333,1,0,0:0:0:0:
109,192,71333,1,0,0:0:0:0:
36,192,71333,1,0,0:0:0:0:
182,192,71667,1,0,0:0:0:0:
329,192,71833,1,0,0:0:0:0:
109,192,72000,1,0,0:0:0:0:
402,192,72167,1,0,0:0:0:0:
475,192,72333,128,0,72833:0:0:0:0:
256,192,72333,1,0,0:0:0:0:
182,192,72333,1,0,0:0:0:0:
36,192,72333,1,0,0:0:0:0:
109,192,72500,1,0,0:0:0:0:
329,192,72667,128,0,73167:0:0:0:0:
402,192,72667,128,0,72833:0:0:0:0:
182,192,72667,1,0,0:0:0:0:
256,192,72833,1,0,0:0:0:0:
36,192,73000,1,0,0:0:0:0:
475,192,73000,1,0,0:0:0:0:
402,192,73167,1,0,0:0:0:0:
329,192,73333,1,0,0:0:0:0:
182,192,73333,1,0,0:0:0:0:
109,192,73500,128,0,73833:0:0:0:0:
256,192,73500,1,0,0:0:0:0:
329,192,73667,1,0,0:0:0:0:
36,192,73667,1,0,0:0:0:0:
256,192,73833,128,0,74333:0:0:0:0:
402,192,73833,1,0,0:0:0:0:
475,192,74000,128,0,74167:0:0:0:0:
36,192,74000,1,0,0:0:0:0:
182,192,74000,1,0,0:0:0:0:
402,192,74167,128,0,74333:0:0:0:0:
109,192,74167,1,0,0:0:0:0:
329,192,74333,128,0,74500:0:0:0:0:
182,192,74333,1,0,0:0:0:0:
36,192,74333,1,0,0:0:0:0:
256,192,74500,1,0,0:0:0:0:
402,192,74667,128,0,75000:0:0:0:0:
182,192,74667,128,0,74833:0:0:0:0:
109,192,74667,1,0,0:0:0:0:
256,192,74833,1,0,0:0:0:0:
182,192,75000,128,0,75333:0:0:0:0:
36,192,75000,1,0,0:0:0:0:
475,192,75000,1,0,0:0:0:0:
256,192,75167,1,0,0:0:0:0:
475,192,75333,128,0,75833:0:0:0:0:
329,192,75333,128,0,75667:0:0:0:0:
109,192,75333,1,0,0:0:0:0:
256,192,75500,1,0,0:0:0:0:
109,192,75667,1,0,0:0:0:0:
402,192,75667,1,0,0:0:0:0:
182,192,75833,128,0,76167:0:0:0:0:
329,192,75833,1,0,0:0:0:0:
256,192,76000,1,0,0:0:0:0:
475,192,76000,1,0,0:0:0:0:
109,192,76167,128,0,76500:0:0:0:0:
402,192,76167,1,0,0:0:0:0:
329,192,76333,1,0,0:0:0:0:
182,192,76333,1,0,0:0:0:0:
36,192,76500,128,0,76833:0:0:0:0:
475,192,76500,128,0,76667:0:0:0:0:
256,192,76500,1,0,0:0:0:0:
402,192,76667,128,0,76833:0:0:0:0:
182,192,76667,1,0,0:0:0:0:
329,192,76833,128,0,77000:0:0:0:0:
109,192,76833,1,0,0:0:0:0:
36,192,77000,1,0,0:0:0:0:
182,192,77000,1,0,0:0:0:0:
475,192,77000,1,0,0:0:0:0:
475,192,77333,1,0,0:0:0:0:
182,192,77333,1,0,0:0:0:0:
36,192,77333,1,0,0:0:0:0:
402,192,77500,1,0,0:0:0:0:
109,192,77667,1,0,0:0:0:0:
256,192,77667,1,0,0:0:0:0:
475,192,77667,128,0,79333:0:0:0:0:
36,192,77667,1,0,0:0:0:0:
329,192,77833,1,0,0:0:0:0:
402,192,78000,128,0,79000:0:0:0:0:
182,192,78000,1,0,0:0:0:0:
36,192,78000,1,0,0:0:0:0:
256,192,78167,1,0,0:0:0:0:
329,192,78333,128,0,78667:0:0:0:0:
36,192,78333,1,0,0:0:0:0:
182,192,78333,1,0,0:0:0:0:
109,192,78500,1,0,0:0:0:0:
36,192,78667,1,0,0:0:0:0:
256,192,78667,128,0,79000:0:0:0:0:
182,192,78667,1,0,0:0:0:0:
109,192,78833,1,0,0:0:0:0:
182,192,79000,1,0,0:0:0:0:
36,192,79000,1,0,0:0:0:0:
329,192,79000,128,0,79333:0:0:0:0:
109,192,79167,1,0,0:0:0:0:
256,192,79333,1,0,0:0:0:0:
402,192,79333,128,0,79667:0:0:0:0:
36,192,79333,1,0,0:0:0:0:
109,192,79500,1,0,0:0:0:0:
475,192,79667,128,0,80000:0:0:0:0:
182,192,79667,1,0,0:0:0:0:
329,192,79667,1,0,0:0:0:0:
36,192,79833,1,0,0:0:0:0:
109,192,80000,1,0,0:0:0:0:
256,192,80000,1,0,0:0:0:0:
329,192,80167,1,0,0:0:0:0:
182,192,80333,1,0,0:0:0:0:
402,192,80333,128,0,81000:0:0:0:0:
475,192,80333,1,0,0:0:0:0:
109,192,80500,1,0,0:0:0:0:
36,192,80667,1,0,0:0:0:0:
256,192,80667,1,0,0:0:0:0:
475,192,80667,128,0,81000:0:0:0:0:
329,192,80833,1,0,0:0:0:0:
182,192,81000,128,0,81167:0:0:0:0:
36,192,81000,1,0,0:0:0:0:
256,192,81000,1,0,0:0:0:0:
329,192,81167,128,0,81333:0:0:0:0:
475,192,81167,1,0,0:0:0:0:
109,192,81333,128,0,81500:0:0:0:0:
402,192,81333,1,0,0:0:0:0:
182,192,81333,1,0,0:0:0:0:
256,192,81500,128,0,81667:0:0:0:0:
475,192,81500,1,0,0:0:0:0:
36,192,81667,128,0,82500:0:0:0:0:
402,192,81667,1,0,0:0:0:0:
182,192,81667,1,0,0:0:0:0:
109,192,81833,128,0,82333:0:0:0:0:
256,192,81833,1,0,0:0:0:0:
475,192,81833,1,0,0:0:0:0:
402,192,82000,1,0,0:0:0:0:
329,192,82000,1,0,0:0:0:0:
182,192,82000,128,0,82167:0:0:0:0:
256,192,82167,128,0,82333:0:0:0:0:
475,192,82167,1,0,0:0:0:0:
402,192,82250,1,0,0:0:0:0:
182,192,82333,128,0,82500:0:0:0:0:
329,192,82333,1,0,0:0:0:0:
402,192,82417,1,0,0:0:0:0:
109,192,82500,128,0,82667:0:0:0:0:
475,192,82500,1,0,0:0:0:0:
256,192,82583,1,0,0:0:0:0:
36,192,82667,128,0,82833:0:0:0:0:
329,192,82667,1,0,0:0:0:0:
402,192,82750,1,0,0:0:0:0:
475,192,82833,1,0,0:0:0:0:
182,192,82833,1,0,0:0:0:0:
256,192,82917,1,0,0:0:0:0:
329,192,83000,1,0,0:0:0:0:
109,192,83000,128,0,83667:0:0:0:0:
402,192,83000,1,0,0:0:0:0:
36,192,83000,1,0,0:0:0:0:
475,192,83167,1,0,0:0:0:0:
256,192,83333,128,0,84000:0:0:0:0:
402,192,83333,1,0,0:0:0:0:
182,192,83333,1,0,0:0:0:0:
329,192,83500,1,0,0:0:0:0:
402,192,83667,128,0,84333:0:0:0:0:
36,192,83667,1,0,0:0:0:0:
182,192,83667,1,0,0:0:0:0:
109,192,83833,1,0,0:0:0:0:
36,192,84000,128,0,84667:0:0:0:0:
329,192,84000,1,0,0:0:0:0:
256,192,84167,1,0,0:0:0:0:
475,192,84167,1,0,0:0:0:0:
182,192,84333,128,0,85000:0:0:0:0:
109,192,84333,1,0,0:0:0:0:
256,192,84500,1,0,0:0:0:0:
402,192,84500,1,0,0:0:0:0:
329,192,84667,128,0,85333:0:0:0:0:
475,192,84667,1,0,0:0:0:0:
256,192,84833,1,0,0:0:0:0:
36,192,84833,1,0,0:0:0:0:
475,192,85000,128,0,85667:0:0:0:0:
109,192,85000,1,0,0:0:0:0:
402,192,85000,1,0,0:0:0:0:
182,192,85167,1,0,0:0:0:0:
256,192,85333,128,0,85667:0:0:0:0:
402,192,85333,1,0,0:0:0:0:
109,192,85333,1,0,0:0:0:0:
36,192,85500,1,0,0:0:0:0:
109,192,85583,1,0,0:0:0:0:
182,192,85667,1,0,0:0:0:0:
329,192,85667,1,0,0:0:0:0:
402,192,85667,1,0,0:0:0:0:
36,192,85667,1,0,0:0:0:0:
36,192,85833,1,0,0:0:0:0:
182,192,85833,1,0,0:0:0:0:
329,192,85833,1,0,0:0:0:0:
402,192,85833,1,0,0:0:0:0:
402,192,86167,1,0,0:0:0:0:
475,192,86167,1,0,0:0:0:0:
109,192,86167,1,0,0:0:0:0:
256,192,86167,1,0,0:0:0:0:
329,192,86500,1,0,0:0:0:0:
402,192,86500,1,0,0:0:0:0:
109,192,86500,1,0,0:0:0:0:
36,192,86500,1,0,0:0:0:0:
109,192,86833,1,0,0:0:0:0:
182,192,86833,1,0,0:0:0:0:
402,192,86833,1,0,0:0:0:0:
475,192,86833,1,0,0:0:0:0:
329,192,87167,1,0,0:0:0:0:
475,192,87167,1,0,0:0:0:0:
182,192,87167,1,0,0:0:0:0:
36,192,87167,1,0,0:0:0:0:
329,192,87500,1,0,0:0:0:0:
402,192,87500,1,0,0:0:0:0:
182,192,87500,1,0,0:0:0:0:
109,192,87500,1,0,0:0:0:0:
36,192,87833,1,0,0:0:0:0:
109,192,87833,1,0,0:0:0:0:
256,192,87833,1,0,0:0:0:0:
475,192,87833,1,0,0:0:0:0:
329,192,87917,1,0,0:0:0:0:
36,192,88000,1,0,0:0:0:0:
182,192,88000,1,0,0:0:0:0:
475,192,88000,1,0,0:0:0:0:
402,192,88000,1,0,0:0:0:0:
329,192,88083,1,0,0:0:0:0:
256,192,88167,1,0,0:0:0:0:
475,192,88333,128,0,89667:0:0:0:0:
329,192,88333,128,0,89667:0:0:0:0:
109,192,88333,128,0,89667:0:0:0:0:
256,192,89000,1,0,0:0:0:0:
256,192,89167,1,0,0:0:0:0:
256,192,89333,1,0,0:0:0:0:
256,192,89500,1,0,0:0:0:0:
256,192,89667,1,0,0:0:0:0:
402,192,89667,128,0,89833:0:0:0:0:
36,192,89667,1,0,0:0:0:0:
182,192,89667,1,0,0:0:0:0:
475,192,89833,128,0,90000:0:0:0:0:
109,192,89833,1,0,0:0:0:0:
256,192,89833,1,0,0:0:0:0:
329,192,90000,128,0,90167:0:0:0:0:
182,192,90000,1,0,0:0:0:0:
36,192,90000,1,0,0:0:0:0:
402,192,90167,128,0,90333:0:0:0:0:
109,192,90167,1,0,0:0:0:0:
256,192,90167,1,0,0:0:0:0:
475,192,90333,128,0,90500:0:0:0:0:
182,192,90333,1,0,0:0:0:0:
329,192,90333,1,0,0:0:0:0:
402,192,90500,128,0,90667:0:0:0:0:
109,192,90500,1,0,0:0:0:0:
256,192,90500,1,0,0:0:0:0:
329,192,90667,128,0,90833:0:0:0:0:
182,192,90667,1,0,0:0:0:0:
36,192,90667,1,0,0:0:0:0:
475,192,90833,128,0,91000:0:0:0:0:
109,192,90833,1,0,0:0:0:0:
256,192,90833,1,0,0:0:0:0:
36,192,91000,1,0,0:0:0:0:
182,192,91000,1,0,0:0:0:0:
329,192,91000,1,0,0:0:0:0:
402,192,91000,1,0,0:0:0:0:
475,192,91333,1,0,0:0:0:0:
329,192,91333,1,0,0:0:0:0:
109,192,91333,1,0,0:0:0:0:
36,192,91333,1,0,0:0:0:0:
182,192,91500,1,0,0:0:0:0:
329,192,91500,1,0,0:0:0:0:
36,192,91500,1,0,0:0:0:0:
475,192,91500,1,0,0:0:0:0:
182,192,91833,1,0,0:0:0:0:
256,192,91833,1,0,0:0:0:0:
329,192,91833,1,0,0:0:0:0:
475,192,91833,1,0,0:0:0:0:
329,192,92167,1,0,0:0:0:0:
256,192,92167,1,0,0:0:0:0:
182,192,92167,1,0,0:0:0:0:
36,192,92167,1,0,0:0:0:0:
402,192,92500,1,0,0:0:0:0:
256,192,92500,128,0,92667:0:0:0:0:
36,192,92500,1,0,0:0:0:0:
109,192,92667,1,0,0:0:0:0:
475,192,92667,1,0,0:0:0:0:
329,192,92667,128,0,92833:0:0:0:0:
402,192,92833,128,0,93000:0:0:0:0:
182,192,92833,1,0,0:0:0:0:
475,192,93000,128,0,93167:0:0:0:0:
256,192,93000,1,0,0:0:0:0:
36,192,93000,1,0,0:0:0:0:
182,192,93167,128,0,93333:0:0:0:0:
329,192,93167,1,0,0:0:0:0:
256,192,93333,128,0,93500:0:0:0:0:
402,192,93333,1,0,0:0:0:0:
109,192,93333,1,0,0:0:0:0:
329,192,93500,128,0,93667:0:0:0:0:
475,192,93500,1,0,0:0:0:0:
36,192,93667,128,0,94000:0:0:0:0:
182,192,93667,1,0,0:0:0:0:
329,192,93750,1,0,0:0:0:0:
109,192,93833,128,0,94167:0:0:0:0:
475,192,93833,1,0,0:0:0:0:
402,192,93917,1,0,0:0:0:0:
182,192,94000,128,0,94333:0:0:0:0:
329,192,94000,1,0,0:0:0:0:
256,192,94083,1,0,0:0:0:0:
36,192,94167,128,0,94500:0:0:0:0:
329,192,94167,1,0,0:0:0:0:
402,192,94250,1,0,0:0:0:0:
109,192,94333,128,0,94667:0:0:0:0:
475,192,94333,1,0,0:0:0:0:
329,192,94417,1,0,0:0:0:0:
182,192,94500,128,0,94833:0:0:0:0:
256,192,94500,1,0,0:0:0:0:
329,192,94583,1,0,0:0:0:0:
36,192,94667,128,0,95000:0:0:0:0:
402,192,94667,1,0,0:0:0:0:
475,192,94750,1,0,0:0:0:0:
402,192,94833,1,0,0:0:0:0:
256,192,94833,1,0,0:0:0:0:
475,192,95167,128,0,96333:0:0:0:0:
182,192,95167,1,0,0:0:0:0:
402,192,95333,128,0,96167:0:0:0:0:
109,192,95333,1,0,0:0:0:0:
329,192,95500,128,0,96000:0:0:0:0:
36,192,95500,1,0,0:0:0:0:
256,192,95667,128,0,95833:0:0:0:0:
109,192,95667,1,0,0:0:0:0:
182,192,95833,1,0,0:0:0:0:
36,192,95833,1,0,0:0:0:0:
256,192,96000,1,0,0:0:0:0:
109,192,96000,1,0,0:0:0:0:
329,192,96167,1,0,0:0:0:0:
182,192,96167,1,0,0:0:0:0:
402,192,96333,1,0,0:0:0:0:
109,192,96333,128,0,97667:0:0:0:0:
36,192,96333,1,0,0:0:0:0:
256,192,96333,1,0,0:0:0:0:
182,192,96417,1,0,0:0:0:0:
329,192,96500,1,0,0:0:0:0:
475,192,96583,1,0,0:0:0:0:
256,192,96667,1,0,0:0:0:0:
36,192,96667,1,0,0:0:0:0:
402,192,96750,1,0,0:0:0:0:
182,192,96833,1,0,0:0:0:0:
329,192,96917,1,0,0:0:0:0:
475,192,97000,1,0,0:0:0:0:
36,192,97000,1,0,0:0:0:0:
402,192,97083,1,0,0:0:0:0:
329,192,97167,1,0,0:0:0:0:
256,192,97250,1,0,0:0:0:0:
182,192,97333,1,0,0:0:0:0:
36,192,97333,1,0,0:0:0:0:
256,192,97417,1,0,0:0:0:0:
329,192,97500,1,0,0:0:0:0:
402,192,97583,1,0,0:0:0:0:
329,192,97667,128,0,98333:0:0:0:0:
475,192,97667,1,0,0:0:0:0:
256,192,97667,1,0,0:0:0:0:
182,192,97750,1,0,0:0:0:0:
109,192,97833,1,0,0:0:0:0:
36,192,97917,1,0,0:0:0:0:
256,192,98000,1,0,0:0:0:0:
402,192,98000,1,0,0:0:0:0:
109,192,98083,1,0,0:0:0:0:
182,192,98167,1,0,0:0:0:0:
256,192,98250,1,0,0:0:0:0:
475,192,98333,128,0,99000:0:0:0:0:
402,192,98333,1,0,0:0:0:0:
36,192,98333,1,0,0:0:0:0:
329,192,98417,1,0,0:0:0:0:
256,192,98500,1,0,0:0:0:0:
182,192,98583,1,0,0:0:0:0:
329,192,98667,128,0,99000:0:0:0:0:
109,192,98667,1,0,0:0:0:0:
402,192,98667,1,0,0:0:0:0:
182,192,98750,1,0,0:0:0:0:
256,192,98833,1,0,0:0:0:0:
109,192,98917,1,0,0:0:0:0:
36,192,99000,128,0,99333:0:0:0:0:
182,192,99000,1,0,0:0:0:0:
402,192,99000,1,0,0:0:0:0:
329,192,99083,1,0,0:0:0:0:
256,192,99167,1,0,0:0:0:0:
329,192,99250,1,0,0:0:0:0:
402,192,99333,128,0,100333:0:0:0:0:
475,192,99333,1,0,0:0:0:0:
109,192,99333,1,0,0:0:0:0:
182,192,99417,1,0,0:0:0:0:
256,192,99500,1,0,0:0:0:0:
329,192,99583,1,0,0:0:0:0:
109,192,99667,128,0,100333:0:0:0:0:
256,192,99667,1,0,0:0:0:0:
36,192,99667,1,0,0:0:0:0:
182,192,99750,1,0,0:0:0:0:
329,192,99833,1,0,0:0:0:0:
256,192,99917,1,0,0:0:0:0:
182,192,100000,1,0,0:0:0:0:
475,192,100000,1,0,0:0:0:0:
329,192,100083,1,0,0:0:0:0:
182,192,100167,1,0,0:0:0:0:
329,192,100250,1,0,0:0:0:0:
475,192,100333,128,0,101333:0:0:0:0:
182,192,100333,1,0,0:0:0:0:
36,192,100333,1,0,0:0:0:0:
256,192,100417,1,0,0:0:0:0:
329,192,100500,1,0,0:0:0:0:
402,192,100583,1,0,0:0:0:0:
36,192,100667,1,0,0:0:0:0:
182,192,100667,1,0,0:0:0:0:
109,192,100750,1,0,0:0:0:0:
182,192,100833,1,0,0:0:0:0:
256,192,100917,1,0,0:0:0:0:
329,192,101000,128,0,101667:0:0:0:0:
109,192,101000,1,0,0:0:0:0:
36,192,101000,1,0,0:0:0:0:
182,192,101083,1,0,0:0:0:0:
402,192,101167,1,0,0:0:0:0:
256,192,101250,1,0,0:0:0:0:
182,192,101333,128,0,102000:0:0:0:0:
109,192,101333,1,0,0:0:0:0:
36,192,101333,1,0,0:0:0:0:
402,192,101417,1,0,0:0:0:0:
256,192,101500,1,0,0:0:0:0:
475,192,101583,1,0,0:0:0:0:
36,192,101667,128,0,102333:0:0:0:0:
109,192,101667,1,0,0:0:0:0:
402,192,101667,1,0,0:0:0:0:
256,192,101750,1,0,0:0:0:0:
329,192,101833,1,0,0:0:0:0:
402,192,101917,1,0,0:0:0:0:
475,192,102000,1,0,0:0:0:0:
256,192,102000,1,0,0:0:0:0:
329,192,102083,1,0,0:0:0:0:
182,192,102167,128,0,103000:0:0:0:0:
402,192,102167,1,0,0:0:0:0:
256,192,102250,1,0,0:0:0:0:
329,192,102333,1,0,0:0:0:0:
109,192,102333,1,0,0:0:0:0:
475,192,102417,1,0,0:0:0:0:
402,192,102500,1,0,0:0:0:0:
329,192,102583,1,0,0:0:0:0:
256,192,102667,1,0,0:0:0:0:
36,192,102667,1,0,0:0:0:0:
475,192,102750,1,0,0:0:0:0:
329,192,102833,1,0,0:0:0:0:
402,192,102917,1,0,0:0:0:0:
475,192,103000,128,0,103667:0:0:0:0:
109,192,103000,1,0,0:0:0:0:
256,192,103000,1,0,0:0:0:0:
329,192,103083,1,0,0:0:0:0:
402,192,103167,1,0,0:0:0:0:
36,192,103167,1,0,0:0:0:0:
109,192,103250,1,0,0:0:0:0:
182,192,103333,1,0,0:0:0:0:
329,192,103333,1,0,0:0:0:0:
402,192,103417,1,0,0:0:0:0:
256,192,103500,1,0,0:0:0:0:
182,192,103583,1,0,0:0:0:0:
329,192,103667,128,0,104000:0:0:0:0:
109,192,103667,1,0,0:0:0:0:
402,192,103667,1,0,0:0:0:0:
256,192,103750,1,0,0:0:0:0:
182,192,103833,1,0,0:0:0:0:
109,192,103917,1,0,0:0:0:0:
182,192,104000,128,0,104333:0:0:0:0:
36,192,104000,1,0,0:0:0:0:
475,192,104000,1,0,0:0:0:0:
402,192,104083,1,0,0:0:0:0:
329,192,104167,1,0,0:0:0:0:
256,192,104250,1,0,0:0:0:0:
36,192,104333,128,0,105000:0:0:0:0:
475,192,104333,1,0,0:0:0:0:
109,192,104333,1,0,0:0:0:0:
182,192,104417,1,0,0:0:0:0:
256,192,104500,1,0,0:0:0:0:
329,192,104583,1,0,0:0:0:0:
402,192,104667,128,0,105000:0:0:0:0:
475,192,104667,1,0,0:0:0:0:
182,192,104667,1,0,0:0:0:0:
109,192,104750,1,0,0:0:0:0:
182,192,104833,128,0,105833:0:0:0:0:
256,192,104833,1,0,0:0:0:0:
329,192,104917,1,0,0:0:0:0:
475,192,105000,1,0,0:0:0:0:
109,192,105000,1,0,0:0:0:0:
402,192,105083,1,0,0:0:0:0:
329,192,105167,1,0,0:0:0:0:
256,192,105250,1,0,0:0:0:0:
402,192,105333,1,0,0:0:0:0:
36,192,105333,1,0,0:0:0:0:
329,192,105417,1,0,0:0:0:0:
256,192,105500,1,0,0:0:0:0:
475,192,105583,1,0,0:0:0:0:
256,192,105667,128,0,106000:0:0:0:0:
36,192,105667,128,0,105833:0:0:0:0:
329,192,105667,1,0,0:0:0:0:
329,192,105833,128,0,106167:0:0:0:0:
109,192,105833,128,0,106000:0:0:0:0:
402,192,105833,1,0,0:0:0:0:
182,192,106000,128,0,106167:0:0:0:0:
402,192,106000,128,0,106333:0:0:0:0:
475,192,106000,1,0,0:0:0:0:
256,192,106167,128,0,106333:0:0:0:0:
475,192,106167,128,0,106500:0:0:0:0:
36,192,106167,1,0,0:0:0:0:
109,192,106250,1,0,0:0:0:0:
182,192,106333,1,0,0:0:0:0:
329,192,106417,1,0,0:0:0:0:
256,192,106500,1,0,0:0:0:0:
182,192,106583,1,0,0:0:0:0:
402,192,106667,1,0,0:0:0:0:
329,192,106750,1,0,0:0:0:0:
256,192,106833,1,0,0:0:0:0:
182,192,106917,1,0,0:0:0:0:
256,192,107000,128,0,107333:0:0:0:0:
475,192,107000,128,0,107333:0:0:0:0:
109,192,107000,1,0,0:0:0:0:
402,192,107167,128,0,107333:0:0:0:0:
36,192,107167,1,0,0:0:0:0:
182,192,107167,128,0,107333:0:0:0:0:
109,192,107333,1,0,0:0:0:0:
36,192,107333,128,0,107667:0:0:0:0:
329,192,107333,128,0,107667:0:0:0:0:
402,192,107500,128,0,107667:0:0:0:0:
109,192,107500,128,0,107667:0:0:0:0:
182,192,107500,1,0,0:0:0:0:
256,192,107667,1,0,0:0:0:0:
475,192,107667,128,0,108000:0:0:0:0:
182,192,107667,128,0,108000:0:0:0:0:
329,192,107833,1,0,0:0:0:0:
256,192,107833,128,0,108000:0:0:0:0:
36,192,107833,128,0,108000:0:0:0:0:
109,192,108000,128,0,108333:0:0:0:0:
402,192,108000,1,0,0:0:0:0:
329,192,108000,128,0,108333:0:0:0:0:
475,192,108167,1,0,0:0:0:0:
402,192,108167,128,0,108333:0:0:0:0:
182,192,108167,128,0,108333:0:0:0:0:
475,192,108333,128,0,108667:0:0:0:0:
256,192,108333,1,0,0:0:0:0:
36,192,108333,128,0,108667:0:0:0:0:
402,192,108500,128,0,108667:0:0:0:0:
256,192,108500,128,0,108667:0:0:0:0:
182,192,108500,1,0,0:0:0:0:
109,192,108667,1,0,0:0:0:0:
182,192,108667,128,0,109000:0:0:0:0:
329,192,108667,128,0,109000:0:0:0:0:
402,192,108833,128,0,109000:0:0:0:0:
36,192,108833,1,0,0:0:0:0:
109,192,108833,128,0,109000:0:0:0:0:
256,192,109000,1,0,0:0:0:0:
36,192,109000,128,0,109333:0:0:0:0:
475,192,109000,128,0,109333:0:0:0:0:
109,192,109167,128,0,109333:0:0:0:0:
256,192,109167,128,0,109333:0:0:0:0:
329,192,109167,1,0,0:0:0:0:
402,192,109333,1,0,0:0:0:0:
329,192,109333,128,0,109667:0:0:0:0:
182,192,109333,128,0,109667:0:0:0:0:
36,192,109500,128,0,109667:0:0:0:0:
402,192,109500,128,0,109667:0:0:0:0:
475,192,109500,1,0,0:0:0:0:
475,192,109667,1,0,0:0:0:0:
256,192,109667,128,0,110000:0:0:0:0:
109,192,109667,128,0,110000:0:0:0:0:
402,192,109833,1,0,0:0:0:0:
182,192,109833,128,0,110000:0:0:0:0:
475,192,109833,128,0,110000:0:0:0:0:
329,192,110000,1,0,0:0:0:0:
402,192,110000,128,0,110333:0:0:0:0:
36,192,110000,128,0,110333:0:0:0:0:
256,192,110167,1,0,0:0:0:0:
329,192,110167,128,0,110333:0:0:0:0:
109,192,110167,128,0,110333:0:0:0:0:
182,192,110333,1,0,0:0:0:0:
256,192,110333,128,0,110667:0:0:0:0:
475,192,110333,128,0,110667:0:0:0:0:
109,192,110500,1,0,0:0:0:0:
182,192,110500,128,0,110667:0:0:0:0:
402,192,110500,128,0,110667:0:0:0:0:
36,192,110667,1,0,0:0:0:0:
109,192,110667,128,0,111000:0:0:0:0:
329,192,110667,128,0,111000:0:0:0:0:
36,192,110833,128,0,111000:0:0:0:0:
475,192,110833,128,0,111000:0:0:0:0:
182,192,111000,1,0,0:0:0:0:
256,192,111000,1,0,0:0:0:0:
402,192,111000,1,0,0:0:0:0:
109,192,111167,1,0,0:0:0:0:
475,192,111167,1,0,0:0:0:0:
36,192,111167,1,0,0:0:0:0:
182,192,111333,1,0,0:0:0:0:
329,192,111333,1,0,0:0:0:0:
402,192,111333,1,0,0:0:0:0:
475,192,111500,1,0,0:0:0:0:
256,192,111500,1,0,0:0:0:0:
36,192,111500,1,0,0:0:0:0:
182,192,111583,1,0,0:0:0:0:
329,192,111667,1,0,0:0:0:0:
402,192,111667,1,0,0:0:0:0:
109,192,111667,1,0,0:0:0:0:
36,192,111833,1,0,0:0:0:0:
109,192,111917,1,0,0:0:0:0:
182,192,112000,1,0,0:0:0:0:
256,192,112083,1,0,0:0:0:0:
329,192,112167,1,0,0:0:0:0:
402,192,112250,1,0,0:0:0:0:
475,192,112333,1,0,0:0:0:0:
36,192,112333,128,0,113000:0:0:0:0:
109,192,112333,128,0,112583:0:0:0:0:
182,192,112333,128,0,112583:0:0:0:0:
329,192,112500,1,0,0:0:0:0:
182,192,112667,1,0,0:0:0:0:
109,192,112833,128,0,113000:0:0:0:0:
256,192,112833,1,0,0:0:0:0:
402,192,112833,1,0,0:0:0:0:
182,192,113000,128,0,113167:0:0:0:0:
475,192,113000,1,0,0:0:0:0:
329,192,113000,1,0,0:0:0:0:
256,192,113167,128,0,113333:0:0:0:0:
402,192,113167,1,0,0:0:0:0:
36,192,113333,1,0,0:0:0:0:
475,192,113500,128,0,113750:0:0:0:0:
109,192,113500,1,0,0:0:0:0:
256,192,113500,1,0,0:0:0:0:
182,192,113667,1,0,0:0:0:0:
402,192,113833,128,0,114083:0:0:0:0:
256,192,113833,1,0,0:0:0:0:
109,192,113833,1,0,0:0:0:0:
182,192,114000,1,0,0:0:0:0:
329,192,114167,128,0,115000:0:0:0:0:
109,192,114167,1,0,0:0:0:0:
256,192,114167,1,0,0:0:0:0:
182,192,114333,1,0,0:0:0:0:
36,192,114333,1,0,0:0:0:0:
402,192,114500,128,0,115000:0:0:0:0:
109,192,114500,1,0,0:0:0:0:
36,192,114667,1,0,0:0:0:0:
256,192,114667,1,0,0:0:0:0:
182,192,114667,1,0,0:0:0:0:
475,192,114833,128,0,115000:0:0:0:0:
36,192,114833,1,0,0:0:0:0:
256,192,114833,1,0,0:0:0:0:
182,192,114833,1,0,0:0:0:0:
36,192,115000,1,0,0:0:0:0:
109,192,115000,1,0,0:0:0:0:
182,192,115000,1,0,0:0:0:0:
256,192,115000,1,0,0:0:0:0:
256,192,115167,1,0,0:0:0:0:
329,192,115167,1,0,0:0:0:0:
402,192,115167,1,0,0:0:0:0:
475,192,115167,1,0,0:0:0:0:
36,192,115500,1,0,0:0:0:0:
182,192,115500,1,0,0:0:0:0:
329,192,115500,1,0,0:0:0:0:
475,192,115500,1,0,0:0:0:0:
402,192,115667,1,0,0:0:0:0:
475,192,115667,1,0,0:0:0:0:
256,192,115667,1,0,0:0:0:0:
109,192,115667,1,0,0:0:0:0:
182,192,116000,1,0,0:0:0:0:
329,192,116000,1,0,0:0:0:0:
36,192,116000,1,0,0:0:0:0:
109,192,116000,1,0,0:0:0:0:
182,192,116167,1,0,0:0:0:0:
329,192,116167,1,0,0:0:0:0:
402,192,116167,1,0,0:0:0:0:
475,192,116167,1,0,0:0:0:0:
182,192,116500,1,0,0:0:0:0:
256,192,116500,1,0,0:0:0:0:
329,192,116500,1,0,0:0:0:0:
475,192,116500,1,0,0:0:0:0:
36,192,116667,1,0,0:0:0:0:
109,192,116667,1,0,0:0:0:0:
402,192,116667,1,0,0:0:0:0:
329,192,116667,1,0,0:0:0:0:
475,192,117000,1,0,0:0:0:0:
402,192,117000,1,0,0:0:0:0:
36,192,117000,128,0,117500:0:0:0:0:
402,192,117167,1,0,0:0:0:0:
329,192,117167,1,0,0:0:0:0:
109,192,117167,128,0,117500:0:0:0:0:
329,192,117333,1,0,0:0:0:0:
256,192,117333,1,0,0:0:0:0:
182,192,117333,128,0,117500:0:0:0:0:
475,192,117417,1,0,0:0:0:0:
402,192,117500,1,0,0:0:0:0:
329,192,117583,1,0,0:0:0:0:
402,192,117667,1,0,0:0:0:0:
36,192,117667,1,0,0:0:0:0:
109,192,117667,128,0,118833:0:0:0:0:
475,192,117750,1,0,0:0:0:0:
182,192,117833,1,0,0:0:0:0:
256,192,117917,1,0,0:0:0:0:
329,192,118000,1,0,0:0:0:0:
475,192,118000,1,0,0:0:0:0:
402,192,118167,1,0,0:0:0:0:
329,192,118250,1,0,0:0:0:0:
256,192,118333,1,0,0:0:0:0:
36,192,118333,1,0,0:0:0:0:
182,192,118417,1,0,0:0:0:0:
402,192,118500,1,0,0:0:0:0:
329,192,118583,1,0,0:0:0:0:
475,192,118667,1,0,0:0:0:0:
256,192,118667,1,0,0:0:0:0:
402,192,118750,1,0,0:0:0:0:
36,192,118833,128,0,120333:0:0:0:0:
182,192,118833,1,0,0:0:0:0:
329,192,118917,1,0,0:0:0:0:
109,192,119000,1,0,0:0:0:0:
256,192,119000,1,0,0:0:0:0:
475,192,119083,1,0,0:0:0:0:
402,192,119167,1,0,0:0:0:0:
329,192,119250,1,0,0:0:0:0:
256,192,119333,1,0,0:0:0:0:
109,192,119333,1,0,0:0:0:0:
182,192,119417,1,0,0:0:0:0:
256,192,119500,1,0,0:0:0:0:
329,192,119583,1,0,0:0:0:0:
109,192,119667,1,0,0:0:0:0:
256,192,119667,1,0,0:0:0:0:
329,192,119750,1,0,0:0:0:0:
182,192,119833,128,0,120333:0:0:0:0:
256,192,119833,1,0,0:0:0:0:
475,192,119917,1,0,0:0:0:0:
402,192,120000,1,0,0:0:0:0:
109,192,120000,1,0,0:0:0:0:
256,192,120083,1,0,0:0:0:0:
329,192,120167,1,0,0:0:0:0:
402,192,120250,1,0,0:0:0:0:
475,192,120333,128,0,120667:0:0:0:0:
256,192,120333,1,0,0:0:0:0:
109,192,120333,1,0,0:0:0:0:
36,192,120417,1,0,0:0:0:0:
182,192,120500,1,0,0:0:0:0:
109,192,120583,1,0,0:0:0:0:
329,192,120667,128,0,121000:0:0:0:0:
256,192,120667,1,0,0:0:0:0:
402,192,120667,1,0,0:0:0:0:
182,192,120750,1,0,0:0:0:0:
475,192,120833,128,0,121000:0:0:0:0:
36,192,120833,1,0,0:0:0:0:
109,192,120917,1,0,0:0:0:0:
182,192,121000,1,0,0:0:0:0:
402,192,121000,1,0,0:0:0:0:
256,192,121083,1,0,0:0:0:0:
329,192,121167,1,0,0:0:0:0:
402,192,121250,1,0,0:0:0:0:
475,192,121333,1,0,0:0:0:0:
36,192,121333,1,0,0:0:0:0:
109,192,121417,1,0,0:0:0:0:
182,192,121500,1,0,0:0:0:0:
256,192,121583,1,0,0:0:0:0:
36,192,121667,1,0,0:0:0:0:
109,192,121667,1,0,0:0:0:0:
182,192,121667,1,0,0:0:0:0:
329,192,121667,1,0,0:0:0:0:
109,192,121889,1,0,0:0:0:0:
182,192,121889,1,0,0:0:0:0:
256,192,121889,1,0,0:0:0:0:
402,192,121889,1,0,0:0:0:0:
182,192,122111,1,0,0:0:0:0:
256,192,122111,1,0,0:0:0:0:
329,192,122111,1,0,0:0:0:0:
475,192,122111,1,0,0:0:0:0:
256,192,122333,1,0,0:0:0:0:
182,192,122333,1,0,0:0:0:0:
36,192,122333,1,0,0:0:0:0:
475,192,122333,1,0,0:0:0:0:
109,192,122556,1,0,0:0:0:0:
329,192,122556,1,0,0:0:0:0:
182,192,122556,1,0,0:0:0:0:
402,192,122556,1,0,0:0:0:0:
256,192,122778,1,0,0:0:0:0:
182,192,122778,1,0,0:0:0:0:
36,192,122778,1,0,0:0:0:0:
402,192,122778,1,0,0:0:0:0:
402,192,123000,1,0,0:0:0:0:
475,192,123000,1,0,0:0:0:0:
109,192,123000,1,0,0:0:0:0:
36,192,123000,1,0,0:0:0:0:
256,192,123000,1,0,0:0:0:0:
329,192,123167,1,0,0:0:0:0:
402,192,123333,128,0,123750:0:0:0:0:
36,192,123333,1,0,0:0:0:0:
182,192,123333,1,0,0:0:0:0:
256,192,123500,1,0,0:0:0:0:
329,192,123667,1,0,0:0:0:0:
109,192,123667,1,0,0:0:0:0:
36,192,123833,128,0,124083:0:0:0:0:
182,192,123833,128,0,124083:0:0:0:0:
402,192,123833,1,0,0:0:0:0:
475,192,124000,1,0,0:0:0:0:
109,192,124167,128,0,124417:0:0:0:0:
256,192,124167,128,0,124417:0:0:0:0:
329,192,124167,1,0,0:0:0:0:
475,192,124333,1,0,0:0:0:0:
182,192,124500,128,0,124750:0:0:0:0:
329,192,124500,128,0,124750:0:0:0:0:
402,192,124500,1,0,0:0:0:0:
475,192,124667,1,0,0:0:0:0:
256,192,124833,128,0,125167:0:0:0:0:
182,192,124833,1,0,0:0:0:0:
36,192,124833,1,0,0:0:0:0:
402,192,125000,128,0,125333:0:0:0:0:
109,192,125000,1,0,0:0:0:0:
475,192,125000,1,0,0:0:0:0:
182,192,125167,128,0,125500:0:0:0:0:
329,192,125333,128,0,125667:0:0:0:0:
36,192,125333,1,0,0:0:0:0:
256,192,125333,1,0,0:0:0:0:
109,192,125500,128,0,125833:0:0:0:0:
36,192,125500,1,0,0:0:0:0:
475,192,125500,1,0,0:0:0:0:
256,192,125667,128,0,126000:0:0:0:0:
402,192,125667,128,0,126000:0:0:0:0:
182,192,125667,1,0,0:0:0:0:
36,192,125833,128,0,126167:0:0:0:0:
329,192,126000,128,0,126333:0:0:0:0:
475,192,126000,1,0,0:0:0:0:
109,192,126167,128,0,126500:0:0:0:0:
182,192,126167,1,0,0:0:0:0:
256,192,126333,1,0,0:0:0:0:
402,192,126333,1,0,0:0:0:0:
329,192,126500,128,0,126750:0:0:0:0:
475,192,126500,128,0,126750:0:0:0:0:
182,192,126500,1,0,0:0:0:0:
256,192,126833,128,0,127083:0:0:0:0:
402,192,126833,128,0,127083:0:0:0:0:
109,192,126833,1,0,0:0:0:0:
182,192,127167,128,0,127667:0:0:0:0:
329,192,127167,128,0,127333:0:0:0:0:
475,192,127167,128,0,127333:0:0:0:0:
36,192,127167,1,0,0:0:0:0:
36,192,127333,128,0,127667:0:0:0:0:
329,192,127500,128,0,128167:0:0:0:0:
256,192,127500,128,0,127833:0:0:0:0:
402,192,127500,1,0,0:0:0:0:
109,192,127667,128,0,128000:0:0:0:0:
475,192,127667,1,0,0:0:0:0:
475,192,127833,128,0,128167:0:0:0:0:
182,192,127833,128,0,128167:0:0:0:0:
402,192,127833,128,0,128000:0:0:0:0:
36,192,128000,128,0,128167:0:0:0:0:
256,192,128000,128,0,128333:0:0:0:0:
109,192,128167,128,0,128333:0:0:0:0:
402,192,128167,128,0,128333:0:0:0:0:
36,192,128333,1,0,0:0:0:0:
182,192,128333,1,0,0:0:0:0:
329,192,128333,1,0,0:0:0:0:
475,192,128333,1,0,0:0:0:0:
402,192,128500,128,0,129167:0:0:0:0:
256,192,128667,128,0,129000:0:0:0:0:
109,192,128833,128,0,129167:0:0:0:0:
182,192,129000,1,0,0:0:0:0:
329,192,129000,1,0,0:0:0:0:
475,192,129000,1,0,0:0:0:0:
475,192,129167,128,0,129417:0:0:0:0:
36,192,129167,128,0,129417:0:0:0:0:
256,192,129167,128,0,129333:0:0:0:0:
402,192,129500,128,0,129750:0:0:0:0:
109,192,129500,128,0,129750:0:0:0:0:
256,192,129500,128,0,129667:0:0:0:0:
329,192,129833,128,0,130083:0:0:0:0:
182,192,129833,128,0,130083:0:0:0:0:
256,192,129833,128,0,130000:0:0:0:0:
182,192,130167,1,0,0:0:0:0:
256,192,130167,1,0,0:0:0:0:
329,192,130167,1,0,0:0:0:0:
109,192,130333,1,0,0:0:0:0:
182,192,130333,1,0,0:0:0:0:
329,192,130333,1,0,0:0:0:0:
402,192,130333,1,0,0:0:0:0:
109,192,130667,1,0,0:0:0:0:
182,192,130667,1,0,0:0:0:0:
329,192,130667,1,0,0:0:0:0:
402,192,130667,1,0,0:0:0:0:
402,192,130833,1,0,0:0:0:0:
475,192,130833,1,0,0:0:0:0:
109,192,130833,1,0,0:0:0:0:
36,192,130833,1,0,0:0:0:0:
36,192,131333,1,0,0:0:0:0:
182,192,131333,1,0,0:0:0:0:
402,192,131333,1,0,0:0:0:0:
475,192,131333,1,0,0:0:0:0:
36,192,131500,1,0,0:0:0:0:
109,192,131500,1,0,0:0:0:0:
329,192,131500,1,0,0:0:0:0:
475,192,131500,1,0,0:0:0:0:
36,192,132000,1,0,0:0:0:0:
182,192,132000,1,0,0:0:0:0:
329,192,132000,1,0,0:0:0:0:
475,192,132000,1,0,0:0:0:0:
109,192,132167,1,0,0:0:0:0:
182,192,132167,1,0,0:0:0:0:
329,192,132167,1,0,0:0:0:0:
402,192,132167,1,0,0:0:0:0:
36,192,132500,1,0,0:0:0:0:
109,192,132500,1,0,0:0:0:0:
256,192,132500,1,0,0:0:0:0:
402,192,132500,1,0,0:0:0:0:
475,192,132500,1,0,0:0:0:0:
475,192,132750,1,0,0:0:0:0:
402,192,132750,1,0,0:0:0:0:
256,192,132750,1,0,0:0:0:0:
109,192,132750,1,0,0:0:0:0:
36,192,132750,1,0,0:0:0:0:
256,192,133000,128,0,133583:0:0:0:0:
36,192,133000,128,0,133250:0:0:0:0:
109,192,133000,128,0,133417:0:0:0:0:
402,192,133000,128,0,133417:0:0:0:0:
475,192,133000,128,0,133250:0:0:0:0:
475,192,133417,1,0,0:0:0:0:
36,192,133417,1,0,0:0:0:0:
402,192,133500,1,0,0:0:0:0:
109,192,133500,1,0,0:0:0:0:
329,192,133583,1,0,0:0:0:0:
182,192,133583,1,0,0:0:0:0:
256,192,133667,1,0,0:0:0:0:
36,192,133667,1,0,0:0:0:0:
402,192,133667,1,0,0:0:0:0:
475,192,133667,128,0,135000:0:0:0:0:
182,192,133750,1,0,0:0:0:0:
256,192,133833,1,0,0:0:0:0:
402,192,133833,1,0,0:0:0:0:
329,192,133917,1,0,0:0:0:0:
109,192,134000,1,0,0:0:0:0:
256,192,134000,1,0,0:0:0:0:
182,192,134083,1,0,0:0:0:0:
256,192,134167,1,0,0:0:0:0:
109,192,134167,1,0,0:0:0:0:
329,192,134250,1,0,0:0:0:0:
256,192,134333,1,0,0:0:0:0:
402,192,134333,1,0,0:0:0:0:
329,192,134417,1,0,0:0:0:0:
36,192,134500,1,0,0:0:0:0:
182,192,134500,1,0,0:0:0:0:
109,192,134583,1,0,0:0:0:0:
182,192,134667,1,0,0:0:0:0:
329,192,134667,1,0,0:0:0:0:
256,192,134750,1,0,0:0:0:0:
329,192,134833,1,0,0:0:0:0:
182,192,134833,1,0,0:0:0:0:
402,192,134917,1,0,0:0:0:0:
256,192,135000,1,0,0:0:0:0:
109,192,135000,1,0,0:0:0:0:
36,192,135000,128,0,136333:0:0:0:0:
329,192,135083,1,0,0:0:0:0:
402,192,135167,1,0,0:0:0:0:
182,192,135167,1,0,0:0:0:0:
329,192,135250,1,0,0:0:0:0:
256,192,135333,1,0,0:0:0:0:
109,192,135333,1,0,0:0:0:0:
329,192,135417,1,0,0:0:0:0:
402,192,135500,1,0,0:0:0:0:
182,192,135500,1,0,0:0:0:0:
475,192,135583,1,0,0:0:0:0:
402,192,135667,1,0,0:0:0:0:
109,192,135667,1,0,0:0:0:0:
329,192,135750,1,0,0:0:0:0:
475,192,135833,1,0,0:0:0:0:
182,192,135833,1,0,0:0:0:0:
402,192,135917,1,0,0:0:0:0:
256,192,136000,1,0,0:0:0:0:
475,192,136000,1,0,0:0:0:0:
402,192,136083,1,0,0:0:0:0:
329,192,136167,1,0,0:0:0:0:
475,192,136167,1,0,0:0:0:0:
109,192,136250,1,0,0:0:0:0:
256,192,136333,128,0,137667:0:0:0:0:
402,192,136333,1,0,0:0:0:0:
182,192,136333,1,0,0:0:0:0:
36,192,136417,1,0,0:0:0:0:
109,192,136500,1,0,0:0:0:0:
475,192,136500,1,0,0:0:0:0:
182,192,136583,1,0,0:0:0:0:
329,192,136667,1,0,0:0:0:0:
109,192,136667,1,0,0:0:0:0:
36,192,136750,1,0,0:0:0:0:
475,192,136833,1,0,0:0:0:0:
109,192,136833,1,0,0:0:0:0:
182,192,136917,1,0,0:0:0:0:
329,192,137000,1,0,0:0:0:0:
109,192,137000,1,0,0:0:0:0:
36,192,137083,1,0,0:0:0:0:
182,192,137167,1,0,0:0:0:0:
475,192,137167,1,0,0:0:0:0:
402,192,137250,1,0,0:0:0:0:
36,192,137333,1,0,0:0:0:0:
329,192,137333,1,0,0:0:0:0:
402,192,137417,1,0,0:0:0:0:
182,192,137500,1,0,0:0:0:0:
475,192,137500,1,0,0:0:0:0:
402,192,137583,1,0,0:0:0:0:
36,192,137667,1,0,0:0:0:0:
329,192,137667,1,0,0:0:0:0:
475,192,137667,128,0,138333:0:0:0:0:
182,192,137750,1,0,0:0:0:0:
256,192,137833,1,0,0:0:0:0:
109,192,137833,1,0,0:0:0:0:
329,192,137917,1,0,0:0:0:0:
402,192,138000,128,0,138500:0:0:0:0:
182,192,138000,1,0,0:0:0:0:
36,192,138000,1,0,0:0:0:0:
109,192,138083,1,0,0:0:0:0:
36,192,138167,1,0,0:0:0:0:
182,192,138167,1,0,0:0:0:0:
256,192,138250,1,0,0:0:0:0:
329,192,138333,128,0,138667:0:0:0:0:
182,192,138333,1,0,0:0:0:0:
109,192,138333,1,0,0:0:0:0:
36,192,138417,1,0,0:0:0:0:
182,192,138500,1,0,0:0:0:0:
475,192,138500,128,0,138833:0:0:0:0:
109,192,138583,1,0,0:0:0:0:
256,192,138667,128,0,139000:0:0:0:0:
36,192,138667,1,0,0:0:0:0:
402,192,138667,128,0,138833:0:0:0:0:
182,192,138750,1,0,0:0:0:0:
36,192,138833,1,0,0:0:0:0:
329,192,138833,128,0,139000:0:0:0:0:
109,192,138917,1,0,0:0:0:0:
36,192,139000,128,0,140333:0:0:0:0:
402,192,139000,1,0,0:0:0:0:
475,192,139000,1,0,0:0:0:0:
182,192,139000,1,0,0:0:0:0:
256,192,139083,1,0,0:0:0:0:
329,192,139167,1,0,0:0:0:0:
109,192,139167,1,0,0:0:0:0:
402,192,139250,1,0,0:0:0:0:
475,192,139333,1,0,0:0:0:0:
182,192,139333,1,0,0:0:0:0:
402,192,139417,1,0,0:0:0:0:
329,192,139500,1,0,0:0:0:0:
109,192,139500,1,0,0:0:0:0:
256,192,139583,1,0,0:0:0:0:
182,192,139667,1,0,0:0:0:0:
475,192,139667,1,0,0:0:0:0:
109,192,139750,1,0,0:0:0:0:
402,192,139833,1,0,0:0:0:0:
256,192,139833,1,0,0:0:0:0:
182,192,139917,1,0,0:0:0:0:
475,192,140000,1,0,0:0:0:0:
329,192,140000,1,0,0:0:0:0:
256,192,140083,1,0,0:0:0:0:
402,192,140167,1,0,0:0:0:0:
109,192,140167,1,0,0:0:0:0:
329,192,140250,1,0,0:0:0:0:
182,192,140333,128,0,141667:0:0:0:0:
475,192,140333,1,0,0:0:0:0:
256,192,140333,1,0,0:0:0:0:
402,192,140417,1,0,0:0:0:0:
329,192,140500,1,0,0:0:0:0:
109,192,140500,1,0,0:0:0:0:
256,192,140583,1,0,0:0:0:0:
36,192,140667,1,0,0:0:0:0:
329,192,140667,1,0,0:0:0:0:
402,192,140750,1,0,0:0:0:0:
109,192,140833,1,0,0:0:0:0:
475,192,140833,1,0,0:0:0:0:
256,192,140917,1,0,0:0:0:0:
36,192,141000,1,0,0:0:0:0:
402,192,141000,1,0,0:0:0:0:
329,192,141083,1,0,0:0:0:0:
475,192,141167,1,0,0:0:0:0:
109,192,141167,1,0,0:0:0:0:
256,192,141250,1,0,0:0:0:0:
402,192,141333,1,0,0:0:0:0:
36,192,141333,1,0,0:0:0:0:
329,192,141417,1,0,0:0:0:0:
475,192,141500,1,0,0:0:0:0:
109,192,141500,1,0,0:0:0:0:
402,192,141583,1,0,0:0:0:0:
329,192,141667,1,0,0:0:0:0:
36,192,141667,1,0,0:0:0:0:
256,192,141667,1,0,0:0:0:0:
475,192,141667,1,0,0:0:0:0:
256,192,141833,1,0,0:0:0:0:
329,192,141833,1,0,0:0:0:0:
36,192,141833,1,0,0:0:0:0:
475,192,141833,1,0,0:0:0:0:
182,192,142167,1,0,0:0:0:0:
256,192,142167,1,0,0:0:0:0:
36,192,142167,1,0,0:0:0:0:
475,192,142167,1,0,0:0:0:0:
36,192,142500,1,0,0:0:0:0:
109,192,142500,1,0,0:0:0:0:
182,192,142500,1,0,0:0:0:0:
475,192,142500,1,0,0:0:0:0:
329,192,142833,1,0,0:0:0:0:
402,192,142833,1,0,0:0:0:0:
475,192,142833,1,0,0:0:0:0:
36,192,142833,1,0,0:0:0:0:
36,192,143167,1,0,0:0:0:0:
329,192,143167,1,0,0:0:0:0:
475,192,143167,1,0,0:0:0:0:
182,192,143167,1,0,0:0:0:0:
109,192,143500,1,0,0:0:0:0:
182,192,143500,1,0,0:0:0:0:
329,192,143500,1,0,0:0:0:0:
402,192,143500,1,0,0:0:0:0:
475,192,143833,1,0,0:0:0:0:
402,192,143833,1,0,0:0:0:0:
109,192,143833,1,0,0:0:0:0:
36,192,143833,1,0,0:0:0:0:
182,192,144000,1,0,0:0:0:0:
256,192,144000,1,0,0:0:0:0:
329,192,144000,1,0,0:0:0:0:
475,192,144000,1,0,0:0:0:0:
36,192,144000,1,0,0:0:0:0:
402,192,144083,1,0,0:0:0:0:
109,192,144167,1,0,0:0:0:0:
182,192,144250,1,0,0:0:0:0:
256,192,144333,1,0,0:0:0:0:
475,192,144333,128,0,145333:0:0:0:0:
402,192,144333,128,0,145000:0:0:0:0:
329,192,144333,128,0,144667:0:0:0:0:
109,192,144500,1,0,0:0:0:0:
36,192,144500,128,0,144667:0:0:0:0:
182,192,144667,1,0,0:0:0:0:
109,192,144667,128,0,144833:0:0:0:0:
256,192,144833,1,0,0:0:0:0:
182,192,144833,128,0,145000:0:0:0:0:
329,192,145000,1,0,0:0:0:0:
256,192,145000,128,0,145167:0:0:0:0:
36,192,145000,1,0,0:0:0:0:
402,192,145167,1,0,0:0:0:0:
329,192,145167,128,0,145333:0:0:0:0:
36,192,145333,1,0,0:0:0:0:
182,192,145333,1,0,0:0:0:0:
329,192,145500,1,0,0:0:0:0:
475,192,145500,1,0,0:0:0:0:
109,192,145500,1,0,0:0:0:0:
36,192,145667,128,0,146667:0:0:0:0:
109,192,145667,128,0,146333:0:0:0:0:
182,192,145667,128,0,146000:0:0:0:0:
256,192,145667,1,0,0:0:0:0:
402,192,145833,1,0,0:0:0:0:
475,192,145833,128,0,146000:0:0:0:0:
329,192,146000,1,0,0:0:0:0:
402,192,146000,128,0,146167:0:0:0:0:
256,192,146167,1,0,0:0:0:0:
329,192,146167,128,0,146333:0:0:0:0:
182,192,146333,1,0,0:0:0:0:
256,192,146333,128,0,146500:0:0:0:0:
475,192,146333,1,0,0:0:0:0:
109,192,146500,1,0,0:0:0:0:
182,192,146500,128,0,146667:0:0:0:0:
256,192,146667,1,0,0:0:0:0:
402,192,146667,1,0,0:0:0:0:
475,192,146667,1,0,0:0:0:0:
36,192,146833,1,0,0:0:0:0:
109,192,146833,1,0,0:0:0:0:
329,192,146833,1,0,0:0:0:0:
402,192,146917,1,0,0:0:0:0:
475,192,147000,1,0,0:0:0:0:
36,192,147000,128,0,147333:0:0:0:0:
182,192,147000,1,0,0:0:0:0:
256,192,147000,1,0,0:0:0:0:
182,192,147167,128,0,147500:0:0:0:0:
402,192,147167,1,0,0:0:0:0:
329,192,147333,128,0,147667:0:0:0:0:
475,192,147333,1,0,0:0:0:0:
36,192,147500,128,0,148000:0:0:0:0:
402,192,147500,1,0,0:0:0:0:
182,192,147667,128,0,147833:0:0:0:0:
109,192,147667,1,0,0:0:0:0:
475,192,147667,1,0,0:0:0:0:
329,192,147833,128,0,148167:0:0:0:0:
402,192,147833,1,0,0:0:0:0:
182,192,148000,128,0,148167:0:0:0:0:
475,192,148000,1,0,0:0:0:0:
36,192,148167,128,0,148500:0:0:0:0:
402,192,148167,1,0,0:0:0:0:
256,192,148167,1,0,0:0:0:0:
182,192,148333,128,0,148667:0:0:0:0:
329,192,148333,1,0,0:0:0:0:
475,192,148333,128,0,149500:0:0:0:0:
256,192,148500,1,0,0:0:0:0:
402,192,148667,128,0,149500:0:0:0:0:
36,192,148667,1,0,0:0:0:0:
109,192,148833,1,0,0:0:0:0:
329,192,149000,128,0,149500:0:0:0:0:
182,192,149000,1,0,0:0:0:0:
36,192,149000,1,0,0:0:0:0:
109,192,149167,1,0,0:0:0:0:
256,192,149333,128,0,149500:0:0:0:0:
36,192,149333,1,0,0:0:0:0:
182,192,149333,1,0,0:0:0:0:
36,192,149500,1,0,0:0:0:0:
182,192,149500,1,0,0:0:0:0:
109,192,149500,1,0,0:0:0:0:
329,192,149667,128,0,149917:0:0:0:0:
475,192,149667,128,0,149917:0:0:0:0:
109,192,149667,1,0,0:0:0:0:
256,192,149667,1,0,0:0:0:0:
182,192,149750,1,0,0:0:0:0:
36,192,149833,1,0,0:0:0:0:
256,192,149833,1,0,0:0:0:0:
109,192,149917,1,0,0:0:0:0:
329,192,150000,128,0,150250:0:0:0:0:
475,192,150000,128,0,150250:0:0:0:0:
182,192,150000,1,0,0:0:0:0:
402,192,150000,1,0,0:0:0:0:
36,192,150083,1,0,0:0:0:0:
182,192,150167,1,0,0:0:0:0:
36,192,150250,1,0,0:0:0:0:
329,192,150333,128,0,150583:0:0:0:0:
475,192,150333,128,0,150583:0:0:0:0:
402,192,150333,1,0,0:0:0:0:
256,192,150333,1,0,0:0:0:0:
109,192,150417,1,0,0:0:0:0:
182,192,150500,1,0,0:0:0:0:
36,192,150583,1,0,0:0:0:0:
329,192,150667,128,0,150917:0:0:0:0:
475,192,150667,128,0,150917:0:0:0:0:
402,192,150667,1,0,0:0:0:0:
109,192,150667,1,0,0:0:0:0:
182,192,150750,1,0,0:0:0:0:
36,192,150833,1,0,0:0:0:0:
109,192,150917,1,0,0:0:0:0:
36,192,151000,128,0,151250:0:0:0:0:
182,192,151000,128,0,151250:0:0:0:0:
329,192,151000,1,0,0:0:0:0:
475,192,151000,1,0,0:0:0:0:
402,192,151083,1,0,0:0:0:0:
256,192,151167,1,0,0:0:0:0:
475,192,151250,1,0,0:0:0:0:
36,192,151333,128,0,151583:0:0:0:0:
182,192,151333,128,0,151583:0:0:0:0:
329,192,151333,1,0,0:0:0:0:
109,192,151333,1,0,0:0:0:0:
475,192,151417,1,0,0:0:0:0:
329,192,151500,1,0,0:0:0:0:
475,192,151583,1,0,0:0:0:0:
36,192,151667,128,0,151917:0:0:0:0:
182,192,151667,128,0,151917:0:0:0:0:
256,192,151667,1,0,0:0:0:0:
109,192,151667,1,0,0:0:0:0:
402,192,151750,1,0,0:0:0:0:
256,192,151833,1,0,0:0:0:0:
402,192,151917,1,0,0:0:0:0:
36,192,152000,128,0,152250:0:0:0:0:
182,192,152000,128,0,152250:0:0:0:0:
256,192,152000,1,0,0:0:0:0:
109,192,152000,1,0,0:0:0:0:
329,192,152083,1,0,0:0:0:0:
402,192,152167,1,0,0:0:0:0:
256,192,152250,1,0,0:0:0:0:
36,192,152333,1,0,0:0:0:0:
182,192,152333,1,0,0:0:0:0:
402,192,152333,128,0,152583:0:0:0:0:
475,192,152333,128,0,152583:0:0:0:0:
109,192,152417,1,0,0:0:0:0:
182,192,152500,1,0,0:0:0:0:
256,192,152583,1,0,0:0:0:0:
402,192,152667,128,0,152917:0:0:0:0:
475,192,152667,128,0,152917:0:0:0:0:
36,192,152667,1,0,0:0:0:0:
182,192,152667,1,0,0:0:0:0:
109,192,152750,1,0,0:0:0:0:
329,192,152833,1,0,0:0:0:0:
256,192,152917,1,0,0:0:0:0:
402,192,153000,128,0,153250:0:0:0:0:
475,192,153000,128,0,153250:0:0:0:0:
182,192,153000,1,0,0:0:0:0:
36,192,153000,1,0,0:0:0:0:
109,192,153083,1,0,0:0:0:0:
182,192,153167,1,0,0:0:0:0:
256,192,153250,1,0,0:0:0:0:
402,192,153333,128,0,153583:0:0:0:0:
475,192,153333,128,0,153583:0:0:0:0:
329,192,153333,1,0,0:0:0:0:
36,192,153333,1,0,0:0:0:0:
109,192,153417,1,0,0:0:0:0:
182,192,153500,1,0,0:0:0:0:
256,192,153583,1,0,0:0:0:0:
36,192,153667,128,0,153917:0:0:0:0:
109,192,153667,128,0,153917:0:0:0:0:
475,192,153667,1,0,0:0:0:0:
329,192,153667,1,0,0:0:0:0:
402,192,153750,1,0,0:0:0:0:
329,192,153833,1,0,0:0:0:0:
256,192,153917,1,0,0:0:0:0:
36,192,154000,128,0,154250:0:0:0:0:
109,192,154000,128,0,154250:0:0:0:0:
182,192,154000,1,0,0:0:0:0:
475,192,154000,1,0,0:0:0:0:
256,192,154083,1,0,0:0:0:0:
329,192,154167,1,0,0:0:0:0:
182,192,154250,1,0,0:0:0:0:
36,192,154333,128,0,154583:0:0:0:0:
109,192,154333,128,0,154583:0:0:0:0:
475,192,154333,1,0,0:0:0:0:
402,192,154333,1,0,0:0:0:0:
329,192,154417,1,0,0:0:0:0:
256,192,154500,1,0,0:0:0:0:
182,192,154583,1,0,0:0:0:0:
36,192,154667,128,0,154917:0:0:0:0:
109,192,154667,128,0,154917:0:0:0:0:
475,192,154667,1,0,0:0:0:0:
329,192,154667,1,0,0:0:0:0:
256,192,154750,1,0,0:0:0:0:
402,192,154833,1,0,0:0:0:0:
329,192,154917,1,0,0:0:0:0:
36,192,155000,1,0,0:0:0:0:
109,192,155000,1,0,0:0:0:0:
475,192,155000,1,0,0:0:0:0:
256,192,155000,1,0,0:0:0:0:
182,192,155167,1,0,0:0:0:0:
329,192,155167,1,0,0:0:0:0:
109,192,155333,1,0,0:0:0:0:
256,192,155333,1,0,0:0:0:0:
402,192,155333,1,0,0:0:0:0:
475,192,155333,1,0,0:0:0:0:
36,192,155500,1,0,0:0:0:0:
182,192,155500,1,0,0:0:0:0:
256,192,155667,1,0,0:0:0:0:
109,192,155667,1,0,0:0:0:0:
475,192,155667,1,0,0:0:0:0:
402,192,155667,1,0,0:0:0:0:
182,192,155833,1,0,0:0:0:0:
329,192,155833,1,0,0:0:0:0:
256,192,156000,1,0,0:0:0:0:
402,192,156000,1,0,0:0:0:0:
36,192,156000,1,0,0:0:0:0:
109,192,156000,1,0,0:0:0:0:
329,192,156167,1,0,0:0:0:0:
475,192,156167,1,0,0:0:0:0:
402,192,156333,1,0,0:0:0:0:
109,192,156333,1,0,0:0:0:0:
182,192,156333,1,0,0:0:0:0:
256,192,156333,1,0,0:0:0:0:
475,192,156500,1,0,0:0:0:0:
329,192,156500,1,0,0:0:0:0:
182,192,156667,1,0,0:0:0:0:
256,192,156667,1,0,0:0:0:0:
402,192,156667,1,0,0:0:0:0:
36,192,156667,1,0,0:0:0:0:
109,192,156833,1,0,0:0:0:0:
329,192,156833,1,0,0:0:0:0:
256,192,157000,1,0,0:0:0:0:
402,192,157000,1,0,0:0:0:0:
36,192,157000,1,0,0:0:0:0:
182,192,157000,1,0,0:0:0:0:
475,192,157167,1,0,0:0:0:0:
109,192,157167,1,0,0:0:0:0:
329,192,157333,1,0,0:0:0:0:
402,192,157333,1,0,0:0:0:0:
182,192,157333,1,0,0:0:0:0:
36,192,157333,1,0,0:0:0:0:
256,192,157500,1,0,0:0:0:0:
475,192,157500,1,0,0:0:0:0:
329,192,157667,1,0,0:0:0:0:
182,192,157667,1,0,0:0:0:0:
36,192,157667,1,0,0:0:0:0:
402,192,157667,1,0,0:0:0:0:
256,192,157833,1,0,0:0:0:0:
109,192,157833,1,0,0:0:0:0:
182,192,158000,1,0,0:0:0:0:
329,192,158000,1,0,0:0:0:0:
36,192,158000,1,0,0:0:0:0:
475,192,158000,1,0,0:0:0:0:
256,192,158167,1,0,0:0:0:0:
402,192,158167,1,0,0:0:0:0:
109,192,158333,1,0,0:0:0:0:
182,192,158333,1,0,0:0:0:0:
475,192,158333,1,0,0:0:0:0:
329,192,158333,1,0,0:0:0:0:
256,192,158500,1,0,0:0:0:0:
402,192,158500,1,0,0:0:0:0:
329,192,158667,1,0,0:0:0:0:
182,192,158667,1,0,0:0:0:0:
36,192,158667,1,0,0:0:0:0:
475,192,158667,1,0,0:0:0:0:
36,192,158833,1,0,0:0:0:0:
109,192,158833,1,0,0:0:0:0:
402,192,158833,1,0,0:0:0:0:
475,192,158833,1,0,0:0:0:0:
329,192,159167,1,0,0:0:0:0:
402,192,159167,1,0,0:0:0:0:
182,192,159167,1,0,0:0:0:0:
109,192,159167,1,0,0:0:0:0:
109,192,159333,1,0,0:0:0:0:
182,192,159333,1,0,0:0:0:0:
329,192,159333,1,0,0:0:0:0:
402,192,159333,1,0,0:0:0:0:
475,192,160306,1,0,0:0:0:0:
402,192,160333,1,0,0:0:0:0:
256,192,160333,128,0,161667:0:0:0:0:
36,192,161333,128,0,163000:0:0:0:0:
402,192,161333,1,0,0:0:0:0:
475,192,162000,128,0,163000:0:0:0:0:
329,192,162333,128,0,163000:0:0:0:0:
182,192,162667,128,0,163000:0:0:0:0:
402,192,163000,128,0,164333:0:0:0:0:
109,192,163000,1,0,0:0:0:0:
109,192,163500,128,0,164333:0:0:0:0:
256,192,163500,1,0,0:0:0:0:
256,192,164000,128,0,165667:0:0:0:0:
329,192,164000,1,0,0:0:0:0:
475,192,165167,128,0,166167:0:0:0:0:
36,192,165500,128,0,166167:0:0:0:0:
329,192,165500,128,0,166167:0:0:0:0:
182,192,165667,128,0,167000:0:0:0:0:
402,192,165667,1,0,0:0:0:0:
256,192,166167,128,0,167000:0:0:0:0:
109,192,166167,1,0,0:0:0:0:
475,192,166667,128,0,168333:0:0:0:0:
402,192,166667,1,0,0:0:0:0:
36,192,167333,128,0,168333:0:0:0:0:
182,192,167667,128,0,168333:0:0:0:0:
329,192,168000,128,0,168333:0:0:0:0:
402,192,168333,128,0,169667:0:0:0:0:
109,192,168333,1,0,0:0:0:0:
109,192,169000,128,0,169667:0:0:0:0:
256,192,169667,128,0,170667:0:0:0:0:
475,192,169667,1,0,0:0:0:0:
402,192,170333,128,0,171000:0:0:0:0:
329,192,170333,1,0,0:0:0:0:
36,192,170667,1,0,0:0:0:0:
109,192,170750,1,0,0:0:0:0:
182,192,170833,1,0,0:0:0:0:
256,192,170917,1,0,0:0:0:0:
329,192,171000,1,0,0:0:0:0:
475,192,171000,1,0,0:0:0:0:
36,192,171000,128,0,172333:0:0:0:0:
109,192,171000,128,0,172000:0:0:0:0:
256,192,171167,1,0,0:0:0:0:
329,192,171333,1,0,0:0:0:0:
475,192,171333,1,0,0:0:0:0:
256,192,171500,1,0,0:0:0:0:
475,192,171667,1,0,0:0:0:0:
329,192,171667,1,0,0:0:0:0:
182,192,171833,1,0,0:0:0:0:
402,192,172000,128,0,172333:0:0:0:0:
329,192,172000,1,0,0:0:0:0:
475,192,172000,1,0,0:0:0:0:
182,192,172167,1,0,0:0:0:0:
256,192,172333,128,0,172833:0:0:0:0:
329,192,172333,1,0,0:0:0:0:
475,192,172333,1,0,0:0:0:0:
402,192,172500,1,0,0:0:0:0:
36,192,172667,1,0,0:0:0:0:
182,192,172667,1,0,0:0:0:0:
109,192,172833,128,0,173333:0:0:0:0:
329,192,172833,1,0,0:0:0:0:
36,192,173000,1,0,0:0:0:0:
182,192,173000,1,0,0:0:0:0:
329,192,173167,1,0,0:0:0:0:
475,192,173333,128,0,174167:0:0:0:0:
36,192,173333,1,0,0:0:0:0:
182,192,173333,1,0,0:0:0:0:
256,192,173500,1,0,0:0:0:0:
109,192,173667,128,0,174167:0:0:0:0:
36,192,173667,128,0,175000:0:0:0:0:
182,192,173667,1,0,0:0:0:0:
329,192,173667,1,0,0:0:0:0:
402,192,173833,1,0,0:0:0:0:
182,192,174000,1,0,0:0:0:0:
329,192,174000,1,0,0:0:0:0:
402,192,174167,128,0,175000:0:0:0:0:
256,192,174167,1,0,0:0:0:0:
182,192,174333,1,0,0:0:0:0:
329,192,174333,1,0,0:0:0:0:
109,192,174500,1,0,0:0:0:0:
256,192,174667,128,0,175000:0:0:0:0:
182,192,174667,1,0,0:0:0:0:
329,192,174667,1,0,0:0:0:0:
109,192,174833,1,0,0:0:0:0:
475,192,175000,128,0,176333:0:0:0:0:
109,192,175000,128,0,175667:0:0:0:0:
182,192,175000,1,0,0:0:0:0:
329,192,175000,1,0,0:0:0:0:
256,192,175167,1,0,0:0:0:0:
182,192,175333,1,0,0:0:0:0:
402,192,175333,1,0,0:0:0:0:
329,192,175500,1,0,0:0:0:0:
256,192,175583,1,0,0:0:0:0:
182,192,175667,1,0,0:0:0:0:
402,192,175667,1,0,0:0:0:0:
329,192,175833,1,0,0:0:0:0:
109,192,175833,1,0,0:0:0:0:
36,192,176000,1,0,0:0:0:0:
109,192,176083,1,0,0:0:0:0:
182,192,176167,1,0,0:0:0:0:
256,192,176250,1,0,0:0:0:0:
329,192,176333,1,0,0:0:0:0:
402,192,176333,1,0,0:0:0:0:
36,192,176333,1,0,0:0:0:0:
109,192,176333,1,0,0:0:0:0:
475,192,176667,1,0,0:0:0:0:
402,192,176667,1,0,0:0:0:0:
109,192,176667,1,0,0:0:0:0:
256,192,176667,1,0,0:0:0:0:
402,192,176833,1,0,0:0:0:0:
329,192,176833,1,0,0:0:0:0:
182,192,176833,1,0,0:0:0:0:
36,192,176833,1,0,0:0:0:0:
475,192,179000,1,0,0:0:0:0:
402,192,179000,1,0,0:0:0:0:
256,192,179000,1,0,0:0:0:0:
182,192,179000,1,0,0:0:0:0:
402,192,179167,1,0,0:0:0:0:
329,192,179167,1,0,0:0:0:0:
182,192,179167,1,0,0:0:0:0:
109,192,179167,1,0,0:0:0:0:
329,192,179333,1,0,0:0:0:0:
256,192,179333,1,0,0:0:0:0:
109,192,179333,1,0,0:0:0:0:
36,192,179333,1,0,0:0:0:0:
109,192,179500,1,0,0:0:0:0:
182,192,179500,1,0,0:0:0:0:
329,192,179500,1,0,0:0:0:0:
402,192,179500,1,0,0:0:0:0:
182,192,179667,1,0,0:0:0:0:
256,192,179667,1,0,0:0:0:0:
402,192,179667,1,0,0:0:0:0:
475,192,179667,1,0,0:0:0:0:
109,192,179833,1,0,0:0:0:0:
256,192,179833,1,0,0:0:0:0:
402,192,179833,1,0,0:0:0:0:
475,192,179833,1,0,0:0:0:0:
36,192,180000,1,0,0:0:0:0:
182,192,180000,1,0,0:0:0:0:
329,192,180000,1,0,0:0:0:0:
402,192,180000,1,0,0:0:0:0:
475,192,180167,1,0,0:0:0:0:
329,192,180167,1,0,0:0:0:0:
109,192,180167,1,0,0:0:0:0:
36,192,180167,1,0,0:0:0:0:
36,192,180333,1,0,0:0:0:0:
109,192,180333,1,0,0:0:0:0:
402,192,180333,1,0,0:0:0:0:
475,192,180333,1,0,0:0:0:0:
329,192,180500,1,0,0:0:0:0:
402,192,180500,1,0,0:0:0:0:
182,192,180500,1,0,0:0:0:0:
109,192,180500,1,0,0:0:0:0:
182,192,180667,1,0,0:0:0:0:
36,192,180667,1,0,0:0:0:0:
329,192,180667,1,0,0:0:0:0:
475,192,180667,1,0,0:0:0:0:
182,192,181000,1,0,0:0:0:0:
36,192,181083,1,0,0:0:0:0:
256,192,181167,1,0,0:0:0:0:
109,192,181250,1,0,0:0:0:0:
329,192,181333,1,0,0:0:0:0:
182,192,181417,1,0,0:0:0:0:
402,192,181500,1,0,0:0:0:0:
256,192,181583,1,0,0:0:0:0:
475,192,181667,1,0,0:0:0:0:
109,192,181667,1,0,0:0:0:0:
182,192,181667,1,0,0:0:0:0:
36,192,181667,128,0,183000:0:0:0:0:
329,192,181750,1,0,0:0:0:0:
182,192,181833,1,0,0:0:0:0:
402,192,181917,1,0,0:0:0:0:
256,192,182000,1,0,0:0:0:0:
109,192,182000,1,0,0:0:0:0:
475,192,182083,1,0,0:0:0:0:
329,192,182167,1,0,0:0:0:0:
182,192,182250,1,0,0:0:0:0:
402,192,182333,1,0,0:0:0:0:
475,192,182333,1,0,0:0:0:0:
256,192,182417,1,0,0:0:0:0:
109,192,182500,1,0,0:0:0:0:
329,192,182583,1,0,0:0:0:0:
182,192,182667,1,0,0:0:0:0:
475,192,182667,1,0,0:0:0:0:
402,192,182750,1,0,0:0:0:0:
256,192,182833,1,0,0:0:0:0:
475,192,182917,1,0,0:0:0:0:
329,192,183000,1,0,0:0:0:0:
109,192,183000,1,0,0:0:0:0:
402,192,183000,128,0,184333:0:0:0:0:
256,192,183083,1,0,0:0:0:0:
36,192,183167,1,0,0:0:0:0:
109,192,183250,1,0,0:0:0:0:
256,192,183333,128,0,183667:0:0:0:0:
475,192,183333,1,0,0:0:0:0:
182,192,183333,1,0,0:0:0:0:
329,192,183417,1,0,0:0:0:0:
36,192,183500,1,0,0:0:0:0:
109,192,183583,1,0,0:0:0:0:
36,192,183667,128,0,184000:0:0:0:0:
182,192,183667,1,0,0:0:0:0:
329,192,183667,1,0,0:0:0:0:
256,192,183750,1,0,0:0:0:0:
182,192,183833,1,0,0:0:0:0:
329,192,183917,1,0,0:0:0:0:
109,192,184000,128,0,184333:0:0:0:0:
256,192,184000,1,0,0:0:0:0:
475,192,184000,1,0,0:0:0:0:
182,192,184083,1,0,0:0:0:0:
256,192,184167,1,0,0:0:0:0:
329,192,184250,1,0,0:0:0:0:
36,192,184333,128,0,185667:0:0:0:0:
256,192,184333,1,0,0:0:0:0:
475,192,184333,1,0,0:0:0:0:
402,192,184417,1,0,0:0:0:0:
109,192,184500,1,0,0:0:0:0:
182,192,184583,1,0,0:0:0:0:
329,192,184667,128,0,185667:0:0:0:0:
256,192,184667,1,0,0:0:0:0:
475,192,184667,1,0,0:0:0:0:
109,192,184750,1,0,0:0:0:0:
402,192,184833,1,0,0:0:0:0:
256,192,184917,1,0,0:0:0:0:
475,192,185000,1,0,0:0:0:0:
109,192,185000,1,0,0:0:0:0:
182,192,185083,1,0,0:0:0:0:
402,192,185167,1,0,0:0:0:0:
256,192,185250,1,0,0:0:0:0:
475,192,185333,1,0,0:0:0:0:
182,192,185333,1,0,0:0:0:0:
109,192,185417,1,0,0:0:0:0:
402,192,185500,1,0,0:0:0:0:
256,192,185583,1,0,0:0:0:0:
475,192,185667,128,0,186667:0:0:0:0:
109,192,185667,1,0,0:0:0:0:
182,192,185667,1,0,0:0:0:0:
402,192,185750,1,0,0:0:0:0:
256,192,185833,1,0,0:0:0:0:
109,192,185917,1,0,0:0:0:0:
256,192,186000,1,0,0:0:0:0:
36,192,186000,1,0,0:0:0:0:
182,192,186083,1,0,0:0:0:0:
329,192,186167,1,0,0:0:0:0:
402,192,186250,1,0,0:0:0:0:
36,192,186333,128,0,186500:0:0:0:0:
182,192,186333,1,0,0:0:0:0:
329,192,186333,1,0,0:0:0:0:
256,192,186417,1,0,0:0:0:0:
182,192,186500,128,0,186667:0:0:0:0:
402,192,186500,1,0,0:0:0:0:
329,192,186583,1,0,0:0:0:0:
402,192,186667,128,0,187000:0:0:0:0:
256,192,186667,1,0,0:0:0:0:
36,192,186667,1,0,0:0:0:0:
182,192,186750,1,0,0:0:0:0:
329,192,186833,128,0,187000:0:0:0:0:
109,192,186833,1,0,0:0:0:0:
256,192,186917,1,0,0:0:0:0:
36,192,187000,128,0,188333:0:0:0:0:
182,192,187000,1,0,0:0:0:0:
475,192,187000,1,0,0:0:0:0:
109,192,187000,1,0,0:0:0:0:
402,192,187083,1,0,0:0:0:0:
329,192,187167,1,0,0:0:0:0:
182,192,187250,1,0,0:0:0:0:
256,192,187333,1,0,0:0:0:0:
475,192,187333,1,0,0:0:0:0:
329,192,187417,1,0,0:0:0:0:
109,192,187500,128,0,188333:0:0:0:0:
182,192,187500,1,0,0:0:0:0:
256,192,187583,1,0,0:0:0:0:
475,192,187667,1,0,0:0:0:0:
329,192,187667,1,0,0:0:0:0:
402,192,187750,1,0,0:0:0:0:
329,192,187833,1,0,0:0:0:0:
475,192,187917,1,0,0:0:0:0:
182,192,188000,128,0,188333:0:0:0:0:
402,192,188000,1,0,0:0:0:0:
256,192,188000,1,0,0:0:0:0:
329,192,188083,1,0,0:0:0:0:
475,192,188167,1,0,0:0:0:0:
402,192,188250,1,0,0:0:0:0:
256,192,188333,128,0,188667:0:0:0:0:
475,192,188333,128,0,189667:0:0:0:0:
329,192,188333,1,0,0:0:0:0:
36,192,188417,1,0,0:0:0:0:
109,192,188500,1,0,0:0:0:0:
182,192,188583,1,0,0:0:0:0:
109,192,188667,128,0,189000:0:0:0:0:
329,192,188667,1,0,0:0:0:0:
36,192,188667,1,0,0:0:0:0:
256,192,188750,1,0,0:0:0:0:
182,192,188833,1,0,0:0:0:0:
402,192,188917,1,0,0:0:0:0:
329,192,189000,128,0,189333:0:0:0:0:
256,192,189000,1,0,0:0:0:0:
36,192,189000,1,0,0:0:0:0:
109,192,189083,1,0,0:0:0:0:
182,192,189167,1,0,0:0:0:0:
36,192,189250,1,0,0:0:0:0:
182,192,189333,128,0,189667:0:0:0:0:
109,192,189333,1,0,0:0:0:0:
402,192,189333,1,0,0:0:0:0:
329,192,189417,1,0,0:0:0:0:
256,192,189500,1,0,0:0:0:0:
36,192,189583,1,0,0:0:0:0:
109,192,189667,1,0,0:0:0:0:
402,192,189667,1,0,0:0:0:0:
329,192,189667,128,0,190333:0:0:0:0:
256,192,189750,1,0,0:0:0:0:
182,192,189833,1,0,0:0:0:0:
109,192,189917,1,0,0:0:0:0:
182,192,190000,128,0,191000:0:0:0:0:
475,192,190000,128,0,191000:0:0:0:0:
402,192,190000,1,0,0:0:0:0:
36,192,190000,1,0,0:0:0:0:
256,192,190083,1,0,0:0:0:0:
109,192,190167,1,0,0:0:0:0:
256,192,190250,1,0,0:0:0:0:
36,192,190333,1,0,0:0:0:0:
402,192,190333,1,0,0:0:0:0:
329,192,190417,1,0,0:0:0:0:
109,192,190500,1,0,0:0:0:0:
256,192,190583,1,0,0:0:0:0:
402,192,190667,1,0,0:0:0:0:
36,192,190667,1,0,0:0:0:0:
329,192,190750,1,0,0:0:0:0:
109,192,190833,1,0,0:0:0:0:
256,192,190917,1,0,0:0:0:0:
36,192,191000,128,0,191333:0:0:0:0:
329,192,191000,128,0,191167:0:0:0:0:
402,192,191000,1,0,0:0:0:0:
182,192,191167,128,0,191333:0:0:0:0:
402,192,191167,128,0,191500:0:0:0:0:
475,192,191167,1,0,0:0:0:0:
329,192,191333,128,0,191500:0:0:0:0:
109,192,191333,128,0,191667:0:0:0:0:
256,192,191333,1,0,0:0:0:0:
182,192,191500,128,0,191667:0:0:0:0:
36,192,191500,128,0,191833:0:0:0:0:
475,192,191500,1,0,0:0:0:0:
402,192,191583,1,0,0:0:0:0:
256,192,191667,1,0,0:0:0:0:
329,192,191750,1,0,0:0:0:0:
402,192,191833,1,0,0:0:0:0:
182,192,191833,1,0,0:0:0:0:
36,192,191917,1,0,0:0:0:0:
109,192,192000,1,0,0:0:0:0:
329,192,192000,1,0,0:0:0:0:
182,192,192083,1,0,0:0:0:0:
256,192,192167,1,0,0:0:0:0:
329,192,192250,1,0,0:0:0:0:
182,192,192333,1,0,0:0:0:0:
36,192,192333,1,0,0:0:0:0:
256,192,192333,128,0,192667:0:0:0:0:
402,192,192333,128,0,192667:0:0:0:0:
109,192,192500,1,0,0:0:0:0:
36,192,192500,128,0,192667:0:0:0:0:
329,192,192500,128,0,192667:0:0:0:0:
182,192,192667,1,0,0:0:0:0:
109,192,192667,128,0,193000:0:0:0:0:
475,192,192667,128,0,192833:0:0:0:0:
256,192,192833,1,0,0:0:0:0:
402,192,192833,128,0,193000:0:0:0:0:
36,192,192833,128,0,193000:0:0:0:0:
329,192,193000,1,0,0:0:0:0:
475,192,193000,128,0,193333:0:0:0:0:
182,192,193000,128,0,193167:0:0:0:0:
256,192,193167,1,0,0:0:0:0:
109,192,193167,128,0,193333:0:0:0:0:
329,192,193167,128,0,193333:0:0:0:0:
182,192,193333,1,0,0:0:0:0:
256,192,193333,128,0,193667:0:0:0:0:
36,192,193333,128,0,193500:0:0:0:0:
109,192,193500,1,0,0:0:0:0:
182,192,193500,128,0,193667:0:0:0:0:
402,192,193500,128,0,193667:0:0:0:0:
36,192,193667,1,0,0:0:0:0:
475,192,193667,1,0,0:0:0:0:
329,192,193667,128,0,193833:0:0:0:0:
109,192,193667,128,0,194000:0:0:0:0:
402,192,193833,1,0,0:0:0:0:
256,192,193833,128,0,194000:0:0:0:0:
36,192,193833,128,0,194000:0:0:0:0:
329,192,194000,1,0,0:0:0:0:
475,192,194000,128,0,194333:0:0:0:0:
182,192,194000,128,0,194167:0:0:0:0:
256,192,194167,1,0,0:0:0:0:
36,192,194167,128,0,194333:0:0:0:0:
402,192,194167,128,0,194333:0:0:0:0:
182,192,194333,1,0,0:0:0:0:
329,192,194333,128,0,194500:0:0:0:0:
109,192,194333,128,0,194667:0:0:0:0:
256,192,194500,1,0,0:0:0:0:
402,192,194500,128,0,194667:0:0:0:0:
182,192,194500,128,0,194667:0:0:0:0:
329,192,194667,1,0,0:0:0:0:
256,192,194667,128,0,195000:0:0:0:0:
475,192,194667,128,0,194833:0:0:0:0:
402,192,194833,1,0,0:0:0:0:
109,192,194833,128,0,195000:0:0:0:0:
329,192,194833,128,0,195000:0:0:0:0:
475,192,195000,1,0,0:0:0:0:
36,192,195000,1,0,0:0:0:0:
182,192,195000,128,0,195167:0:0:0:0:
402,192,195000,128,0,195333:0:0:0:0:
109,192,195167,1,0,0:0:0:0:
256,192,195167,128,0,195333:0:0:0:0:
36,192,195167,128,0,195333:0:0:0:0:
182,192,195333,1,0,0:0:0:0:
329,192,195333,128,0,195500:0:0:0:0:
109,192,195333,128,0,195667:0:0:0:0:
256,192,195500,1,0,0:0:0:0:
182,192,195500,128,0,195667:0:0:0:0:
402,192,195500,128,0,195667:0:0:0:0:
329,192,195667,1,0,0:0:0:0:
256,192,195667,128,0,196000:0:0:0:0:
475,192,195667,128,0,195833:0:0:0:0:
402,192,195833,1,0,0:0:0:0:
329,192,195833,128,0,196000:0:0:0:0:
109,192,195833,128,0,196000:0:0:0:0:
182,192,196000,128,0,196167:0:0:0:0:
475,192,196000,1,0,0:0:0:0:
36,192,196000,128,0,196333:0:0:0:0:
402,192,196167,1,0,0:0:0:0:
256,192,196167,128,0,196333:0:0:0:0:
475,192,196167,128,0,196333:0:0:0:0:
329,192,196333,1,0,0:0:0:0:
402,192,196333,128,0,196667:0:0:0:0:
182,192,196333,128,0,196500:0:0:0:0:
256,192,196500,1,0,0:0:0:0:
329,192,196500,128,0,196667:0:0:0:0:
109,192,196500,128,0,196667:0:0:0:0:
182,192,196667,1,0,0:0:0:0:
256,192,196667,128,0,197000:0:0:0:0:
36,192,196667,128,0,196833:0:0:0:0:
109,192,196833,1,0,0:0:0:0:
182,192,196833,128,0,197000:0:0:0:0:
329,192,196833,128,0,197000:0:0:0:0:
36,192,197000,1,0,0:0:0:0:
475,192,197000,1,0,0:0:0:0:
402,192,197083,1,0,0:0:0:0:
329,192,197167,1,0,0:0:0:0:
256,192,197250,1,0,0:0:0:0:
36,192,197333,1,0,0:0:0:0:
109,192,197417,1,0,0:0:0:0:
182,192,197500,1,0,0:0:0:0:
256,192,197583,1,0,0:0:0:0:
402,192,197667,128,0,198000:0:0:0:0:
475,192,197667,128,0,198333:0:0:0:0:
36,192,197667,1,0,0:0:0:0:
109,192,197667,1,0,0:0:0:0:
182,192,197833,1,0,0:0:0:0:
256,192,198000,128,0,198333:0:0:0:0:
109,192,198000,1,0,0:0:0:0:
36,192,198167,1,0,0:0:0:0:
402,192,198167,1,0,0:0:0:0:
109,192,198333,128,0,198667:0:0:0:0:
329,192,198333,128,0,198500:0:0:0:0:
182,192,198333,1,0,0:0:0:0:
182,192,198500,128,0,198667:0:0:0:0:
475,192,198500,1,0,0:0:0:0:
329,192,198667,1,0,0:0:0:0:
36,192,198833,128,0,199083:0:0:0:0:
182,192,198833,128,0,199083:0:0:0:0:
402,192,198833,1,0,0:0:0:0:
256,192,198833,1,0,0:0:0:0:
475,192,199000,1,0,0:0:0:0:
109,192,199167,128,0,199417:0:0:0:0:
256,192,199167,128,0,199417:0:0:0:0:
329,192,199167,1,0,0:0:0:0:
402,192,199167,1,0,0:0:0:0:
475,192,199333,1,0,0:0:0:0:
182,192,199500,128,0,199750:0:0:0:0:
329,192,199500,128,0,200333:0:0:0:0:
402,192,199500,1,0,0:0:0:0:
36,192,199500,1,0,0:0:0:0:
256,192,199667,1,0,0:0:0:0:
402,192,199833,128,0,200333:0:0:0:0:
109,192,199833,1,0,0:0:0:0:
182,192,200000,1,0,0:0:0:0:
36,192,200000,1,0,0:0:0:0:
256,192,200000,1,0,0:0:0:0:
475,192,200167,128,0,200333:0:0:0:0:
36,192,200167,1,0,0:0:0:0:
182,192,200167,1,0,0:0:0:0:
256,192,200167,1,0,0:0:0:0:
36,192,200333,1,0,0:0:0:0:
182,192,200333,1,0,0:0:0:0:
256,192,200333,1,0,0:0:0:0:
109,192,200333,1,0,0:0:0:0:
256,192,200500,1,0,0:0:0:0:
329,192,200500,1,0,0:0:0:0:
402,192,200500,1,0,0:0:0:0:
475,192,200500,1,0,0:0:0:0:
36,192,200833,1,0,0:0:0:0:
182,192,200833,1,0,0:0:0:0:
475,192,200833,1,0,0:0:0:0:
329,192,200833,1,0,0:0:0:0:
402,192,201000,1,0,0:0:0:0:
475,192,201000,1,0,0:0:0:0:
109,192,201000,1,0,0:0:0:0:
36,192,201000,1,0,0:0:0:0:
256,192,201333,1,0,0:0:0:0:
182,192,201333,1,0,0:0:0:0:
475,192,201333,1,0,0:0:0:0:
36,192,201333,1,0,0:0:0:0:
256,192,201500,1,0,0:0:0:0:
329,192,201500,1,0,0:0:0:0:
36,192,201500,1,0,0:0:0:0:
475,192,201500,1,0,0:0:0:0:
402,192,201833,1,0,0:0:0:0:
475,192,201833,1,0,0:0:0:0:
109,192,201833,1,0,0:0:0:0:
36,192,201833,1,0,0:0:0:0:
109,192,202000,1,0,0:0:0:0:
182,192,202000,1,0,0:0:0:0:
329,192,202000,1,0,0:0:0:0:
402,192,202000,1,0,0:0:0:0:
256,192,202333,128,0,203000:0:0:0:0:
36,192,202333,1,0,0:0:0:0:
182,192,202333,1,0,0:0:0:0:
329,192,202333,1,0,0:0:0:0:
475,192,202333,1,0,0:0:0:0:
109,192,202500,1,0,0:0:0:0:
402,192,202667,128,0,203000:0:0:0:0:
182,192,202667,1,0,0:0:0:0:
329,192,202750,1,0,0:0:0:0:
182,192,202833,1,0,0:0:0:0:
329,192,202917,1,0,0:0:0:0:
475,192,203000,128,0,203667:0:0:0:0:
182,192,203000,1,0,0:0:0:0:
36,192,203000,1,0,0:0:0:0:
109,192,203083,1,0,0:0:0:0:
36,192,203167,128,0,203500:0:0:0:0:
402,192,203167,1,0,0:0:0:0:
329,192,203250,1,0,0:0:0:0:
182,192,203333,1,0,0:0:0:0:
402,192,203333,1,0,0:0:0:0:
256,192,203417,1,0,0:0:0:0:
109,192,203500,128,0,203833:0:0:0:0:
329,192,203500,1,0,0:0:0:0:
182,192,203583,1,0,0:0:0:0:
256,192,203667,1,0,0:0:0:0:
402,192,203667,1,0,0:0:0:0:
329,192,203750,1,0,0:0:0:0:
182,192,203833,128,0,204167:0:0:0:0:
475,192,203833,1,0,0:0:0:0:
402,192,203917,1,0,0:0:0:0:
329,192,204000,1,0,0:0:0:0:
36,192,204000,1,0,0:0:0:0:
256,192,204083,1,0,0:0:0:0:
402,192,204167,128,0,205000:0:0:0:0:
109,192,204167,1,0,0:0:0:0:
329,192,204250,1,0,0:0:0:0:
36,192,204333,1,0,0:0:0:0:
182,192,204333,1,0,0:0:0:0:
109,192,204417,1,0,0:0:0:0:
182,192,204500,1,0,0:0:0:0:
256,192,204583,1,0,0:0:0:0:
36,192,204667,1,0,0:0:0:0:
329,192,204667,1,0,0:0:0:0:
182,192,204750,1,0,0:0:0:0:
329,192,204833,1,0,0:0:0:0:
109,192,204917,1,0,0:0:0:0:
256,192,205000,1,0,0:0:0:0:
475,192,205000,1,0,0:0:0:0:
182,192,205083,1,0,0:0:0:0:
36,192,205167,128,0,205333:0:0:0:0:
329,192,205167,1,0,0:0:0:0:
256,192,205250,1,0,0:0:0:0:
109,192,205333,128,0,205500:0:0:0:0:
402,192,205333,1,0,0:0:0:0:
475,192,205333,1,0,0:0:0:0:
329,192,205417,1,0,0:0:0:0:
182,192,205500,128,0,205667:0:0:0:0:
475,192,205500,1,0,0:0:0:0:
402,192,205583,1,0,0:0:0:0:
256,192,205667,128,0,207000:0:0:0:0:
329,192,205667,1,0,0:0:0:0:
36,192,205667,1,0,0:0:0:0:
475,192,205750,1,0,0:0:0:0:
109,192,205833,1,0,0:0:0:0:
402,192,205917,1,0,0:0:0:0:
36,192,206000,128,0,206167:0:0:0:0:
182,192,206000,1,0,0:0:0:0:
329,192,206000,1,0,0:0:0:0:
475,192,206083,1,0,0:0:0:0:
109,192,206167,128,0,206333:0:0:0:0:
402,192,206167,1,0,0:0:0:0:
329,192,206250,1,0,0:0:0:0:
402,192,206333,1,0,0:0:0:0:
36,192,206333,1,0,0:0:0:0:
475,192,206417,1,0,0:0:0:0:
182,192,206500,128,0,207000:0:0:0:0:
109,192,206500,1,0,0:0:0:0:
329,192,206583,1,0,0:0:0:0:
36,192,206667,1,0,0:0:0:0:
475,192,206667,1,0,0:0:0:0:
109,192,206750,1,0,0:0:0:0:
402,192,206833,1,0,0:0:0:0:
36,192,206917,1,0,0:0:0:0:
475,192,207000,128,0,208333:0:0:0:0:
402,192,207000,128,0,207333:0:0:0:0:
109,192,207000,1,0,0:0:0:0:
329,192,207000,1,0,0:0:0:0:
182,192,207083,1,0,0:0:0:0:
36,192,207167,1,0,0:0:0:0:
256,192,207250,1,0,0:0:0:0:
329,192,207333,128,0,207667:0:0:0:0:
109,192,207333,1,0,0:0:0:0:
182,192,207333,1,0,0:0:0:0:
36,192,207417,1,0,0:0:0:0:
182,192,207500,1,0,0:0:0:0:
109,192,207583,1,0,0:0:0:0:
256,192,207667,128,0,208000:0:0:0:0:
402,192,207667,1,0,0:0:0:0:
36,192,207667,1,0,0:0:0:0:
182,192,207750,1,0,0:0:0:0:
36,192,207833,128,0,208000:0:0:0:0:
329,192,207833,1,0,0:0:0:0:
402,192,207917,1,0,0:0:0:0:
109,192,208000,128,0,208167:0:0:0:0:
329,192,208000,1,0,0:0:0:0:
182,192,208000,1,0,0:0:0:0:
256,192,208083,1,0,0:0:0:0:
182,192,208167,128,0,208333:0:0:0:0:
329,192,208167,1,0,0:0:0:0:
36,192,208250,1,0,0:0:0:0:
402,192,208333,128,0,209667:0:0:0:0:
256,192,208333,128,0,209000:0:0:0:0:
109,192,208333,1,0,0:0:0:0:
182,192,208417,1,0,0:0:0:0:
475,192,208417,1,0,0:0:0:0:
329,192,208500,1,0,0:0:0:0:
182,192,208583,1,0,0:0:0:0:
36,192,208667,128,0,208833:0:0:0:0:
329,192,208667,1,0,0:0:0:0:
109,192,208667,1,0,0:0:0:0:
475,192,208750,1,0,0:0:0:0:
182,192,208833,128,0,209000:0:0:0:0:
329,192,208833,1,0,0:0:0:0:
475,192,208917,1,0,0:0:0:0:
329,192,209000,1,0,0:0:0:0:
109,192,209000,1,0,0:0:0:0:
36,192,209083,1,0,0:0:0:0:
329,192,209167,128,0,209667:0:0:0:0:
182,192,209167,1,0,0:0:0:0:
109,192,209250,1,0,0:0:0:0:
256,192,209333,1,0,0:0:0:0:
36,192,209333,1,0,0:0:0:0:
182,192,209417,1,0,0:0:0:0:
109,192,209500,1,0,0:0:0:0:
182,192,209583,1,0,0:0:0:0:
256,192,209667,1,0,0:0:0:0:
475,192,209667,128,0,211000:0:0:0:0:
36,192,209667,128,0,211000:0:0:0:0:
109,192,209667,128,0,210333:0:0:0:0:
329,192,210333,128,0,211000:0:0:0:0:
182,192,210333,128,0,211000:0:0:0:0:
256,192,210333,128,0,212333:0:0:0:0:
402,192,210333,128,0,211000:0:0:0:0:
475,192,212333,128,0,213333:0:0:0:0:
329,192,212333,128,0,213000:0:0:0:0:
182,192,212333,128,0,212667:0:0:0:0:
36,192,212333,1,0,0:0:0:0:
36,192,212667,128,0,213667:0:0:0:0:
109,192,212667,1,0,0:0:0:0:
256,192,212833,1,0,0:0:0:0:
182,192,213000,128,0,213667:0:0:0:0:
402,192,213000,1,0,0:0:0:0:
109,192,213000,1,0,0:0:0:0:
329,192,213333,128,0,213667:0:0:0:0:
109,192,213333,1,0,0:0:0:0:
402,192,213333,1,0,0:0:0:0:
475,192,213500,1,0,0:0:0:0:
402,192,213667,128,0,214667:0:0:0:0:
256,192,213667,128,0,214333:0:0:0:0:
109,192,213667,128,0,214000:0:0:0:0:
182,192,213833,1,0,0:0:0:0:
329,192,213833,1,0,0:0:0:0:
36,192,214000,128,0,214667:0:0:0:0:
475,192,214167,1,0,0:0:0:0:
182,192,214333,128,0,214667:0:0:0:0:
109,192,214333,1,0,0:0:0:0:
329,192,214333,1,0,0:0:0:0:
256,192,214667,128,0,215000:0:0:0:0:
329,192,214667,1,0,0:0:0:0:
475,192,214667,1,0,0:0:0:0:
475,192,214833,1,0,0:0:0:0:
329,192,214833,1,0,0:0:0:0:
402,192,215000,128,0,216000:0:0:0:0:
36,192,215000,128,0,215667:0:0:0:0:
182,192,215000,128,0,215333:0:0:0:0:
329,192,215000,1,0,0:0:0:0:
475,192,215000,1,0,0:0:0:0:
109,192,215167,1,0,0:0:0:0:
329,192,215333,128,0,216000:0:0:0:0:
256,192,215333,1,0,0:0:0:0:
182,192,215500,1,0,0:0:0:0:
182,192,215667,128,0,216000:0:0:0:0:
109,192,215667,1,0,0:0:0:0:
475,192,215667,1,0,0:0:0:0:
256,192,215667,1,0,0:0:0:0:
36,192,216000,128,0,216333:0:0:0:0:
475,192,216000,1,0,0:0:0:0:
109,192,216000,1,0,0:0:0:0:
256,192,216000,1,0,0:0:0:0:
329,192,216167,1,0,0:0:0:0:
475,192,216333,128,0,217333:0:0:0:0:
182,192,216333,128,0,217000:0:0:0:0:
402,192,216333,1,0,0:0:0:0:
329,192,216500,1,0,0:0:0:0:
329,192,216667,128,0,217333:0:0:0:0:
256,192,216667,1,0,0:0:0:0:
36,192,216667,1,0,0:0:0:0:
402,192,216667,1,0,0:0:0:0:
109,192,216833,1,0,0:0:0:0:
109,192,217000,128,0,217667:0:0:0:0:
36,192,217000,1,0,0:0:0:0:
256,192,217000,1,0,0:0:0:0:
402,192,217000,1,0,0:0:0:0:
256,192,217333,128,0,217667:0:0:0:0:
36,192,217333,1,0,0:0:0:0:
182,192,217333,1,0,0:0:0:0:
329,192,217500,1,0,0:0:0:0:
475,192,217500,1,0,0:0:0:0:
36,192,217667,128,0,218667:0:0:0:0:
182,192,217667,128,0,218333:0:0:0:0:
329,192,217667,128,0,218000:0:0:0:0:
402,192,217667,128,0,218667:0:0:0:0:
475,192,217667,1,0,0:0:0:0:
475,192,218000,128,0,219000:0:0:0:0:
256,192,218000,1,0,0:0:0:0:
109,192,218167,1,0,0:0:0:0:
329,192,218333,128,0,219000:0:0:0:0:
109,192,218333,1,0,0:0:0:0:
256,192,218333,1,0,0:0:0:0:
182,192,218667,128,0,219000:0:0:0:0:
256,192,218667,128,0,219667:0:0:0:0:
109,192,218667,1,0,0:0:0:0:
36,192,218833,1,0,0:0:0:0:
36,192,219000,128,0,220000:0:0:0:0:
109,192,219000,128,0,219667:0:0:0:0:
402,192,219000,1,0,0:0:0:0:
329,192,219167,1,0,0:0:0:0:
475,192,219333,128,0,220000:0:0:0:0:
402,192,219500,1,0,0:0:0:0:
182,192,219667,128,0,220000:0:0:0:0:
329,192,219667,1,0,0:0:0:0:
402,192,219667,1,0,0:0:0:0:
329,192,220000,128,0,220333:0:0:0:0:
109,192,220000,1,0,0:0:0:0:
256,192,220000,1,0,0:0:0:0:
256,192,220167,1,0,0:0:0:0:
109,192,220167,1,0,0:0:0:0:
256,192,220333,1,0,0:0:0:0:
109,192,220333,1,0,0:0:0:0:
182,192,220333,128,0,221000:0:0:0:0:
475,192,220333,128,0,221333:0:0:0:0:
36,192,220333,128,0,221000:0:0:0:0:
402,192,220667,128,0,221000:0:0:0:0:
109,192,220667,1,0,0:0:0:0:
329,192,220833,1,0,0:0:0:0:
256,192,221000,128,0,221333:0:0:0:0:
109,192,221000,1,0,0:0:0:0:
182,192,221333,128,0,222000:0:0:0:0:
329,192,221333,128,0,221500:0:0:0:0:
36,192,221333,1,0,0:0:0:0:
402,192,221500,128,0,221667:0:0:0:0:
109,192,221500,1,0,0:0:0:0:
475,192,221667,128,0,222667:0:0:0:0:
36,192,221667,128,0,222000:0:0:0:0:
256,192,221667,1,0,0:0:0:0:
329,192,221833,1,0,0:0:0:0:
329,192,222000,128,0,222667:0:0:0:0:
402,192,222000,1,0,0:0:0:0:
109,192,222000,1,0,0:0:0:0:
256,192,222167,1,0,0:0:0:0:
182,192,222333,128,0,223000:0:0:0:0:
109,192,222333,1,0,0:0:0:0:
256,192,222417,1,0,0:0:0:0:
402,192,222500,1,0,0:0:0:0:
256,192,222583,1,0,0:0:0:0:
109,192,222667,1,0,0:0:0:0:
36,192,222667,128,0,223000:0:0:0:0:
256,192,222750,1,0,0:0:0:0:
402,192,222833,1,0,0:0:0:0:
475,192,223000,128,0,224667:0:0:0:0:
402,192,223000,128,0,223667:0:0:0:0:
109,192,223000,1,0,0:0:0:0:
256,192,223000,1,0,0:0:0:0:
182,192,223167,1,0,0:0:0:0:
182,192,223333,128,0,224000:0:0:0:0:
329,192,223333,1,0,0:0:0:0:
36,192,223333,1,0,0:0:0:0:
329,192,223667,128,0,224333:0:0:0:0:
256,192,223667,1,0,0:0:0:0:
109,192,223667,1,0,0:0:0:0:
256,192,223833,1,0,0:0:0:0:
109,192,224000,128,0,224667:0:0:0:0:
402,192,224000,1,0,0:0:0:0:
36,192,224000,1,0,0:0:0:0:
182,192,224167,1,0,0:0:0:0:
256,192,224333,128,0,225000:0:0:0:0:
402,192,224333,1,0,0:0:0:0:
36,192,224333,1,0,0:0:0:0:
329,192,224500,1,0,0:0:0:0:
402,192,224667,128,0,225333:0:0:0:0:
182,192,224667,1,0,0:0:0:0:
329,192,224667,1,0,0:0:0:0:
36,192,224667,128,0,225333:0:0:0:0:
475,192,224833,1,0,0:0:0:0:
182,192,225000,128,0,225667:0:0:0:0:
109,192,225000,1,0,0:0:0:0:
329,192,225000,1,0,0:0:0:0:
109,192,225167,1,0,0:0:0:0:
329,192,225333,128,0,226000:0:0:0:0:
256,192,225333,1,0,0:0:0:0:
475,192,225333,1,0,0:0:0:0:
475,192,225667,128,0,226333:0:0:0:0:
36,192,225667,128,0,226333:0:0:0:0:
402,192,225667,1,0,0:0:0:0:
109,192,225667,1,0,0:0:0:0:
256,192,225667,1,0,0:0:0:0:
182,192,225833,1,0,0:0:0:0:
109,192,226000,1,0,0:0:0:0:
256,192,226000,1,0,0:0:0:0:
182,192,226000,128,0,226667:0:0:0:0:
329,192,226333,128,0,227000:0:0:0:0:
402,192,226333,1,0,0:0:0:0:
256,192,226333,1,0,0:0:0:0:
109,192,226500,1,0,0:0:0:0:
475,192,226667,128,0,227667:0:0:0:0:
109,192,226667,128,0,227333:0:0:0:0:
402,192,226667,128,0,227333:0:0:0:0:
256,192,226667,1,0,0:0:0:0:
36,192,226667,1,0,0:0:0:0:
182,192,226833,1,0,0:0:0:0:
256,192,227000,128,0,227667:0:0:0:0:
36,192,227000,1,0,0:0:0:0:
182,192,227000,1,0,0:0:0:0:
329,192,227167,1,0,0:0:0:0:
36,192,227333,128,0,228000:0:0:0:0:
182,192,227333,1,0,0:0:0:0:
329,192,227333,1,0,0:0:0:0:
402,192,227500,1,0,0:0:0:0:
109,192,227583,1,0,0:0:0:0:
402,192,227667,1,0,0:0:0:0:
256,192,227750,1,0,0:0:0:0:
109,192,227833,1,0,0:0:0:0:
329,192,227833,1,0,0:0:0:0:
475,192,227833,1,0,0:0:0:0:
402,192,227833,1,0,0:0:0:0:
36,192,228167,1,0,0:0:0:0:
109,192,228167,1,0,0:0:0:0:
256,192,228167,1,0,0:0:0:0:
329,192,228167,1,0,0:0:0:0:
109,192,228333,1,0,0:0:0:0:
182,192,228333,1,0,0:0:0:0:
329,192,228333,1,0,0:0:0:0:
402,192,228333,1,0,0:0:0:0:
182,192,228500,1,0,0:0:0:0:
256,192,228500,1,0,0:0:0:0:
402,192,228500,1,0,0:0:0:0:
475,192,228500,1,0,0:0:0:0:
36,192,228833,1,0,0:0:0:0:
109,192,228833,1,0,0:0:0:0:
256,192,228833,1,0,0:0:0:0:
402,192,228833,1,0,0:0:0:0:
36,192,229000,1,0,0:0:0:0:
109,192,229000,1,0,0:0:0:0:
329,192,229000,1,0,0:0:0:0:
475,192,229000,1,0,0:0:0:0:
475,192,229333,1,0,0:0:0:0:
402,192,229333,1,0,0:0:0:0:
256,192,229333,1,0,0:0:0:0:
109,192,229333,1,0,0:0:0:0:
475,192,229500,1,0,0:0:0:0:
402,192,229500,1,0,0:0:0:0:
182,192,229500,1,0,0:0:0:0:
36,192,229500,1,0,0:0:0:0:
329,192,229833,1,0,0:0:0:0:
402,192,229833,1,0,0:0:0:0:
182,192,229833,1,0,0:0:0:0:
109,192,229833,1,0,0:0:0:0:
36,192,230000,1,0,0:0:0:0:
109,192,230000,1,0,0:0:0:0:
402,192,230000,1,0,0:0:0:0:
475,192,230000,1,0,0:0:0:0:
36,192,230333,1,0,0:0:0:0:
182,192,230333,1,0,0:0:0:0:
256,192,230333,1,0,0:0:0:0:
329,192,230333,1,0,0:0:0:0:
475,192,230333,1,0,0:0:0:0:
402,192,230500,1,0,0:0:0:0:
475,192,230500,1,0,0:0:0:0:
256,192,230500,1,0,0:0:0:0:
109,192,230500,1,0,0:0:0:0:
36,192,230500,1,0,0:0:0:0:
256,192,230667,1,0,0:0:0:0:
182,192,230667,1,0,0:0:0:0:
329,192,230667,1,0,0:0:0:0:
475,192,230667,1,0,0:0:0:0:
36,192,230667,1,0,0:0:0:0:
256,192,230833,1,0,0:0:0:0:
109,192,230833,1,0,0:0:0:0:
36,192,230833,1,0,0:0:0:0:
402,192,230833,1,0,0:0:0:0:
475,192,230833,1,0,0:0:0:0:
329,192,231000,1,0,0:0:0:0:
182,192,231083,1,0,0:0:0:0:
402,192,231167,1,0,0:0:0:0:
109,192,231250,1,0,0:0:0:0:
475,192,231333,1,0,0:0:0:0:
36,192,231417,1,0,0:0:0:0:
402,192,231500,1,0,0:0:0:0:
109,192,231583,1,0,0:0:0:0:
475,192,231945,1,0,0:0:0:0:
402,192,232000,1,0,0:0:0:0:
329,192,232056,1,0,0:0:0:0:
256,192,232111,1,0,0:0:0:0:
182,192,232167,1,0,0:0:0:0:
109,192,232222,1,0,0:0:0:0:
36,192,232278,1,0,0:0:0:0:
475,192,232333,128,0,240333:0:0:0:0:
329,192,232333,128,0,240333:0:0:0:0:
256,192,232333,128,0,234833:0:0:0:0:
109,192,232500,128,0,234750:0:0:0:0:
109,192,234875,1,0,0:0:0:0:
256,192,234958,1,0,0:0:0:0:
