osu file format v14

[General]
AudioFilename: audio.mp3
AudioLeadIn: 0
PreviewTime: 58156
Countdown: 0
SampleSet: Soft
StackLeniency: 0.3
Mode: 0
LetterboxInBreaks: 0
WidescreenStoryboard: 1

[Editor]
DistanceSpacing: 0.6
BeatDivisor: 4
GridSize: 16
TimelineZoom: 1.5

[Metadata]
Title:LOVE&MOON (TV Size)
TitleUnicode:LOVE&MOON (TV Size)
Artist:Kohno Marika
ArtistUnicode:高野麻里佳
Creator:StaroaX
Version:Precious
Source:勇者パーティーを追放されたビーストテイマー、最強種の猫耳少女と出会う
Tags:Yuusha Party Pati wo Tsuihou Sareta Bisuto Teima Beast Tamer Saikyoushu no Nekomimi Shoujo to Deau anime ending ed japanese ARAKI catgirl cat dragon fairy girl pop j-pop jpop -Magic- Syodou Kyutei Anya Melfissa Shingyouji Yuni Nodoro
BeatmapID:3960844
BeatmapSetID:1919305

[Difficulty]
HPDrainRate:5.4
CircleSize:4.4
OverallDifficulty:8.4
ApproachRate:8.8
SliderMultiplier:2.22
SliderTickRate:1

[Events]
//Background and Video events
0,0,"BT.jpg",0,0
Video,30,"YPWTSBTSNNSTD ED.mp4"
//Break Periods
//Storyboard Layer 0 (Background)
//Storyboard Layer 1 (Fail)
//Storyboard Layer 2 (Pass)
//Storyboard Layer 3 (Foreground)
//Storyboard Layer 4 (Overlay)
//Storyboard Sound Samples

[TimingPoints]
678,495.867768595041,4,2,12,70,1,0
23983,-250,4,2,12,70,0,0
24355,-250,4,2,12,5,0,0
24479,-125,4,2,12,60,0,0
42330,-166.666666666667,4,2,12,60,0,0
50264,-125,4,2,12,60,0,0
54231,-100,4,2,12,70,0,0
55223,-100,4,2,12,70,0,0
55306,-100,4,2,12,5,0,0
55471,-100,4,2,12,70,0,0
55554,-100,4,2,12,5,0,0
55719,-100,4,2,12,70,0,0
55801,-100,4,2,12,5,0,0
55967,-83.3333333333333,4,2,12,70,0,0
56463,-100,4,2,12,70,0,0
56545,-100,4,2,12,5,0,0
56711,-100,4,2,12,70,0,0
56793,-100,4,2,12,5,0,0
56958,-100,4,2,12,70,0,0
57041,-100,4,2,12,5,0,0
57206,-100,4,2,12,70,0,0
57702,-71.4285714285714,4,2,12,70,0,0
58074,-71.4285714285714,4,2,12,5,0,0
58198,-83.3333333333333,4,2,12,80,0,1
60677,-71.4285714285714,4,2,12,80,0,1
61173,-62.5,4,2,12,80,0,1
61669,-83.3333333333333,4,2,12,80,0,1
65140,-71.4285714285714,4,2,12,80,0,1
65636,-83.3333333333333,4,2,12,80,0,0
66132,-83.3333333333333,4,2,12,80,0,1
68611,-71.4285714285714,4,2,12,80,0,1
69107,-62.5,4,2,12,80,0,1
69603,-83.3333333333333,4,2,12,80,0,1
73074,-71.4285714285714,4,2,12,80,0,1
73694,-250.000000000001,4,2,12,80,0,0
74066,-100,4,2,12,80,0,1
78033,-83.3333333333333,4,2,12,80,0,0
78157,-83.3333333333333,4,2,12,5,0,0
78281,-83.3333333333333,4,2,12,80,0,0
78405,-83.3333333333333,4,2,12,5,0,0
79025,-83.3333333333333,4,2,12,80,0,0
79149,-83.3333333333333,4,2,12,5,0,0
79273,-83.3333333333333,4,2,12,80,0,0
79397,-83.3333333333333,4,2,12,5,0,0
80016,-76.9230769230769,4,2,12,80,0,1
82000,-83.3333333333333,4,2,12,80,0,0
82124,-83.3333333333333,4,2,12,5,0,0
82248,-83.3333333333333,4,2,12,80,0,0
82372,-83.3333333333333,4,2,12,5,0,0
82992,-83.3333333333333,4,2,12,80,0,0
83116,-83.3333333333333,4,2,12,5,0,0
83239,-83.3333333333333,4,2,12,80,0,0
83363,-83.3333333333333,4,2,12,5,0,0
83487,-100,4,2,12,60,0,0
83983,-100,4,2,12,70,0,0
84479,-100,4,2,12,60,0,0
84975,-100,4,2,12,50,0,0
85471,-100,4,2,12,40,0,0
85967,-100,4,2,12,30,0,0
86463,-100,4,2,12,20,0,0
86958,-100,4,2,12,10,0,0
87454,-100,4,2,12,60,0,0

[Colours]
Combo1 : 105,205,255
Combo2 : 255,205,130
Combo3 : 255,130,55
Combo4 : 255,130,155
Combo5 : 255,80,80
Combo6 : 180,230,230

[HitObjects]
256,192,6628,5,2,0:3:0:0:
256,192,7124,1,2,0:3:0:0:
256,104,7620,5,8,0:0:0:0:
256,280,7868,1,8,0:3:0:0:
247,187,8116,1,8,3:2:0:0:
264,187,8239,1,8,0:0:0:0:
256,201,8363,1,0,3:0:0:0:
212,350,8611,6,0,L|157:359,1,55.5,6|0,3:2|0:0,0:0:0:0:
42,255,8859,2,0,L|96:264,1,55.5,2|0,3:2|0:0,0:0:0:0:
170,277,9107,2,0,P|96:305|81:383,1,166.5,10|0,0:0|3:0,0:0:0:0:
138,195,9603,1,10,0:0:0:0:
134,178,9727,1,8,0:0:0:0:
131,161,9851,1,0,3:0:0:0:
296,352,10099,1,10,0:0:0:0:
394,122,10347,6,0,P|493:159|513:263,1,222,6|2,3:2|3:2,0:0:0:0:
381,357,11091,2,0,L|352:193,1,166.5,10|0,0:0|3:0,0:0:0:0:
479,350,11587,1,10,0:0:0:0:
475,367,11711,1,8,0:0:0:0:
472,384,11835,1,0,3:0:0:0:
453,208,12082,2,0,L|481:44,1,166.5,14|0,0:0|0:0,0:0:0:0:
348,0,12578,70,0,L|294:9,1,55.5,6|0,3:2|0:0,0:0:0:0:
177,96,12826,2,0,L|232:105,1,55.5,2|0,3:2|0:0,0:0:0:0:
306,132,13074,2,0,P|293:53|219:23,1,166.5,10|0,0:0|3:0,0:0:0:0:
245,187,13570,1,10,0:0:0:0:
247,203,13694,1,8,0:0:0:0:
249,221,13818,1,0,3:2:0:0:
136,24,14066,1,10,0:0:0:0:
0,250,14314,6,0,B|59:243|104:196|67:178|112:131|172:125,1,222,4|2,3:2|3:2,0:0:0:0:
330,211,15058,2,0,P|330:291|261:332,1,166.5,10|0,0:0|3:0,0:0:0:0:
389,150,15554,1,10,0:0:0:0:
407,152,15677,1,8,0:0:0:0:
423,154,15801,1,0,3:0:0:0:
258,251,16049,1,10,0:0:0:0:
222,255,16173,1,8,0:0:0:0:
190,259,16297,1,0,3:0:0:0:
407,358,16545,70,0,L|416:303,1,55.5,6|0,3:2|0:0,0:0:0:0:
331,212,16793,2,0,L|340:266,1,55.5,2|0,3:2|0:0,0:0:0:0:
307,362,17041,2,0,P|252:348|195:342,1,111,10|0,0:0|0:0,0:0:0:0:
141,196,17413,1,0,3:0:0:0:
158,188,17537,1,10,0:0:0:0:
174,179,17661,1,8,0:0:0:0:
189,168,17785,1,0,3:0:0:0:
76,309,18033,1,10,0:0:0:0:
78,0,18281,6,0,L|39:220,1,222,6|2,3:2|3:2,0:0:0:0:
179,384,19025,2,0,P|180:304|250:263,1,166.5,10|0,0:0|3:0,0:0:0:0:
425,343,19520,1,10,0:0:0:0:
442,339,19644,1,8,0:0:0:0:
459,335,19768,1,0,3:0:0:0:
273,167,20016,2,0,P|341:207|342:288,1,166.5,14|0,0:0|0:0,0:0:0:0:
260,332,20512,70,0,L|250:277,1,55.5,6|0,3:2|0:0,0:0:0:0:
165,264,20760,2,0,L|137:215,1,55.5,2|0,3:2|0:0,0:0:0:0:
69,144,21008,2,0,L|179:124,1,111,10|0,0:0|0:0,0:0:0:0:
250,277,21380,1,0,3:0:0:0:
321,233,21504,2,0,L|330:178,1,55.5,10|8,0:0|0:0,0:0:0:0:
416,165,21752,2,0,L|443:116,1,55.5,2|0,3:2|0:0,0:0:0:0:
512,45,22000,2,0,L|456:35,1,55.5,10|0,0:0|0:0,0:0:0:0:
222,0,22248,6,0,P|274:92|222:185,1,222,6|2,3:2|3:2,0:0:0:0:
39,307,22992,2,0,P|30:254|70:219,1,111,10|0,0:0|0:0,0:0:0:0:
152,230,23363,1,0,3:0:0:0:
186,365,23487,70,0,L|295:384,1,111,10|0,0:0|3:0,0:0:0:0:
214,286,23983,6,0,L|278:274,1,66.6,10|0,0:0|0:0,0:0:0:0:
469,291,24479,38,0,P|471:269|476:247,1,44.4,6|0,3:2|0:0,0:0:0:0:
399,219,24727,2,0,P|389:238|377:256,1,44.4,2|0,3:2|0:0,0:0:0:0:
400,338,24975,1,10,0:0:0:0:
210,227,25471,2,0,P|207:205|202:183,1,44.4,2|0,3:2|0:0,0:0:0:0:
280,155,25719,2,0,P|289:174|301:192,1,44.4,2|0,3:2|0:0,0:0:0:0:
279,274,25967,2,0,P|261:315|224:339,1,88.8,10|8,0:0|0:3,0:0:0:0:
114,377,26463,6,0,L|69:384,1,44.4,2|0,3:2|0:0,0:0:0:0:
8,331,26711,2,0,L|0:287,1,44.4,2|0,3:2|0:0,0:0:0:0:
18,170,26958,1,10,0:0:0:0:
66,238,27206,1,2,0:0:0:0:
66,238,27454,2,0,L|110:244,1,44.4,2|0,3:2|0:0,0:0:0:0:
171,192,27702,2,0,L|178:148,1,44.4,2|0,3:2|0:0,0:0:0:0:
161,32,27950,1,10,0:0:0:0:
113,99,28198,1,8,0:3:0:0:
113,99,28446,70,0,P|91:103|68:106,1,44.4,2|0,3:2|0:0,0:0:0:0:
28,6,28694,2,0,P|50:8|71:13,1,44.4,2|0,3:2|0:0,0:0:0:0:
178,148,28942,1,10,0:0:0:0:
229,82,29190,1,2,0:0:0:0:
376,176,29438,2,0,P|397:180|420:183,1,44.4,2|0,3:2|0:0,0:0:0:0:
461,83,29686,2,0,P|438:85|417:90,1,44.4,2|0,3:2|0:0,0:0:0:0:
311,225,29934,1,10,0:0:0:0:
260,159,30182,1,8,0:3:0:0:
253,357,30430,6,0,P|318:363|382:379,1,133.2,4|0,3:2|0:0,0:0:0:0:
402,276,30925,2,0,P|364:299|324:320,1,88.8,8|0,0:0|0:0,0:0:0:0:
210,293,31297,1,0,3:2:0:0:
176,360,31421,1,8,0:0:0:0:
39,384,31669,1,0,3:2:0:0:
120,211,31917,1,8,0:0:0:0:
0,281,32165,1,0,3:2:0:0:
100,328,32413,70,0,P|93:306|84:286,1,44.4,6|0,3:2|0:0,0:0:0:0:
8,173,32661,2,0,P|24:189|37:206,1,44.4,2|0,3:2|0:0,0:0:0:0:
0,281,32909,1,10,0:0:0:0:
211,56,33405,2,0,P|195:72|182:89,1,44.4,2|0,3:2|0:0,0:0:0:0:
120,211,33653,2,0,P|127:189|136:169,1,44.4,2|0,3:2|0:0,0:0:0:0:
219,165,33901,1,10,0:0:0:0:
100,94,34149,1,8,0:3:0:0:
211,259,34397,6,0,L|254:266,1,44.4,2|0,3:2|0:0,0:0:0:0:
331,205,34644,2,0,L|323:161,1,44.4,2|0,3:2|0:0,0:0:0:0:
273,81,34892,1,10,0:0:0:0:
353,27,35140,1,2,0:0:0:0:
353,27,35388,2,0,L|396:19,1,44.4,2|0,3:2|0:0,0:0:0:0:
473,81,35636,2,0,L|465:124,1,44.4,2|0,3:2|0:0,0:0:0:0:
415,205,35884,1,10,0:0:0:0:
495,259,36132,1,8,0:3:0:0:
367,367,36380,70,0,P|345:362|324:359,1,44.4,2|0,3:2|0:0,0:0:0:0:
355,266,36628,2,0,P|373:279|394:288,1,44.4,2|0,3:2|0:0,0:0:0:0:
275,290,36876,2,0,P|234:309|210:345,1,88.8,10|0,0:0|0:0,0:0:0:0:
68,263,37372,2,0,P|57:242|46:224,1,44.4,2|0,3:2|0:0,0:0:0:0:
137,188,37620,2,0,P|138:210|145:232,1,44.4,2|0,3:2|0:0,0:0:0:0:
133,314,37868,1,10,0:0:0:0:
67,143,38116,1,8,0:3:0:0:
256,25,38363,6,0,P|320:14|363:61,1,133.2,4|0,3:2|0:0,0:0:0:0:
435,229,38859,2,0,P|394:220|379:181,1,88.8,8|2,0:0|0:0,0:0:0:0:
427,114,39231,1,0,3:2:0:0:
464,47,39355,2,0,L|456:2,1,44.4,10|0,0:0|0:0,0:0:0:0:
304,129,39603,2,0,L|296:173,1,44.4,2|0,3:2|0:0,0:0:0:0:
450,43,39851,2,0,L|442:0,1,44.4,10|0,0:0|0:0,0:0:0:0:
256,25,40099,2,0,L|234:63,1,44.4,2|0,3:0|0:0,0:0:0:0:
123,191,41587,69,0,3:2:0:0:
134,213,41711,1,0,3:2:0:0:
144,231,41835,1,8,0:0:0:0:
113,314,42082,1,0,3:2:0:0:
256,384,42330,54,0,P|290:328|351:303,1,133.199995935059,4|4,3:2|3:3,0:0:0:0:
431,327,43074,1,0,0:0:0:0:
501,281,43322,2,0,L|512:215,1,66.5999979675294,4|0,3:3|0:0,0:0:0:0:
462,148,43818,1,4,3:3:0:0:
489,0,44314,2,0,P|455:56|394:81,1,133.199995935059,4|4,3:3|3:3,0:0:0:0:
314,57,45058,2,0,L|248:68,1,66.5999979675294,0|4,0:0|3:3,0:0:0:0:
181,118,45554,1,8,0:3:0:0:
94,35,45801,2,0,L|28:24,1,66.5999979675294,4|8,3:3|0:3,0:0:0:0:
0,135,46297,6,0,P|15:199|23:265,1,133.199995935059,4|4,3:2|3:3,0:0:0:0:
7,347,47041,1,0,0:0:0:0:
101,297,47289,2,0,P|132:238|123:173,2,133.199995935059,4|4|4,3:3|3:3|3:3,0:0:0:0:
135,384,48529,1,0,0:0:0:0:
196,327,48777,2,0,P|228:319|261:315,1,66.5999979675294,4|0,3:3|0:0,0:0:0:0:
360,304,49273,2,0,P|337:279|317:253,1,66.5999979675294,4|8,3:3|0:3,0:0:0:0:
259,174,49768,2,0,P|249:205|236:236,1,66.5999979675294,4|8,3:3|0:3,0:0:0:0:
432,384,50264,6,0,L|462:209,1,177.6,6|10,3:2|3:2,0:0:0:0:
485,54,51008,1,2,0:0:0:0:
496,69,51132,1,8,0:0:0:0:
503,86,51256,2,0,P|508:107|511:129,1,44.4,2|0,3:2|0:0,0:0:0:0:
415,124,51504,2,0,P|399:139|382:153,1,44.4,2|0,3:2|0:0,0:0:0:0:
350,43,51752,2,0,P|328:37|307:28,1,44.4,10|0,0:0|0:0,0:0:0:0:
199,0,52000,6,0,B|193:47|155:82|141:53|104:89|99:137,1,177.6,4|2,3:2|3:2,0:0:0:0:
187,189,52744,1,8,0:0:0:0:
30,50,52992,1,2,0:0:0:0:
13,56,53116,1,8,0:0:0:0:
0,68,53239,2,0,P|11:87|20:108,1,44.4,2|0,3:2|0:0,0:0:0:0:
99,135,53487,2,0,P|95:157|89:179,1,44.4,2|0,3:2|0:0,0:0:0:0:
121,257,53735,1,10,0:0:0:0:
124,278,53859,1,0,0:0:0:0:
128,300,53983,1,2,3:2:0:0:
13,314,54231,70,0,P|122:319|210:385,1,222,6|10,3:2|0:0,0:0:0:0:
406,372,54975,1,0,0:0:0:0:
409,351,55099,1,8,0:0:0:0:
413,329,55223,2,0,P|410:310|406:292,1,37,0|0,3:2|0:0,0:0:0:0:
265,246,55471,2,0,P|283:243|301:239,1,37,0|0,3:0|0:0,0:0:0:0:
348,98,55719,2,0,P|350:116|354:134,1,37,0|0,3:2|0:0,0:0:0:0:
512,192,55967,6,0,P|446:199|381:213,1,133.199995935059,10|0,0:0|0:0,0:0:0:0:
406,292,56463,2,0,P|410:310|413:329,1,37,2|0,3:2|0:0,0:0:0:0:
354,134,56711,2,0,P|350:116|348:98,1,37,10|0,0:0|0:0,0:0:0:0:
301,238,56958,2,0,P|283:242|265:246,1,37,10|0,0:0|0:0,0:0:0:0:
459,186,57206,1,2,3:2:0:0:
486,185,57330,1,8,0:0:0:0:
512,192,57454,1,0,3:2:0:0:
462,0,57702,2,0,P|347:5|255:74,1,233.099992886353,14|0,0:0|0:0,0:0:0:0:
215,180,58198,6,0,P|227:85|154:23,1,199.799993902588,6|0,3:2|0:0,0:0:0:0:
21,216,58694,2,0,P|92:152|76:58,1,199.799993902588,10|8,0:0|0:0,0:0:0:0:
146,248,59190,2,0,P|153:280|156:313,1,66.5999979675294,2|0,3:2|0:0,0:0:0:0:
316,286,59438,2,0,P|308:254|304:221,1,66.5999979675294,0|0,3:2|0:0,0:0:0:0:
215,180,59686,1,8,0:0:0:0:
248,355,59934,1,2,0:0:0:0:
390,238,60182,6,0,P|455:241|507:280,1,133.199995935059,2|2,3:2|3:2,0:0:0:0:
385,26,60677,2,0,P|314:55|273:119,1,155.399995257569,10|0,0:0|0:0,0:0:0:0:
233,279,61049,1,10,0:0:0:0:
148,228,61173,2,0,P|107:150|119:64,1,177.6,0|0,3:2|3:2,0:0:0:0:
344,177,61669,2,0,P|376:169|409:167,1,66.5999979675294,10|0,0:0|0:0,0:0:0:0:
319,39,61917,2,0,P|352:33|385:26,1,66.5999979675294,8|0,0:3|0:0,0:0:0:0:
153,140,62165,70,0,B|97:144|58:187|91:203|51:244|0:252,1,199.799993902588,6|0,3:2|0:0,0:0:0:0:
136,310,62661,2,0,B|172:313|198:341|177:351|203:379|238:384,1,133.199995935059,10|0,0:0|0:0,0:0:0:0:
353,213,63033,1,10,0:0:0:0:
270,202,63157,2,0,P|238:212|207:227,1,66.5999979675294,0|0,3:2|0:0,0:0:0:0:
404,146,63405,2,0,P|411:113|413:78,1,66.5999979675294,2|0,3:2|0:0,0:0:0:0:
385,290,63653,2,0,P|409:312|438:332,1,66.5999979675294,8|0,0:0|0:0,0:0:0:0:
304,102,63901,1,2,0:0:0:0:
436,331,64149,6,0,P|409:312|385:290,1,66.5999979675294,2|0,3:2|0:0,0:0:0:0:
413,80,64397,2,0,P|410:113|404:146,1,66.5999979675294,2|0,3:2|0:0,0:0:0:0:
208,226,64644,2,0,P|238:211|270:202,1,66.5999979675294,10|0,0:0|0:0,0:0:0:0:
512,130,64892,1,2,0:0:0:0:
473,225,65016,1,10,0:0:0:0:
315,119,65140,2,0,P|243:88|168:68,1,155.399995257569,0|2,3:2|3:2,0:0:0:0:
246,384,65636,5,8,0:0:0:0:
265,384,65760,5,8,0:0:0:0:
246,366,65884,69,8,0:0:0:0:
265,366,66008,5,8,0:0:0:0:
115,311,66132,38,0,P|103:216|176:154,1,199.799993902588,6|0,3:2|0:0,0:0:0:0:
306,0,66628,2,0,P|294:95|367:157,1,199.799993902588,10|8,0:0|0:0,0:0:0:0:
509,265,67124,2,0,P|501:297|497:330,1,66.5999979675294,2|0,3:2|0:0,0:0:0:0:
339,303,67372,2,0,P|346:271|349:238,1,66.5999979675294,0|0,3:2|0:0,0:0:0:0:
441,196,67620,1,8,0:0:0:0:
408,371,67868,1,2,0:0:0:0:
188,246,68116,6,0,P|123:249|70:288,1,133.199995935059,2|2,3:2|3:2,0:0:0:0:
178,0,68611,2,0,P|249:29|289:93,1,155.399995257569,10|0,0:0|0:0,0:0:0:0:
349,237,68983,1,10,0:0:0:0:
441,196,69107,2,0,P|481:118|470:32,1,177.6,0|0,3:2|3:2,0:0:0:0:
155,118,69603,2,0,P|122:114|89:107,1,66.5999979675294,10|0,0:0|0:0,0:0:0:0:
132,256,69851,2,0,P|100:247|67:244,1,66.5999979675294,8|0,0:3|0:0,0:0:0:0:
328,331,70099,70,0,P|310:236|220:202,1,199.799993902588,6|0,3:2|0:0,0:0:0:0:
102,367,70595,2,0,P|162:339|226:322,1,133.199995935059,10|0,0:0|0:0,0:0:0:0:
372,187,70967,1,8,0:0:0:0:
304,133,71091,2,0,P|277:114|253:92,1,66.5999979675294,2|0,3:2|0:0,0:0:0:0:
356,270,71339,2,0,P|354:303|347:336,1,66.5999979675294,2|0,3:2|0:0,0:0:0:0:
450,156,71587,2,0,P|480:141|512:132,1,66.5999979675294,10|0,0:0|0:0,0:0:0:0:
347,335,71835,6,0,P|353:303|356:270,1,66.5999979675294,2|0,0:0|0:0,0:0:0:0:
252,91,72082,2,0,P|276:113|304:133,1,66.5999979675294,2|0,3:2|0:0,0:0:0:0:
511,132,72330,2,0,P|479:141|450:156,1,66.5999979675294,2|0,3:2|0:0,0:0:0:0:
262,229,72578,1,10,0:0:0:0:
325,32,72826,1,2,0:0:0:0:
384,106,72950,1,8,0:0:0:0:
210,166,73074,2,0,B|166:162|135:129|161:116|130:84|90:78,2,155.399995257569,2|0|8,3:2|3:2|0:0,0:0:0:0:
469,22,73694,6,0,L|512:14,1,44.4,4|0,3:2|0:0,0:0:0:0:
449,156,74066,54,0,P|435:209|429:264,1,111,6|0,3:2|0:0,0:0:0:0:
300,343,74562,2,0,P|293:287|280:234,1,111,10|2,0:0|0:0,0:0:0:0:
193,100,75058,2,0,P|247:191|353:192,1,222,2|10,3:2|0:0,0:0:0:0:
457,133,75801,1,2,0:0:0:0:
512,288,76049,5,2,3:2:0:0:
376,114,76297,1,2,3:2:0:0:
199,314,76545,2,0,P|125:352|42:341,1,166.5,10|8,0:0|0:0,0:0:0:0:
0,246,77041,2,0,L|11:182,1,55.5,2|0,3:2|0:0,0:0:0:0:
90,15,77289,2,0,L|101:78,1,55.5,0|0,3:2|0:0,0:0:0:0:
211,203,77537,1,8,0:0:0:0:
246,229,77661,1,8,0:0:0:0:
286,242,77785,1,8,0:0:0:0:
328,244,77909,1,8,0:0:0:0:
369,233,78033,38,0,P|401:225|434:221,1,66.5999979675294,12|0,3:2|0:0,0:0:0:0:
143,151,78281,2,0,P|110:158|77:162,1,66.5999979675294,8|0,3:2|0:0,0:0:0:0:
297,79,79025,6,0,P|289:46|285:13,1,66.5999979675294,8|0,3:2|0:0,0:0:0:0:
213,303,79273,2,0,P|220:335|224:368,1,66.5999979675294,8|0,3:2|0:0,0:0:0:0:
224,368,80016,6,0,P|189:270|256:192,1,216.449990091706,4|0,3:2|0:0,0:0:0:0:
402,229,80512,2,0,P|357:281|289:268,1,144.299993394471,8|0,0:0|0:0,0:0:0:0:
222,115,80884,1,8,0:0:0:0:
296,78,81008,6,0,P|331:81|366:90,1,72.1499966972353,0|0,3:2|0:0,0:0:0:0:
154,163,81256,2,0,P|118:159|83:150,1,72.1499966972353,8|0,3:2|0:0,0:0:0:0:
70,342,81504,1,8,0:0:0:0:
102,365,81628,1,0,3:0:0:0:
142,378,81752,1,0,3:0:0:0:
184,379,81876,1,8,0:0:0:0:
224,368,82000,38,0,P|220:335|212:303,1,66.5999979675294,12|0,3:2|0:0,0:0:0:0:
285,13,82248,2,0,P|289:46|297:79,1,66.5999979675294,8|0,3:2|0:0,0:0:0:0:
77,164,82992,6,0,P|110:160|143:151,1,66.5999979675294,8|0,3:2|0:0,0:0:0:0:
434,220,83239,2,0,P|401:224|369:233,1,66.5999979675294,8|0,3:2|0:0,0:0:0:0:
256,210,83487,54,0,L|256:173,1,37,8|0,0:3|0:0,0:0:0:0:
256,384,83983,69,4,3:2:0:0:
256,192,84107,12,4,87702,3:2:0:0:
