osu file format v14

[General]
AudioFilename: audio.mp3
AudioLeadIn: 0
PreviewTime: -1
Countdown: 0
SampleSet: Normal
StackLeniency: 0.7
Mode: 3
LetterboxInBreaks: 0
SpecialStyle: 0
WidescreenStoryboard: 0

[Editor]
DistanceSpacing: 0.8
BeatDivisor: 4
GridSize: 32
TimelineZoom: 1.9

[Metadata]
Title:Promise
TitleUnicode:Promise
Artist:Kohmi Hirose
ArtistUnicode:Kohmi Hirose
Creator:Adri
Version:Eternal Love
Source:
Tags:
BeatmapID:2168053
BeatmapSetID:1036984

[Difficulty]
HPDrainRate:7
CircleSize:4
OverallDifficulty:7
ApproachRate:5
SliderMultiplier:1.4
SliderTickRate:1

[Events]
//Background and Video events
0,0,"bg.png",0,0
//Break Periods
//Storyboard Layer 0 (Background)
//Storyboard Layer 1 (Fail)
//Storyboard Layer 2 (Pass)
//Storyboard Layer 3 (Foreground)
//Storyboard Layer 4 (Overlay)
//Storyboard Sound Samples

[TimingPoints]
195,416.666666666667,4,1,0,100,1,0
146902,416.666666666667,4,1,0,100,1,0

[HitObjects]
320,192,195,5,0,0:0:0:0:
448,192,195,1,0,0:0:0:0:
448,192,403,1,0,0:0:0:0:
192,192,611,1,0,0:0:0:0:
64,192,820,1,0,0:0:0:0:
320,192,1028,1,0,0:0:0:0:
192,192,1236,1,0,0:0:0:0:
448,192,1445,1,0,0:0:0:0:
64,192,1653,1,0,0:0:0:0:
192,192,1861,1,0,0:0:0:0:
448,192,1861,1,0,0:0:0:0:
192,192,2486,1,0,0:0:0:0:
448,192,2695,1,0,0:0:0:0:
64,192,2903,1,0,0:0:0:0:
320,192,3111,1,0,0:0:0:0:
192,192,3320,1,0,0:0:0:0:
64,192,3528,1,0,0:0:0:0:
448,192,3528,1,0,0:0:0:0:
320,192,3736,1,0,0:0:0:0:
64,192,3945,1,0,0:0:0:0:
192,192,4153,1,0,0:0:0:0:
448,192,4361,1,0,0:0:0:0:
192,192,4570,1,0,0:0:0:0:
320,192,4778,1,0,0:0:0:0:
64,192,4986,1,0,0:0:0:0:
448,192,5195,1,0,0:0:0:0:
192,192,5195,1,0,0:0:0:0:
448,192,5820,1,0,0:0:0:0:
192,192,6028,1,0,0:0:0:0:
64,192,6028,1,0,0:0:0:0:
320,192,6236,1,0,0:0:0:0:
448,192,6445,1,0,0:0:0:0:
192,192,6445,1,0,0:0:0:0:
64,192,6653,1,0,0:0:0:0:
192,192,6861,1,0,0:0:0:0:
448,192,6861,1,0,0:0:0:0:
320,192,7382,1,0,0:0:0:0:
64,192,7486,1,0,0:0:0:0:
320,192,7564,1,0,0:0:0:0:
448,192,7642,1,0,0:0:0:0:
192,192,7877,1,0,0:0:0:0:
448,192,8320,1,0,0:0:0:0:
192,192,8528,1,0,0:0:0:0:
64,192,8528,1,0,0:0:0:0:
448,192,8997,1,0,0:0:0:0:
192,192,9101,1,0,0:0:0:0:
448,192,9205,1,0,0:0:0:0:
192,192,9309,1,0,0:0:0:0:
320,192,9543,1,0,0:0:0:0:
448,192,9986,1,0,0:0:0:0:
192,192,10090,1,0,0:0:0:0:
320,192,10195,1,0,0:0:0:0:
448,192,10299,1,0,0:0:0:0:
192,192,10403,1,0,0:0:0:0:
448,192,10507,1,0,0:0:0:0:
192,192,10611,1,0,0:0:0:0:
448,192,10715,1,0,0:0:0:0:
192,192,10820,1,0,0:0:0:0:
448,192,10924,1,0,0:0:0:0:
192,192,11028,1,0,0:0:0:0:
448,192,11132,1,0,0:0:0:0:
192,192,11236,1,0,0:0:0:0:
448,192,11340,1,0,0:0:0:0:
192,192,11445,1,0,0:0:0:0:
448,192,11549,1,0,0:0:0:0:
192,192,11653,1,0,0:0:0:0:
448,192,11757,1,0,0:0:0:0:
192,192,11861,1,0,0:0:0:0:
64,192,11861,1,0,0:0:0:0:
320,192,12278,1,0,0:0:0:0:
448,192,12278,1,0,0:0:0:0:
192,192,12695,1,0,0:0:0:0:
448,192,12695,1,0,0:0:0:0:
64,192,13111,1,0,0:0:0:0:
320,192,13111,1,0,0:0:0:0:
320,192,13528,1,0,0:0:0:0:
448,192,13528,1,0,0:0:0:0:
64,192,13632,1,0,0:0:0:0:
192,192,13736,1,0,0:0:0:0:
448,192,13736,1,0,0:0:0:0:
320,192,13840,1,0,0:0:0:0:
64,192,13945,1,0,0:0:0:0:
448,192,13945,1,0,0:0:0:0:
192,192,14049,1,0,0:0:0:0:
64,192,14153,1,0,0:0:0:0:
320,192,14153,1,0,0:0:0:0:
448,192,14257,1,0,0:0:0:0:
320,192,14361,1,0,0:0:0:0:
64,192,14361,1,0,0:0:0:0:
192,192,14465,1,0,0:0:0:0:
64,192,14570,1,0,0:0:0:0:
448,192,14570,1,0,0:0:0:0:
320,192,14674,1,0,0:0:0:0:
192,192,14778,1,0,0:0:0:0:
64,192,14778,1,0,0:0:0:0:
448,192,14882,1,0,0:0:0:0:
64,192,14986,1,0,0:0:0:0:
320,192,14986,1,0,0:0:0:0:
192,192,15090,1,0,0:0:0:0:
320,192,15195,1,0,0:0:0:0:
448,192,15195,1,0,0:0:0:0:
64,192,15299,1,0,0:0:0:0:
192,192,15403,1,0,0:0:0:0:
448,192,15403,1,0,0:0:0:0:
320,192,15507,1,0,0:0:0:0:
64,192,15611,1,0,0:0:0:0:
192,192,15611,1,0,0:0:0:0:
448,192,15715,1,0,0:0:0:0:
64,192,15820,1,0,0:0:0:0:
320,192,15820,1,0,0:0:0:0:
192,192,15924,1,0,0:0:0:0:
320,192,16028,1,0,0:0:0:0:
448,192,16028,1,0,0:0:0:0:
64,192,16132,1,0,0:0:0:0:
192,192,16236,1,0,0:0:0:0:
320,192,16340,1,0,0:0:0:0:
64,192,16445,1,0,0:0:0:0:
448,192,16445,1,0,0:0:0:0:
192,192,16549,1,0,0:0:0:0:
320,192,16653,1,0,0:0:0:0:
192,192,16757,1,0,0:0:0:0:
64,192,16861,1,0,0:0:0:0:
448,192,16861,1,0,0:0:0:0:
320,192,16965,1,0,0:0:0:0:
192,192,17070,1,0,0:0:0:0:
448,192,17070,1,0,0:0:0:0:
64,192,17174,1,0,0:0:0:0:
448,192,17278,1,0,0:0:0:0:
320,192,17278,1,0,0:0:0:0:
192,192,17382,1,0,0:0:0:0:
64,192,17486,1,0,0:0:0:0:
320,192,17486,1,0,0:0:0:0:
448,192,17590,1,0,0:0:0:0:
64,192,17695,1,0,0:0:0:0:
192,192,17695,1,0,0:0:0:0:
320,192,17799,1,0,0:0:0:0:
64,192,17903,1,0,0:0:0:0:
448,192,17903,1,0,0:0:0:0:
192,192,18007,1,0,0:0:0:0:
64,192,18111,1,0,0:0:0:0:
448,192,18111,1,0,0:0:0:0:
320,192,18215,1,0,0:0:0:0:
192,192,18320,1,0,0:0:0:0:
448,192,18320,1,0,0:0:0:0:
64,192,18424,1,0,0:0:0:0:
320,192,18424,1,0,0:0:0:0:
192,192,18528,1,0,0:0:0:0:
448,192,18528,1,0,0:0:0:0:
320,192,18632,1,0,0:0:0:0:
64,192,18736,1,0,0:0:0:0:
192,192,18736,1,0,0:0:0:0:
448,192,18840,1,0,0:0:0:0:
64,192,18945,1,0,0:0:0:0:
320,192,18945,1,0,0:0:0:0:
192,192,19049,1,0,0:0:0:0:
448,192,19153,1,0,0:0:0:0:
320,192,19153,1,0,0:0:0:0:
64,192,19257,1,0,0:0:0:0:
192,192,19361,1,0,0:0:0:0:
448,192,19361,1,0,0:0:0:0:
320,192,19465,1,0,0:0:0:0:
64,192,19570,1,0,0:0:0:0:
192,192,19570,1,0,0:0:0:0:
448,192,19674,1,0,0:0:0:0:
320,192,19778,1,0,0:0:0:0:
192,192,19778,1,0,0:0:0:0:
64,192,19882,1,0,0:0:0:0:
192,192,19986,1,0,0:0:0:0:
320,192,19986,1,0,0:0:0:0:
448,192,20090,1,0,0:0:0:0:
192,192,20195,1,0,0:0:0:0:
64,192,20195,1,0,0:0:0:0:
320,192,20299,1,0,0:0:0:0:
192,192,20403,1,0,0:0:0:0:
448,192,20507,1,0,0:0:0:0:
64,192,20611,1,0,0:0:0:0:
320,192,20611,1,0,0:0:0:0:
192,192,20715,1,0,0:0:0:0:
448,192,20820,1,0,0:0:0:0:
64,192,20924,1,0,0:0:0:0:
192,192,21028,1,0,0:0:0:0:
448,192,21028,1,0,0:0:0:0:
320,192,21132,1,0,0:0:0:0:
64,192,21236,1,0,0:0:0:0:
192,192,21340,1,0,0:0:0:0:
448,192,21340,1,0,0:0:0:0:
320,192,21445,1,0,0:0:0:0:
64,192,21549,1,0,0:0:0:0:
192,192,21653,1,0,0:0:0:0:
448,192,21653,1,0,0:0:0:0:
320,192,21757,1,0,0:0:0:0:
64,192,21861,1,0,0:0:0:0:
192,192,21861,1,0,0:0:0:0:
448,192,21965,1,0,0:0:0:0:
64,192,22070,1,0,0:0:0:0:
192,192,22174,1,0,0:0:0:0:
320,192,22278,1,0,0:0:0:0:
448,192,22278,1,0,0:0:0:0:
64,192,22382,1,0,0:0:0:0:
192,192,22486,1,0,0:0:0:0:
320,192,22590,1,0,0:0:0:0:
64,192,22695,1,0,0:0:0:0:
448,192,22695,1,0,0:0:0:0:
320,192,22799,1,0,0:0:0:0:
192,192,22903,1,0,0:0:0:0:
64,192,23007,1,0,0:0:0:0:
320,192,23111,1,0,0:0:0:0:
448,192,23111,1,0,0:0:0:0:
192,192,23215,1,0,0:0:0:0:
320,192,23320,1,0,0:0:0:0:
192,192,23424,1,0,0:0:0:0:
64,192,23528,1,0,0:0:0:0:
448,192,23528,1,0,0:0:0:0:
320,192,23632,1,0,0:0:0:0:
64,192,23736,1,0,0:0:0:0:
448,192,23840,1,0,0:0:0:0:
192,192,23945,1,0,0:0:0:0:
64,192,23945,1,0,0:0:0:0:
320,192,24049,1,0,0:0:0:0:
64,192,24153,1,0,0:0:0:0:
448,192,24257,1,0,0:0:0:0:
192,192,24361,1,0,0:0:0:0:
320,192,24361,1,0,0:0:0:0:
64,192,24465,1,0,0:0:0:0:
320,192,24570,1,0,0:0:0:0:
192,192,24674,1,0,0:0:0:0:
448,192,24778,1,0,0:0:0:0:
320,192,24778,1,0,0:0:0:0:
64,192,24882,1,0,0:0:0:0:
192,192,24986,1,0,0:0:0:0:
448,192,25090,1,0,0:0:0:0:
320,192,25195,1,0,0:0:0:0:
192,192,25195,1,0,0:0:0:0:
320,192,25611,1,0,0:0:0:0:
64,192,25611,1,0,0:0:0:0:
448,192,25924,1,0,0:0:0:0:
320,192,26028,1,0,0:0:0:0:
64,192,26028,1,0,0:0:0:0:
192,192,26236,1,0,0:0:0:0:
320,192,26445,1,0,0:0:0:0:
448,192,26445,1,0,0:0:0:0:
192,192,26653,1,0,0:0:0:0:
64,192,26653,1,0,0:0:0:0:
320,192,26757,1,0,0:0:0:0:
64,192,26861,1,0,0:0:0:0:
448,192,26861,1,0,0:0:0:0:
192,192,26965,1,0,0:0:0:0:
320,192,27070,1,0,0:0:0:0:
192,192,27174,1,0,0:0:0:0:
64,192,27278,1,0,0:0:0:0:
448,192,27278,1,0,0:0:0:0:
320,192,27382,1,0,0:0:0:0:
64,192,27486,1,0,0:0:0:0:
192,192,27590,1,0,0:0:0:0:
320,192,27695,1,0,0:0:0:0:
448,192,27695,1,0,0:0:0:0:
64,192,27799,1,0,0:0:0:0:
192,192,27903,1,0,0:0:0:0:
320,192,28007,1,0,0:0:0:0:
64,192,28111,1,0,0:0:0:0:
320,192,28215,1,0,0:0:0:0:
192,192,28320,1,0,0:0:0:0:
448,192,28320,1,0,0:0:0:0:
64,192,28424,1,0,0:0:0:0:
320,192,28528,1,0,0:0:0:0:
64,192,28632,1,0,0:0:0:0:
192,192,28736,1,0,0:0:0:0:
448,192,28736,1,0,0:0:0:0:
320,192,28840,1,0,0:0:0:0:
64,192,28945,1,0,0:0:0:0:
448,192,28945,1,0,0:0:0:0:
192,192,29049,1,0,0:0:0:0:
64,192,29153,1,0,0:0:0:0:
448,192,29153,1,0,0:0:0:0:
320,192,29257,1,0,0:0:0:0:
64,192,29361,1,0,0:0:0:0:
448,192,29361,1,0,0:0:0:0:
192,192,29465,1,0,0:0:0:0:
64,192,29570,1,0,0:0:0:0:
448,192,29570,1,0,0:0:0:0:
320,192,29674,1,0,0:0:0:0:
64,192,29778,1,0,0:0:0:0:
320,192,29882,1,0,0:0:0:0:
448,192,29882,1,0,0:0:0:0:
64,192,29986,1,0,0:0:0:0:
192,192,29986,1,0,0:0:0:0:
320,192,30090,1,0,0:0:0:0:
448,192,30090,1,0,0:0:0:0:
192,192,30195,1,0,0:0:0:0:
64,192,30195,1,0,0:0:0:0:
448,192,30299,1,0,0:0:0:0:
192,192,30403,1,0,0:0:0:0:
64,192,30507,1,0,0:0:0:0:
320,192,30611,1,0,0:0:0:0:
448,192,30715,1,0,0:0:0:0:
192,192,30820,1,0,0:0:0:0:
320,192,30820,1,0,0:0:0:0:
64,192,30924,1,0,0:0:0:0:
448,192,30924,1,0,0:0:0:0:
192,192,31028,1,0,0:0:0:0:
320,192,31028,1,0,0:0:0:0:
448,192,31132,1,0,0:0:0:0:
320,192,31236,1,0,0:0:0:0:
64,192,31340,1,0,0:0:0:0:
320,192,31445,1,0,0:0:0:0:
448,192,31549,1,0,0:0:0:0:
320,192,31653,1,0,0:0:0:0:
192,192,31757,1,0,0:0:0:0:
64,192,31861,1,0,0:0:0:0:
192,192,31965,1,0,0:0:0:0:
448,192,32070,1,0,0:0:0:0:
192,192,32174,1,0,0:0:0:0:
320,192,32278,1,0,0:0:0:0:
192,192,32382,1,0,0:0:0:0:
64,192,32486,1,0,0:0:0:0:
448,192,32590,1,0,0:0:0:0:
192,192,32695,1,0,0:0:0:0:
64,192,32695,1,0,0:0:0:0:
320,192,32903,1,0,0:0:0:0:
64,192,33111,1,0,0:0:0:0:
448,192,33111,1,0,0:0:0:0:
320,192,33320,1,0,0:0:0:0:
448,192,33320,1,0,0:0:0:0:
192,192,33424,1,0,0:0:0:0:
64,192,33528,1,0,0:0:0:0:
448,192,33528,1,0,0:0:0:0:
320,192,33632,1,0,0:0:0:0:
64,192,33736,1,0,0:0:0:0:
192,192,33736,1,0,0:0:0:0:
448,192,33840,1,0,0:0:0:0:
64,192,33945,1,0,0:0:0:0:
320,192,33945,1,0,0:0:0:0:
192,192,34049,1,0,0:0:0:0:
320,192,34153,1,0,0:0:0:0:
448,192,34153,1,0,0:0:0:0:
192,192,34257,1,0,0:0:0:0:
64,192,34361,1,0,0:0:0:0:
320,192,34361,1,0,0:0:0:0:
448,192,34465,1,0,0:0:0:0:
64,192,34570,1,0,0:0:0:0:
192,192,34570,1,0,0:0:0:0:
320,192,34674,1,0,0:0:0:0:
64,192,34778,1,0,0:0:0:0:
192,192,34882,1,0,0:0:0:0:
448,192,34986,1,0,0:0:0:0:
320,192,34986,1,0,0:0:0:0:
64,192,35090,1,0,0:0:0:0:
192,192,35195,1,0,0:0:0:0:
320,192,35299,1,0,0:0:0:0:
64,192,35403,1,0,0:0:0:0:
448,192,35403,1,0,0:0:0:0:
320,192,35507,1,0,0:0:0:0:
64,192,35611,1,0,0:0:0:0:
192,192,35611,1,0,0:0:0:0:
448,192,35715,1,0,0:0:0:0:
320,192,35820,1,0,0:0:0:0:
64,192,35820,1,0,0:0:0:0:
192,192,35924,1,0,0:0:0:0:
448,192,36028,1,0,0:0:0:0:
320,192,36132,1,0,0:0:0:0:
64,192,36236,1,0,0:0:0:0:
192,192,36340,1,0,0:0:0:0:
448,192,36445,1,0,0:0:0:0:
192,192,36549,1,0,0:0:0:0:
64,192,36653,1,0,0:0:0:0:
320,192,36653,1,0,0:0:0:0:
192,192,36757,1,0,0:0:0:0:
448,192,36757,1,0,0:0:0:0:
64,192,36861,1,0,0:0:0:0:
320,192,36861,1,0,0:0:0:0:
192,192,37070,1,0,0:0:0:0:
64,192,37278,1,0,0:0:0:0:
448,192,37278,1,0,0:0:0:0:
320,192,37486,1,0,0:0:0:0:
192,192,37590,1,0,0:0:0:0:
448,192,37695,1,0,0:0:0:0:
320,192,37695,1,0,0:0:0:0:
192,192,37903,1,0,0:0:0:0:
64,192,38111,1,0,0:0:0:0:
448,192,38111,1,0,0:0:0:0:
192,192,38320,1,0,0:0:0:0:
320,192,38424,1,0,0:0:0:0:
192,192,38528,1,0,0:0:0:0:
64,192,38528,1,0,0:0:0:0:
448,192,38736,1,0,0:0:0:0:
192,192,38945,1,0,0:0:0:0:
64,192,39153,1,0,0:0:0:0:
448,192,39153,1,0,0:0:0:0:
192,192,39361,1,0,0:0:0:0:
320,192,39361,1,0,0:0:0:0:
64,192,39570,1,0,0:0:0:0:
448,192,39570,1,0,0:0:0:0:
192,192,39778,1,0,0:0:0:0:
320,192,39778,1,0,0:0:0:0:
448,192,39986,1,0,0:0:0:0:
320,192,39986,1,0,0:0:0:0:
64,192,40090,1,0,0:0:0:0:
192,192,40195,1,0,0:0:0:0:
448,192,40195,1,0,0:0:0:0:
192,192,40611,1,0,0:0:0:0:
320,192,40611,1,0,0:0:0:0:
64,192,41028,1,0,0:0:0:0:
320,192,41028,1,0,0:0:0:0:
192,192,41340,1,0,0:0:0:0:
448,192,41340,1,0,0:0:0:0:
64,192,41653,1,0,0:0:0:0:
320,192,41653,1,0,0:0:0:0:
192,192,41861,1,0,0:0:0:0:
448,192,42278,1,0,0:0:0:0:
320,192,42278,1,0,0:0:0:0:
64,192,42695,1,0,0:0:0:0:
192,192,42695,1,0,0:0:0:0:
192,192,43007,1,0,0:0:0:0:
320,192,43007,1,0,0:0:0:0:
320,192,43320,1,0,0:0:0:0:
448,192,43320,1,0,0:0:0:0:
192,192,43528,1,0,0:0:0:0:
64,192,43528,1,0,0:0:0:0:
448,192,43528,1,0,0:0:0:0:
320,192,43632,1,0,0:0:0:0:
64,192,43736,1,0,0:0:0:0:
192,192,43840,1,0,0:0:0:0:
448,192,43945,1,0,0:0:0:0:
64,192,43945,1,0,0:0:0:0:
320,192,43945,1,0,0:0:0:0:
192,192,44049,1,0,0:0:0:0:
64,192,44153,1,0,0:0:0:0:
320,192,44257,1,0,0:0:0:0:
192,192,44361,1,0,0:0:0:0:
64,192,44361,1,0,0:0:0:0:
448,192,44361,1,0,0:0:0:0:
320,192,44465,1,0,0:0:0:0:
64,192,44570,1,0,0:0:0:0:
448,192,44570,1,0,0:0:0:0:
192,192,44674,1,0,0:0:0:0:
448,192,44778,1,0,0:0:0:0:
64,192,44882,1,0,0:0:0:0:
192,192,44882,1,0,0:0:0:0:
320,192,44986,1,0,0:0:0:0:
448,192,45090,1,0,0:0:0:0:
192,192,45195,1,0,0:0:0:0:
64,192,45195,1,0,0:0:0:0:
320,192,45299,1,0,0:0:0:0:
64,192,45403,1,0,0:0:0:0:
320,192,45507,1,0,0:0:0:0:
448,192,45507,1,0,0:0:0:0:
192,192,45611,1,0,0:0:0:0:
64,192,45715,1,0,0:0:0:0:
320,192,45820,1,0,0:0:0:0:
448,192,45820,1,0,0:0:0:0:
192,192,45924,1,0,0:0:0:0:
448,192,46028,1,0,0:0:0:0:
64,192,46028,1,0,0:0:0:0:
320,192,46132,1,0,0:0:0:0:
192,192,46236,1,0,0:0:0:0:
448,192,46340,1,0,0:0:0:0:
64,192,46445,1,0,0:0:0:0:
320,192,46549,1,0,0:0:0:0:
448,192,46549,1,0,0:0:0:0:
64,192,46653,1,0,0:0:0:0:
192,192,46653,1,0,0:0:0:0:
320,192,46757,1,0,0:0:0:0:
448,192,46757,1,0,0:0:0:0:
64,192,47070,1,0,0:0:0:0:
320,192,47278,1,0,0:0:0:0:
448,192,47278,1,0,0:0:0:0:
192,192,47486,1,0,0:0:0:0:
64,192,47695,1,0,0:0:0:0:
448,192,47695,1,0,0:0:0:0:
320,192,47903,1,0,0:0:0:0:
192,192,48111,1,0,0:0:0:0:
448,192,48111,1,0,0:0:0:0:
64,192,48320,1,0,0:0:0:0:
192,192,48528,1,0,0:0:0:0:
320,192,48528,1,0,0:0:0:0:
448,192,48736,1,0,0:0:0:0:
64,192,48945,1,0,0:0:0:0:
192,192,49153,1,0,0:0:0:0:
448,192,49153,1,0,0:0:0:0:
320,192,49361,1,0,0:0:0:0:
64,192,49570,1,0,0:0:0:0:
192,192,49778,1,0,0:0:0:0:
448,192,49778,1,0,0:0:0:0:
320,192,49986,1,0,0:0:0:0:
64,192,50195,1,0,0:0:0:0:
448,192,50195,1,0,0:0:0:0:
192,192,50403,1,0,0:0:0:0:
320,192,50611,1,0,0:0:0:0:
192,192,50820,1,0,0:0:0:0:
448,192,51028,1,0,0:0:0:0:
320,192,51236,1,0,0:0:0:0:
64,192,51445,1,0,0:0:0:0:
192,192,51653,1,0,0:0:0:0:
64,192,51861,1,0,0:0:0:0:
448,192,51861,1,0,0:0:0:0:
192,192,52278,1,0,0:0:0:0:
320,192,52278,1,0,0:0:0:0:
64,192,52695,1,0,0:0:0:0:
192,192,52695,1,0,0:0:0:0:
448,192,52695,1,0,0:0:0:0:
64,192,53111,1,0,0:0:0:0:
320,192,53111,1,0,0:0:0:0:
448,192,53111,1,0,0:0:0:0:
64,192,53528,1,0,0:0:0:0:
192,192,53528,1,0,0:0:0:0:
448,192,53528,1,0,0:0:0:0:
320,192,53528,1,0,0:0:0:0:
192,192,53632,1,0,0:0:0:0:
64,192,53736,1,0,0:0:0:0:
320,192,53736,1,0,0:0:0:0:
448,192,53840,1,0,0:0:0:0:
64,192,53945,1,0,0:0:0:0:
448,192,53945,1,0,0:0:0:0:
192,192,53945,1,0,0:0:0:0:
320,192,53945,1,0,0:0:0:0:
64,192,54049,1,0,0:0:0:0:
320,192,54153,1,0,0:0:0:0:
448,192,54153,1,0,0:0:0:0:
192,192,54153,1,0,0:0:0:0:
320,192,54257,1,0,0:0:0:0:
448,192,54361,1,0,0:0:0:0:
64,192,54361,1,0,0:0:0:0:
192,192,54361,1,0,0:0:0:0:
448,192,54465,1,0,0:0:0:0:
64,192,54570,1,0,0:0:0:0:
192,192,54570,1,0,0:0:0:0:
320,192,54570,1,0,0:0:0:0:
64,192,54674,1,0,0:0:0:0:
448,192,54778,1,0,0:0:0:0:
320,192,54778,1,0,0:0:0:0:
192,192,54882,1,0,0:0:0:0:
64,192,54986,1,0,0:0:0:0:
448,192,54986,1,0,0:0:0:0:
320,192,55090,1,0,0:0:0:0:
448,192,55195,1,0,0:0:0:0:
192,192,55195,1,0,0:0:0:0:
64,192,55195,1,0,0:0:0:0:
192,192,55299,1,0,0:0:0:0:
64,192,55403,1,0,0:0:0:0:
320,192,55403,1,0,0:0:0:0:
448,192,55507,1,0,0:0:0:0:
64,192,55611,1,0,0:0:0:0:
448,192,55611,1,0,0:0:0:0:
192,192,55611,1,0,0:0:0:0:
320,192,55715,1,0,0:0:0:0:
448,192,55820,1,0,0:0:0:0:
192,192,55820,1,0,0:0:0:0:
64,192,55820,1,0,0:0:0:0:
448,192,55924,1,0,0:0:0:0:
64,192,56028,1,0,0:0:0:0:
320,192,56028,1,0,0:0:0:0:
192,192,56132,1,0,0:0:0:0:
320,192,56236,1,0,0:0:0:0:
448,192,56236,1,0,0:0:0:0:
192,192,56340,1,0,0:0:0:0:
448,192,56445,1,0,0:0:0:0:
64,192,56445,1,0,0:0:0:0:
192,192,56549,1,0,0:0:0:0:
448,192,56653,1,0,0:0:0:0:
320,192,56653,1,0,0:0:0:0:
448,192,56757,1,0,0:0:0:0:
64,192,56757,1,0,0:0:0:0:
192,192,56861,1,0,0:0:0:0:
64,192,56861,1,0,0:0:0:0:
320,192,56965,1,0,0:0:0:0:
192,192,57070,1,0,0:0:0:0:
448,192,57070,1,0,0:0:0:0:
64,192,57070,1,0,0:0:0:0:
448,192,57174,1,0,0:0:0:0:
64,192,57278,1,0,0:0:0:0:
192,192,57278,1,0,0:0:0:0:
320,192,57382,1,0,0:0:0:0:
448,192,57486,1,0,0:0:0:0:
192,192,57486,1,0,0:0:0:0:
64,192,57486,1,0,0:0:0:0:
448,192,57590,1,0,0:0:0:0:
64,192,57695,1,0,0:0:0:0:
192,192,57695,1,0,0:0:0:0:
320,192,57799,1,0,0:0:0:0:
448,192,57903,1,0,0:0:0:0:
64,192,57903,1,0,0:0:0:0:
192,192,57903,1,0,0:0:0:0:
320,192,58007,1,0,0:0:0:0:
64,192,58111,1,0,0:0:0:0:
448,192,58111,1,0,0:0:0:0:
192,192,58215,1,0,0:0:0:0:
320,192,58320,1,0,0:0:0:0:
448,192,58320,1,0,0:0:0:0:
64,192,58320,1,0,0:0:0:0:
320,192,58424,1,0,0:0:0:0:
448,192,58528,1,0,0:0:0:0:
64,192,58528,1,0,0:0:0:0:
192,192,58528,1,0,0:0:0:0:
64,192,58632,1,0,0:0:0:0:
320,192,58736,1,0,0:0:0:0:
448,192,58736,1,0,0:0:0:0:
64,192,58840,1,0,0:0:0:0:
192,192,58945,1,0,0:0:0:0:
320,192,58945,1,0,0:0:0:0:
448,192,58945,1,0,0:0:0:0:
192,192,59049,1,0,0:0:0:0:
448,192,59153,1,0,0:0:0:0:
64,192,59153,1,0,0:0:0:0:
320,192,59257,1,0,0:0:0:0:
64,192,59361,1,0,0:0:0:0:
192,192,59361,1,0,0:0:0:0:
448,192,59465,1,0,0:0:0:0:
320,192,59570,1,0,0:0:0:0:
192,192,59570,1,0,0:0:0:0:
64,192,59674,1,0,0:0:0:0:
192,192,59778,1,0,0:0:0:0:
448,192,59778,1,0,0:0:0:0:
320,192,59882,1,0,0:0:0:0:
64,192,59986,1,0,0:0:0:0:
448,192,59986,1,0,0:0:0:0:
64,192,60090,1,0,0:0:0:0:
320,192,60195,1,0,0:0:0:0:
448,192,60195,1,0,0:0:0:0:
320,192,60611,1,0,0:0:0:0:
448,192,60611,1,0,0:0:0:0:
448,192,60715,1,0,0:0:0:0:
192,192,60820,1,0,0:0:0:0:
64,192,60820,1,0,0:0:0:0:
64,192,60924,1,0,0:0:0:0:
192,192,61028,1,0,0:0:0:0:
320,192,61028,1,0,0:0:0:0:
448,192,61028,1,0,0:0:0:0:
64,192,61236,1,0,0:0:0:0:
192,192,61236,1,0,0:0:0:0:
448,192,61236,1,0,0:0:0:0:
192,192,61445,1,0,0:0:0:0:
320,192,61445,1,0,0:0:0:0:
320,192,61653,1,0,0:0:0:0:
64,192,61653,1,0,0:0:0:0:
320,192,61757,1,0,0:0:0:0:
192,192,61861,1,0,0:0:0:0:
448,192,61861,1,0,0:0:0:0:
192,192,62174,1,0,0:0:0:0:
64,192,62278,1,0,0:0:0:0:
448,192,62278,1,0,0:0:0:0:
448,192,62382,1,0,0:0:0:0:
64,192,62486,1,0,0:0:0:0:
192,192,62486,1,0,0:0:0:0:
64,192,62590,1,0,0:0:0:0:
192,192,62695,1,0,0:0:0:0:
448,192,62695,1,0,0:0:0:0:
448,192,62903,1,0,0:0:0:0:
64,192,63320,1,0,0:0:0:0:
192,192,63320,1,0,0:0:0:0:
64,192,63424,1,0,0:0:0:0:
320,192,63528,1,0,0:0:0:0:
448,192,63528,1,0,0:0:0:0:
448,192,63632,1,0,0:0:0:0:
64,192,63736,1,0,0:0:0:0:
192,192,63736,1,0,0:0:0:0:
64,192,63840,1,0,0:0:0:0:
448,192,63945,1,0,0:0:0:0:
320,192,63945,1,0,0:0:0:0:
320,192,64049,1,0,0:0:0:0:
64,192,64153,1,0,0:0:0:0:
192,192,64153,1,0,0:0:0:0:
192,192,64257,1,0,0:0:0:0:
448,192,64361,1,0,0:0:0:0:
320,192,64361,1,0,0:0:0:0:
448,192,64465,1,0,0:0:0:0:
64,192,64570,1,0,0:0:0:0:
192,192,64570,1,0,0:0:0:0:
64,192,64674,1,0,0:0:0:0:
320,192,64778,1,0,0:0:0:0:
448,192,64778,1,0,0:0:0:0:
320,192,64882,1,0,0:0:0:0:
64,192,64986,1,0,0:0:0:0:
192,192,64986,1,0,0:0:0:0:
192,192,65090,1,0,0:0:0:0:
320,192,65195,1,0,0:0:0:0:
448,192,65195,1,0,0:0:0:0:
64,192,65611,1,0,0:0:0:0:
192,192,65611,1,0,0:0:0:0:
448,192,65611,1,0,0:0:0:0:
64,192,65820,1,0,0:0:0:0:
64,192,65924,1,0,0:0:0:0:
192,192,66028,1,0,0:0:0:0:
320,192,66028,1,0,0:0:0:0:
448,192,66028,1,0,0:0:0:0:
64,192,66132,1,0,0:0:0:0:
320,192,66236,1,0,0:0:0:0:
320,192,66340,1,0,0:0:0:0:
64,192,66445,1,0,0:0:0:0:
192,192,66445,1,0,0:0:0:0:
448,192,66445,1,0,0:0:0:0:
192,192,66549,1,0,0:0:0:0:
192,192,66653,1,0,0:0:0:0:
192,192,66757,1,0,0:0:0:0:
64,192,66861,1,0,0:0:0:0:
448,192,66861,1,0,0:0:0:0:
320,192,66861,1,0,0:0:0:0:
192,192,66965,1,0,0:0:0:0:
448,192,67070,1,0,0:0:0:0:
320,192,67070,1,0,0:0:0:0:
64,192,67174,1,0,0:0:0:0:
64,192,67278,1,0,0:0:0:0:
448,192,67278,1,0,0:0:0:0:
192,192,67278,1,0,0:0:0:0:
320,192,67278,1,0,0:0:0:0:
448,192,67382,1,0,0:0:0:0:
320,192,67486,1,0,0:0:0:0:
64,192,67486,1,0,0:0:0:0:
192,192,67486,1,0,0:0:0:0:
192,192,67590,1,0,0:0:0:0:
320,192,67695,1,0,0:0:0:0:
448,192,67695,1,0,0:0:0:0:
64,192,67695,1,0,0:0:0:0:
64,192,67799,1,0,0:0:0:0:
448,192,67903,1,0,0:0:0:0:
192,192,67903,1,0,0:0:0:0:
320,192,67903,1,0,0:0:0:0:
448,192,68007,1,0,0:0:0:0:
192,192,68111,1,0,0:0:0:0:
64,192,68111,1,0,0:0:0:0:
320,192,68215,1,0,0:0:0:0:
64,192,68320,1,0,0:0:0:0:
448,192,68320,1,0,0:0:0:0:
192,192,68424,1,0,0:0:0:0:
64,192,68528,1,0,0:0:0:0:
448,192,68528,1,0,0:0:0:0:
320,192,68528,1,0,0:0:0:0:
320,192,68632,1,0,0:0:0:0:
192,192,68736,1,0,0:0:0:0:
448,192,68736,1,0,0:0:0:0:
64,192,68840,1,0,0:0:0:0:
320,192,68945,1,0,0:0:0:0:
64,192,68945,1,0,0:0:0:0:
448,192,68945,1,0,0:0:0:0:
192,192,69049,1,0,0:0:0:0:
320,192,69153,1,0,0:0:0:0:
64,192,69153,1,0,0:0:0:0:
448,192,69153,1,0,0:0:0:0:
64,192,69257,1,0,0:0:0:0:
192,192,69361,1,0,0:0:0:0:
448,192,69361,1,0,0:0:0:0:
320,192,69465,1,0,0:0:0:0:
64,192,69570,1,0,0:0:0:0:
192,192,69570,1,0,0:0:0:0:
320,192,69674,1,0,0:0:0:0:
448,192,69778,1,0,0:0:0:0:
64,192,69778,1,0,0:0:0:0:
320,192,69882,1,0,0:0:0:0:
192,192,69986,1,0,0:0:0:0:
64,192,69986,1,0,0:0:0:0:
448,192,70090,1,0,0:0:0:0:
64,192,70090,1,0,0:0:0:0:
448,192,70195,1,0,0:0:0:0:
320,192,70195,1,0,0:0:0:0:
192,192,70299,1,0,0:0:0:0:
448,192,70403,1,0,0:0:0:0:
64,192,70403,1,0,0:0:0:0:
320,192,70403,1,0,0:0:0:0:
64,192,70507,1,0,0:0:0:0:
320,192,70611,1,0,0:0:0:0:
448,192,70611,1,0,0:0:0:0:
192,192,70715,1,0,0:0:0:0:
448,192,70820,1,0,0:0:0:0:
320,192,70820,1,0,0:0:0:0:
64,192,70820,1,0,0:0:0:0:
64,192,70924,1,0,0:0:0:0:
448,192,71028,1,0,0:0:0:0:
320,192,71028,1,0,0:0:0:0:
192,192,71132,1,0,0:0:0:0:
320,192,71236,1,0,0:0:0:0:
448,192,71236,1,0,0:0:0:0:
64,192,71236,1,0,0:0:0:0:
192,192,71340,1,0,0:0:0:0:
64,192,71445,1,0,0:0:0:0:
448,192,71445,1,0,0:0:0:0:
320,192,71549,1,0,0:0:0:0:
64,192,71653,1,0,0:0:0:0:
192,192,71653,1,0,0:0:0:0:
448,192,71653,1,0,0:0:0:0:
192,192,71757,1,0,0:0:0:0:
320,192,71861,1,0,0:0:0:0:
448,192,71861,1,0,0:0:0:0:
64,192,71861,1,0,0:0:0:0:
448,192,71965,1,0,0:0:0:0:
64,192,72070,1,0,0:0:0:0:
192,192,72070,1,0,0:0:0:0:
448,192,72174,1,0,0:0:0:0:
192,192,72278,1,0,0:0:0:0:
320,192,72278,1,0,0:0:0:0:
64,192,72278,1,0,0:0:0:0:
320,192,72382,1,0,0:0:0:0:
448,192,72486,1,0,0:0:0:0:
64,192,72486,1,0,0:0:0:0:
192,192,72590,1,0,0:0:0:0:
320,192,72695,1,0,0:0:0:0:
448,192,72695,1,0,0:0:0:0:
64,192,72799,1,0,0:0:0:0:
192,192,72903,1,0,0:0:0:0:
320,192,72903,1,0,0:0:0:0:
448,192,73007,1,0,0:0:0:0:
64,192,73111,1,0,0:0:0:0:
320,192,73111,1,0,0:0:0:0:
192,192,73215,1,0,0:0:0:0:
64,192,73320,1,0,0:0:0:0:
448,192,73320,1,0,0:0:0:0:
448,192,73424,1,0,0:0:0:0:
64,192,73528,1,0,0:0:0:0:
192,192,73528,1,0,0:0:0:0:
64,192,73945,1,0,0:0:0:0:
192,192,73945,1,0,0:0:0:0:
64,192,74049,1,0,0:0:0:0:
448,192,74153,1,0,0:0:0:0:
320,192,74153,1,0,0:0:0:0:
448,192,74257,1,0,0:0:0:0:
64,192,74361,1,0,0:0:0:0:
192,192,74361,1,0,0:0:0:0:
320,192,74361,1,0,0:0:0:0:
64,192,74570,1,0,0:0:0:0:
320,192,74570,1,0,0:0:0:0:
448,192,74570,1,0,0:0:0:0:
192,192,74778,1,0,0:0:0:0:
320,192,74778,1,0,0:0:0:0:
448,192,74986,1,0,0:0:0:0:
192,192,74986,1,0,0:0:0:0:
192,192,75090,1,0,0:0:0:0:
64,192,75195,1,0,0:0:0:0:
320,192,75195,1,0,0:0:0:0:
320,192,75507,1,0,0:0:0:0:
64,192,75611,1,0,0:0:0:0:
448,192,75611,1,0,0:0:0:0:
64,192,75715,1,0,0:0:0:0:
320,192,75820,1,0,0:0:0:0:
448,192,75820,1,0,0:0:0:0:
448,192,75924,1,0,0:0:0:0:
64,192,76028,1,0,0:0:0:0:
320,192,76028,1,0,0:0:0:0:
64,192,76236,1,0,0:0:0:0:
320,192,76653,1,0,0:0:0:0:
448,192,76653,1,0,0:0:0:0:
448,192,76757,1,0,0:0:0:0:
64,192,76861,1,0,0:0:0:0:
192,192,76861,1,0,0:0:0:0:
64,192,76965,1,0,0:0:0:0:
320,192,77070,1,0,0:0:0:0:
448,192,77070,1,0,0:0:0:0:
448,192,77174,1,0,0:0:0:0:
192,192,77278,1,0,0:0:0:0:
64,192,77278,1,0,0:0:0:0:
192,192,77382,1,0,0:0:0:0:
320,192,77486,1,0,0:0:0:0:
448,192,77486,1,0,0:0:0:0:
320,192,77590,1,0,0:0:0:0:
192,192,77695,1,0,0:0:0:0:
64,192,77695,1,0,0:0:0:0:
64,192,77799,1,0,0:0:0:0:
320,192,77903,1,0,0:0:0:0:
448,192,77903,1,0,0:0:0:0:
448,192,78007,1,0,0:0:0:0:
64,192,78111,1,0,0:0:0:0:
192,192,78111,1,0,0:0:0:0:
192,192,78215,1,0,0:0:0:0:
320,192,78320,1,0,0:0:0:0:
448,192,78320,1,0,0:0:0:0:
320,192,78424,1,0,0:0:0:0:
64,192,78528,1,0,0:0:0:0:
192,192,78528,1,0,0:0:0:0:
64,192,78945,1,0,0:0:0:0:
320,192,78945,1,0,0:0:0:0:
448,192,78945,1,0,0:0:0:0:
448,192,79153,1,0,0:0:0:0:
448,192,79257,1,0,0:0:0:0:
64,192,79361,1,0,0:0:0:0:
192,192,79361,1,0,0:0:0:0:
320,192,79361,1,0,0:0:0:0:
448,192,79465,1,0,0:0:0:0:
192,192,79570,1,0,0:0:0:0:
192,192,79674,1,0,0:0:0:0:
64,192,79778,1,0,0:0:0:0:
320,192,79778,1,0,0:0:0:0:
448,192,79778,1,0,0:0:0:0:
320,192,79882,1,0,0:0:0:0:
320,192,79986,1,0,0:0:0:0:
320,192,80090,1,0,0:0:0:0:
64,192,80195,1,0,0:0:0:0:
192,192,80195,1,0,0:0:0:0:
448,192,80195,1,0,0:0:0:0:
320,192,80403,1,0,0:0:0:0:
64,192,80611,1,0,0:0:0:0:
192,192,80611,1,0,0:0:0:0:
448,192,80820,1,0,0:0:0:0:
64,192,81028,1,0,0:0:0:0:
192,192,81028,1,0,0:0:0:0:
320,192,81236,1,0,0:0:0:0:
64,192,81445,1,0,0:0:0:0:
192,192,81445,1,0,0:0:0:0:
448,192,81653,1,0,0:0:0:0:
64,192,81861,1,0,0:0:0:0:
320,192,81861,1,0,0:0:0:0:
192,192,82070,1,0,0:0:0:0:
320,192,82278,1,0,0:0:0:0:
448,192,82278,1,0,0:0:0:0:
64,192,82486,1,0,0:0:0:0:
448,192,82695,1,0,0:0:0:0:
320,192,82695,1,0,0:0:0:0:
192,192,82903,1,0,0:0:0:0:
320,192,83111,1,0,0:0:0:0:
448,192,83111,1,0,0:0:0:0:
64,192,83320,1,0,0:0:0:0:
192,192,83528,1,0,0:0:0:0:
448,192,83528,1,0,0:0:0:0:
320,192,83632,1,0,0:0:0:0:
64,192,83736,1,0,0:0:0:0:
192,192,83840,1,0,0:0:0:0:
448,192,83945,1,0,0:0:0:0:
320,192,84049,1,0,0:0:0:0:
192,192,84153,1,0,0:0:0:0:
64,192,84257,1,0,0:0:0:0:
320,192,84361,1,0,0:0:0:0:
448,192,84361,1,0,0:0:0:0:
192,192,84465,1,0,0:0:0:0:
64,192,84570,1,0,0:0:0:0:
320,192,84674,1,0,0:0:0:0:
64,192,84778,1,0,0:0:0:0:
448,192,84778,1,0,0:0:0:0:
192,192,84882,1,0,0:0:0:0:
192,192,84986,1,0,0:0:0:0:
448,192,85090,1,0,0:0:0:0:
64,192,85195,1,0,0:0:0:0:
448,192,85195,1,0,0:0:0:0:
320,192,86028,1,0,0:0:0:0:
64,192,86236,1,0,0:0:0:0:
192,192,86236,1,0,0:0:0:0:
320,192,86445,1,0,0:0:0:0:
448,192,86445,1,0,0:0:0:0:
64,192,86653,1,0,0:0:0:0:
192,192,86653,1,0,0:0:0:0:
448,192,86861,1,0,0:0:0:0:
64,192,87070,1,0,0:0:0:0:
192,192,87278,1,0,0:0:0:0:
448,192,87278,1,0,0:0:0:0:
320,192,87486,1,0,0:0:0:0:
64,192,87695,1,0,0:0:0:0:
448,192,87695,1,0,0:0:0:0:
192,192,87903,1,0,0:0:0:0:
320,192,88320,1,0,0:0:0:0:
192,192,88736,1,0,0:0:0:0:
448,192,88945,1,0,0:0:0:0:
320,192,88945,1,0,0:0:0:0:
64,192,89153,1,0,0:0:0:0:
192,192,89361,1,0,0:0:0:0:
320,192,89570,1,0,0:0:0:0:
192,192,89986,1,0,0:0:0:0:
448,192,90090,1,0,0:0:0:0:
64,192,90195,1,0,0:0:0:0:
192,192,90820,1,0,0:0:0:0:
64,192,90924,1,0,0:0:0:0:
320,192,91028,1,0,0:0:0:0:
192,192,92903,1,0,0:0:0:0:
448,192,93111,1,0,0:0:0:0:
320,192,93320,1,0,0:0:0:0:
64,192,93528,1,0,0:0:0:0:
192,192,93528,1,0,0:0:0:0:
320,192,93945,1,0,0:0:0:0:
448,192,93945,1,0,0:0:0:0:
64,192,94361,1,0,0:0:0:0:
320,192,94361,1,0,0:0:0:0:
192,192,94778,1,0,0:0:0:0:
448,192,94778,1,0,0:0:0:0:
64,192,95195,1,0,0:0:0:0:
192,192,95195,1,0,0:0:0:0:
192,192,95611,1,0,0:0:0:0:
448,192,95611,1,0,0:0:0:0:
192,192,96028,1,0,0:0:0:0:
320,192,96028,1,0,0:0:0:0:
64,192,96445,1,0,0:0:0:0:
192,192,96445,1,0,0:0:0:0:
320,192,96653,1,0,0:0:0:0:
64,192,96757,1,0,0:0:0:0:
192,192,96861,1,0,0:0:0:0:
448,192,96861,128,0,97070:0:0:0:0:
320,192,97070,128,0,97278:0:0:0:0:
64,192,97278,1,0,0:0:0:0:
192,192,97278,1,0,0:0:0:0:
320,192,97486,1,0,0:0:0:0:
64,192,97590,1,0,0:0:0:0:
448,192,97695,1,0,0:0:0:0:
64,192,97903,1,0,0:0:0:0:
320,192,98111,1,0,0:0:0:0:
192,192,98111,1,0,0:0:0:0:
448,192,98320,128,0,98424:0:0:0:0:
320,192,98424,128,0,98528:0:0:0:0:
192,192,98528,1,0,0:0:0:0:
64,192,98528,128,0,98736:0:0:0:0:
320,192,98736,1,0,0:0:0:0:
448,192,98736,128,0,98945:0:0:0:0:
192,192,98945,1,0,0:0:0:0:
64,192,98945,1,0,0:0:0:0:
320,192,99153,128,0,99778:0:0:0:0:
448,192,99153,1,0,0:0:0:0:
64,192,99361,1,0,0:0:0:0:
192,192,99361,1,0,0:0:0:0:
448,192,99570,1,0,0:0:0:0:
64,192,99778,1,0,0:0:0:0:
192,192,99778,1,0,0:0:0:0:
448,192,99986,1,0,0:0:0:0:
320,192,100090,1,0,0:0:0:0:
64,192,100195,1,0,0:0:0:0:
192,192,100195,1,0,0:0:0:0:
64,192,100403,1,0,0:0:0:0:
320,192,100611,1,0,0:0:0:0:
448,192,100611,1,0,0:0:0:0:
448,192,100820,1,0,0:0:0:0:
64,192,101028,1,0,0:0:0:0:
320,192,101028,1,0,0:0:0:0:
320,192,101236,1,0,0:0:0:0:
192,192,101445,1,0,0:0:0:0:
448,192,101445,1,0,0:0:0:0:
192,192,101653,1,0,0:0:0:0:
64,192,101861,1,0,0:0:0:0:
320,192,101861,1,0,0:0:0:0:
64,192,102070,1,0,0:0:0:0:
192,192,102278,1,0,0:0:0:0:
448,192,102278,1,0,0:0:0:0:
192,192,102486,1,0,0:0:0:0:
64,192,102695,1,0,0:0:0:0:
320,192,102695,1,0,0:0:0:0:
320,192,102903,1,0,0:0:0:0:
64,192,103007,1,0,0:0:0:0:
192,192,103111,1,0,0:0:0:0:
448,192,103111,1,0,0:0:0:0:
448,192,103320,1,0,0:0:0:0:
320,192,103320,1,0,0:0:0:0:
192,192,103528,1,0,0:0:0:0:
64,192,103528,1,0,0:0:0:0:
448,192,103736,1,0,0:0:0:0:
192,192,103840,1,0,0:0:0:0:
64,192,103945,1,0,0:0:0:0:
320,192,103945,1,0,0:0:0:0:
448,192,104049,1,0,0:0:0:0:
64,192,104153,1,0,0:0:0:0:
192,192,104257,1,0,0:0:0:0:
320,192,104361,1,0,0:0:0:0:
448,192,104361,1,0,0:0:0:0:
192,192,104465,1,0,0:0:0:0:
64,192,104570,1,0,0:0:0:0:
448,192,104674,1,0,0:0:0:0:
320,192,104778,1,0,0:0:0:0:
64,192,104778,1,0,0:0:0:0:
192,192,104986,1,0,0:0:0:0:
320,192,105090,1,0,0:0:0:0:
64,192,105195,1,0,0:0:0:0:
448,192,105195,1,0,0:0:0:0:
192,192,105299,1,0,0:0:0:0:
320,192,105403,1,0,0:0:0:0:
192,192,105507,1,0,0:0:0:0:
64,192,105611,1,0,0:0:0:0:
320,192,105611,1,0,0:0:0:0:
192,192,105715,1,0,0:0:0:0:
320,192,105820,1,0,0:0:0:0:
448,192,105924,1,0,0:0:0:0:
64,192,105924,1,0,0:0:0:0:
192,192,106028,1,0,0:0:0:0:
64,192,106132,1,0,0:0:0:0:
448,192,106236,1,0,0:0:0:0:
320,192,106340,1,0,0:0:0:0:
64,192,106445,1,0,0:0:0:0:
192,192,106445,1,0,0:0:0:0:
448,192,106653,1,0,0:0:0:0:
64,192,106757,1,0,0:0:0:0:
192,192,106861,1,0,0:0:0:0:
320,192,106861,1,0,0:0:0:0:
320,192,107278,1,0,0:0:0:0:
448,192,107278,1,0,0:0:0:0:
192,192,107486,1,0,0:0:0:0:
64,192,107695,1,0,0:0:0:0:
448,192,107695,1,0,0:0:0:0:
320,192,107903,1,0,0:0:0:0:
64,192,108111,1,0,0:0:0:0:
448,192,108111,1,0,0:0:0:0:
192,192,108320,1,0,0:0:0:0:
64,192,108528,1,0,0:0:0:0:
320,192,108528,1,0,0:0:0:0:
448,192,108736,1,0,0:0:0:0:
192,192,108945,1,0,0:0:0:0:
64,192,108945,1,0,0:0:0:0:
320,192,109153,1,0,0:0:0:0:
64,192,109361,1,0,0:0:0:0:
448,192,109361,1,0,0:0:0:0:
192,192,109570,1,0,0:0:0:0:
320,192,109778,1,0,0:0:0:0:
448,192,109778,1,0,0:0:0:0:
192,192,109986,1,0,0:0:0:0:
64,192,110195,1,0,0:0:0:0:
448,192,110195,1,0,0:0:0:0:
320,192,110403,1,0,0:0:0:0:
64,192,110611,1,0,0:0:0:0:
448,192,110611,1,0,0:0:0:0:
320,192,110820,1,0,0:0:0:0:
192,192,111028,1,0,0:0:0:0:
64,192,111028,1,0,0:0:0:0:
320,192,111236,1,0,0:0:0:0:
64,192,111445,1,0,0:0:0:0:
448,192,111445,1,0,0:0:0:0:
320,192,111653,1,0,0:0:0:0:
64,192,111861,1,0,0:0:0:0:
192,192,111861,1,0,0:0:0:0:
192,192,112278,1,0,0:0:0:0:
320,192,112278,1,0,0:0:0:0:
64,192,112695,1,0,0:0:0:0:
320,192,112695,1,0,0:0:0:0:
448,192,112695,1,0,0:0:0:0:
64,192,113111,1,0,0:0:0:0:
192,192,113111,1,0,0:0:0:0:
448,192,113111,1,0,0:0:0:0:
64,192,113528,1,0,0:0:0:0:
192,192,113528,1,0,0:0:0:0:
448,192,113528,1,0,0:0:0:0:
320,192,113528,1,0,0:0:0:0:
192,192,113632,1,0,0:0:0:0:
64,192,113736,1,0,0:0:0:0:
320,192,113736,1,0,0:0:0:0:
448,192,113840,1,0,0:0:0:0:
64,192,113945,1,0,0:0:0:0:
448,192,113945,1,0,0:0:0:0:
192,192,113945,1,0,0:0:0:0:
320,192,113945,1,0,0:0:0:0:
64,192,114049,1,0,0:0:0:0:
320,192,114153,1,0,0:0:0:0:
448,192,114153,1,0,0:0:0:0:
192,192,114153,1,0,0:0:0:0:
320,192,114257,1,0,0:0:0:0:
448,192,114361,1,0,0:0:0:0:
64,192,114361,1,0,0:0:0:0:
192,192,114361,1,0,0:0:0:0:
448,192,114465,1,0,0:0:0:0:
64,192,114570,1,0,0:0:0:0:
192,192,114570,1,0,0:0:0:0:
320,192,114570,1,0,0:0:0:0:
64,192,114674,1,0,0:0:0:0:
448,192,114778,1,0,0:0:0:0:
320,192,114778,1,0,0:0:0:0:
192,192,114882,1,0,0:0:0:0:
64,192,114986,1,0,0:0:0:0:
448,192,114986,1,0,0:0:0:0:
320,192,115090,1,0,0:0:0:0:
448,192,115195,1,0,0:0:0:0:
192,192,115195,1,0,0:0:0:0:
64,192,115195,1,0,0:0:0:0:
192,192,115299,1,0,0:0:0:0:
64,192,115403,1,0,0:0:0:0:
320,192,115403,1,0,0:0:0:0:
448,192,115507,1,0,0:0:0:0:
64,192,115611,1,0,0:0:0:0:
448,192,115611,1,0,0:0:0:0:
192,192,115611,1,0,0:0:0:0:
320,192,115715,1,0,0:0:0:0:
448,192,115820,1,0,0:0:0:0:
192,192,115820,1,0,0:0:0:0:
64,192,115820,1,0,0:0:0:0:
448,192,115924,1,0,0:0:0:0:
64,192,116028,1,0,0:0:0:0:
320,192,116028,1,0,0:0:0:0:
192,192,116132,1,0,0:0:0:0:
320,192,116236,1,0,0:0:0:0:
448,192,116236,1,0,0:0:0:0:
192,192,116340,1,0,0:0:0:0:
448,192,116445,1,0,0:0:0:0:
64,192,116445,1,0,0:0:0:0:
192,192,116549,1,0,0:0:0:0:
448,192,116653,1,0,0:0:0:0:
320,192,116653,1,0,0:0:0:0:
448,192,116757,1,0,0:0:0:0:
64,192,116757,1,0,0:0:0:0:
192,192,116861,1,0,0:0:0:0:
64,192,116861,1,0,0:0:0:0:
320,192,116965,1,0,0:0:0:0:
192,192,117070,1,0,0:0:0:0:
448,192,117070,1,0,0:0:0:0:
64,192,117070,1,0,0:0:0:0:
448,192,117174,1,0,0:0:0:0:
64,192,117278,1,0,0:0:0:0:
192,192,117278,1,0,0:0:0:0:
320,192,117382,1,0,0:0:0:0:
448,192,117486,1,0,0:0:0:0:
192,192,117486,1,0,0:0:0:0:
64,192,117486,1,0,0:0:0:0:
448,192,117590,1,0,0:0:0:0:
64,192,117695,1,0,0:0:0:0:
192,192,117695,1,0,0:0:0:0:
320,192,117799,1,0,0:0:0:0:
448,192,117903,1,0,0:0:0:0:
64,192,117903,1,0,0:0:0:0:
192,192,117903,1,0,0:0:0:0:
320,192,118007,1,0,0:0:0:0:
64,192,118111,1,0,0:0:0:0:
448,192,118111,1,0,0:0:0:0:
192,192,118215,1,0,0:0:0:0:
320,192,118320,1,0,0:0:0:0:
448,192,118320,1,0,0:0:0:0:
64,192,118320,1,0,0:0:0:0:
320,192,118424,1,0,0:0:0:0:
448,192,118528,1,0,0:0:0:0:
64,192,118528,1,0,0:0:0:0:
192,192,118528,1,0,0:0:0:0:
64,192,118632,1,0,0:0:0:0:
320,192,118736,1,0,0:0:0:0:
448,192,118736,1,0,0:0:0:0:
64,192,118840,1,0,0:0:0:0:
192,192,118945,1,0,0:0:0:0:
320,192,118945,1,0,0:0:0:0:
448,192,118945,1,0,0:0:0:0:
192,192,119049,1,0,0:0:0:0:
448,192,119153,1,0,0:0:0:0:
64,192,119153,1,0,0:0:0:0:
320,192,119257,1,0,0:0:0:0:
64,192,119361,1,0,0:0:0:0:
192,192,119361,1,0,0:0:0:0:
448,192,119465,1,0,0:0:0:0:
320,192,119570,1,0,0:0:0:0:
192,192,119570,1,0,0:0:0:0:
64,192,119674,1,0,0:0:0:0:
192,192,119778,1,0,0:0:0:0:
448,192,119778,1,0,0:0:0:0:
320,192,119882,1,0,0:0:0:0:
64,192,119986,1,0,0:0:0:0:
448,192,119986,1,0,0:0:0:0:
64,192,120090,1,0,0:0:0:0:
320,192,120195,1,0,0:0:0:0:
448,192,120195,1,0,0:0:0:0:
448,192,120715,1,0,0:0:0:0:
64,192,120820,1,0,0:0:0:0:
448,192,120820,1,0,0:0:0:0:
64,192,120924,1,0,0:0:0:0:
192,192,121028,1,0,0:0:0:0:
320,192,121028,1,0,0:0:0:0:
448,192,121028,1,0,0:0:0:0:
64,192,121236,1,0,0:0:0:0:
192,192,121236,1,0,0:0:0:0:
448,192,121236,1,0,0:0:0:0:
320,192,121653,1,0,0:0:0:0:
64,192,121653,1,0,0:0:0:0:
320,192,121757,1,0,0:0:0:0:
192,192,121861,1,0,0:0:0:0:
448,192,121861,1,0,0:0:0:0:
192,192,122174,1,0,0:0:0:0:
64,192,122278,1,0,0:0:0:0:
448,192,122382,1,0,0:0:0:0:
320,192,122382,1,0,0:0:0:0:
64,192,122486,1,0,0:0:0:0:
64,192,122590,1,0,0:0:0:0:
192,192,122590,1,0,0:0:0:0:
448,192,122695,1,0,0:0:0:0:
320,192,122695,1,0,0:0:0:0:
448,192,122903,1,0,0:0:0:0:
64,192,123320,1,0,0:0:0:0:
192,192,123320,1,0,0:0:0:0:
64,192,123424,1,0,0:0:0:0:
320,192,123528,1,0,0:0:0:0:
448,192,123528,1,0,0:0:0:0:
448,192,123632,1,0,0:0:0:0:
64,192,123736,1,0,0:0:0:0:
192,192,123736,1,0,0:0:0:0:
64,192,123840,1,0,0:0:0:0:
448,192,123945,1,0,0:0:0:0:
320,192,123945,1,0,0:0:0:0:
320,192,124049,1,0,0:0:0:0:
64,192,124153,1,0,0:0:0:0:
192,192,124153,1,0,0:0:0:0:
192,192,124257,1,0,0:0:0:0:
448,192,124361,1,0,0:0:0:0:
320,192,124361,1,0,0:0:0:0:
448,192,124465,1,0,0:0:0:0:
64,192,124570,1,0,0:0:0:0:
192,192,124570,1,0,0:0:0:0:
64,192,124674,1,0,0:0:0:0:
320,192,124778,1,0,0:0:0:0:
448,192,124778,1,0,0:0:0:0:
320,192,124882,1,0,0:0:0:0:
64,192,124986,1,0,0:0:0:0:
192,192,124986,1,0,0:0:0:0:
192,192,125090,1,0,0:0:0:0:
320,192,125195,1,0,0:0:0:0:
448,192,125195,1,0,0:0:0:0:
64,192,125611,1,0,0:0:0:0:
192,192,125611,1,0,0:0:0:0:
448,192,125611,1,0,0:0:0:0:
64,192,125820,1,0,0:0:0:0:
64,192,125924,1,0,0:0:0:0:
192,192,126028,1,0,0:0:0:0:
320,192,126028,1,0,0:0:0:0:
448,192,126028,1,0,0:0:0:0:
64,192,126132,1,0,0:0:0:0:
320,192,126236,1,0,0:0:0:0:
320,192,126340,1,0,0:0:0:0:
64,192,126445,1,0,0:0:0:0:
192,192,126445,1,0,0:0:0:0:
448,192,126445,1,0,0:0:0:0:
192,192,126549,1,0,0:0:0:0:
192,192,126653,1,0,0:0:0:0:
192,192,126757,1,0,0:0:0:0:
64,192,126861,1,0,0:0:0:0:
448,192,126861,1,0,0:0:0:0:
320,192,126861,1,0,0:0:0:0:
192,192,126965,1,0,0:0:0:0:
448,192,127070,1,0,0:0:0:0:
320,192,127070,1,0,0:0:0:0:
64,192,127174,1,0,0:0:0:0:
64,192,127278,1,0,0:0:0:0:
448,192,127278,1,0,0:0:0:0:
192,192,127278,1,0,0:0:0:0:
320,192,127278,1,0,0:0:0:0:
448,192,127382,1,0,0:0:0:0:
320,192,127486,1,0,0:0:0:0:
64,192,127486,1,0,0:0:0:0:
192,192,127486,1,0,0:0:0:0:
192,192,127590,1,0,0:0:0:0:
320,192,127695,1,0,0:0:0:0:
448,192,127695,1,0,0:0:0:0:
64,192,127695,1,0,0:0:0:0:
64,192,127799,1,0,0:0:0:0:
448,192,127903,1,0,0:0:0:0:
192,192,127903,1,0,0:0:0:0:
320,192,127903,1,0,0:0:0:0:
448,192,128007,1,0,0:0:0:0:
192,192,128111,1,0,0:0:0:0:
64,192,128111,1,0,0:0:0:0:
320,192,128215,1,0,0:0:0:0:
64,192,128320,1,0,0:0:0:0:
448,192,128320,1,0,0:0:0:0:
192,192,128424,1,0,0:0:0:0:
64,192,128528,1,0,0:0:0:0:
448,192,128528,1,0,0:0:0:0:
320,192,128528,1,0,0:0:0:0:
320,192,128632,1,0,0:0:0:0:
192,192,128736,1,0,0:0:0:0:
448,192,128736,1,0,0:0:0:0:
64,192,128840,1,0,0:0:0:0:
320,192,128945,1,0,0:0:0:0:
64,192,128945,1,0,0:0:0:0:
448,192,128945,1,0,0:0:0:0:
192,192,129049,1,0,0:0:0:0:
320,192,129153,1,0,0:0:0:0:
64,192,129153,1,0,0:0:0:0:
448,192,129153,1,0,0:0:0:0:
64,192,129257,1,0,0:0:0:0:
192,192,129361,1,0,0:0:0:0:
448,192,129361,1,0,0:0:0:0:
320,192,129465,1,0,0:0:0:0:
64,192,129570,1,0,0:0:0:0:
192,192,129570,1,0,0:0:0:0:
320,192,129674,1,0,0:0:0:0:
448,192,129778,1,0,0:0:0:0:
64,192,129778,1,0,0:0:0:0:
320,192,129882,1,0,0:0:0:0:
192,192,129986,1,0,0:0:0:0:
64,192,129986,1,0,0:0:0:0:
448,192,130090,1,0,0:0:0:0:
64,192,130090,1,0,0:0:0:0:
448,192,130195,1,0,0:0:0:0:
320,192,130195,1,0,0:0:0:0:
192,192,130299,1,0,0:0:0:0:
448,192,130403,1,0,0:0:0:0:
64,192,130403,1,0,0:0:0:0:
320,192,130403,1,0,0:0:0:0:
64,192,130507,1,0,0:0:0:0:
320,192,130611,1,0,0:0:0:0:
448,192,130611,1,0,0:0:0:0:
192,192,130715,1,0,0:0:0:0:
448,192,130820,1,0,0:0:0:0:
320,192,130820,1,0,0:0:0:0:
64,192,130820,1,0,0:0:0:0:
64,192,130924,1,0,0:0:0:0:
448,192,131028,1,0,0:0:0:0:
320,192,131028,1,0,0:0:0:0:
192,192,131132,1,0,0:0:0:0:
320,192,131236,1,0,0:0:0:0:
448,192,131236,1,0,0:0:0:0:
64,192,131236,1,0,0:0:0:0:
192,192,131340,1,0,0:0:0:0:
64,192,131445,1,0,0:0:0:0:
448,192,131445,1,0,0:0:0:0:
320,192,131549,1,0,0:0:0:0:
64,192,131653,1,0,0:0:0:0:
192,192,131653,1,0,0:0:0:0:
448,192,131653,1,0,0:0:0:0:
192,192,131757,1,0,0:0:0:0:
320,192,131861,1,0,0:0:0:0:
448,192,131861,1,0,0:0:0:0:
64,192,131861,1,0,0:0:0:0:
448,192,131965,1,0,0:0:0:0:
64,192,132070,1,0,0:0:0:0:
192,192,132070,1,0,0:0:0:0:
448,192,132174,1,0,0:0:0:0:
192,192,132278,1,0,0:0:0:0:
320,192,132278,1,0,0:0:0:0:
64,192,132278,1,0,0:0:0:0:
320,192,132382,1,0,0:0:0:0:
448,192,132486,1,0,0:0:0:0:
64,192,132486,1,0,0:0:0:0:
192,192,132590,1,0,0:0:0:0:
320,192,132695,1,0,0:0:0:0:
448,192,132695,1,0,0:0:0:0:
64,192,132799,1,0,0:0:0:0:
192,192,132903,1,0,0:0:0:0:
320,192,132903,1,0,0:0:0:0:
448,192,133007,1,0,0:0:0:0:
64,192,133111,1,0,0:0:0:0:
320,192,133111,1,0,0:0:0:0:
192,192,133215,1,0,0:0:0:0:
64,192,133320,1,0,0:0:0:0:
448,192,133320,1,0,0:0:0:0:
448,192,133424,1,0,0:0:0:0:
64,192,133528,1,0,0:0:0:0:
192,192,133528,1,0,0:0:0:0:
64,192,133945,1,0,0:0:0:0:
192,192,133945,1,0,0:0:0:0:
64,192,134049,1,0,0:0:0:0:
448,192,134153,1,0,0:0:0:0:
320,192,134153,1,0,0:0:0:0:
448,192,134257,1,0,0:0:0:0:
64,192,134361,1,0,0:0:0:0:
192,192,134361,1,0,0:0:0:0:
320,192,134361,1,0,0:0:0:0:
64,192,134570,1,0,0:0:0:0:
320,192,134570,1,0,0:0:0:0:
448,192,134570,1,0,0:0:0:0:
192,192,134778,1,0,0:0:0:0:
320,192,134778,1,0,0:0:0:0:
448,192,134986,1,0,0:0:0:0:
192,192,134986,1,0,0:0:0:0:
192,192,135090,1,0,0:0:0:0:
64,192,135195,1,0,0:0:0:0:
320,192,135195,1,0,0:0:0:0:
320,192,135507,1,0,0:0:0:0:
64,192,135611,1,0,0:0:0:0:
448,192,135611,1,0,0:0:0:0:
64,192,135715,1,0,0:0:0:0:
320,192,135820,1,0,0:0:0:0:
448,192,135820,1,0,0:0:0:0:
448,192,135924,1,0,0:0:0:0:
64,192,136028,1,0,0:0:0:0:
320,192,136028,1,0,0:0:0:0:
64,192,136236,1,0,0:0:0:0:
320,192,136653,1,0,0:0:0:0:
448,192,136653,1,0,0:0:0:0:
448,192,136757,1,0,0:0:0:0:
64,192,136861,1,0,0:0:0:0:
192,192,136861,1,0,0:0:0:0:
64,192,136965,1,0,0:0:0:0:
320,192,137070,1,0,0:0:0:0:
448,192,137070,1,0,0:0:0:0:
448,192,137174,1,0,0:0:0:0:
192,192,137278,1,0,0:0:0:0:
64,192,137278,1,0,0:0:0:0:
192,192,137382,1,0,0:0:0:0:
320,192,137486,1,0,0:0:0:0:
448,192,137486,1,0,0:0:0:0:
320,192,137590,1,0,0:0:0:0:
192,192,137695,1,0,0:0:0:0:
64,192,137695,1,0,0:0:0:0:
64,192,137799,1,0,0:0:0:0:
320,192,137903,1,0,0:0:0:0:
448,192,137903,1,0,0:0:0:0:
448,192,138007,1,0,0:0:0:0:
64,192,138111,1,0,0:0:0:0:
192,192,138111,1,0,0:0:0:0:
192,192,138215,1,0,0:0:0:0:
320,192,138320,1,0,0:0:0:0:
448,192,138320,1,0,0:0:0:0:
320,192,138424,1,0,0:0:0:0:
64,192,138528,1,0,0:0:0:0:
192,192,138528,1,0,0:0:0:0:
64,192,138945,1,0,0:0:0:0:
320,192,138945,1,0,0:0:0:0:
448,192,138945,1,0,0:0:0:0:
448,192,139153,1,0,0:0:0:0:
448,192,139257,1,0,0:0:0:0:
64,192,139361,1,0,0:0:0:0:
192,192,139361,1,0,0:0:0:0:
320,192,139361,1,0,0:0:0:0:
448,192,139465,1,0,0:0:0:0:
192,192,139570,1,0,0:0:0:0:
192,192,139674,1,0,0:0:0:0:
64,192,139778,1,0,0:0:0:0:
320,192,139778,1,0,0:0:0:0:
448,192,139778,1,0,0:0:0:0:
320,192,139882,1,0,0:0:0:0:
320,192,139986,1,0,0:0:0:0:
320,192,140090,1,0,0:0:0:0:
64,192,140195,1,0,0:0:0:0:
192,192,140195,1,0,0:0:0:0:
448,192,140195,1,0,0:0:0:0:
320,192,140403,1,0,0:0:0:0:
64,192,140611,1,0,0:0:0:0:
192,192,140611,1,0,0:0:0:0:
448,192,140820,1,0,0:0:0:0:
64,192,141028,1,0,0:0:0:0:
320,192,141028,1,0,0:0:0:0:
192,192,141236,1,0,0:0:0:0:
448,192,141445,1,0,0:0:0:0:
320,192,141445,1,0,0:0:0:0:
64,192,141653,1,0,0:0:0:0:
192,192,141861,1,0,0:0:0:0:
448,192,141861,1,0,0:0:0:0:
320,192,142070,1,0,0:0:0:0:
64,192,142278,1,0,0:0:0:0:
192,192,142278,1,0,0:0:0:0:
448,192,142486,1,0,0:0:0:0:
64,192,142695,1,0,0:0:0:0:
320,192,142695,1,0,0:0:0:0:
192,192,142903,1,0,0:0:0:0:
64,192,143111,1,0,0:0:0:0:
448,192,143111,1,0,0:0:0:0:
320,192,143320,1,0,0:0:0:0:
64,192,143528,1,0,0:0:0:0:
192,192,143528,1,0,0:0:0:0:
320,192,143632,1,0,0:0:0:0:
448,192,143736,1,0,0:0:0:0:
192,192,143840,1,0,0:0:0:0:
64,192,143945,1,0,0:0:0:0:
320,192,143945,1,0,0:0:0:0:
448,192,144049,1,0,0:0:0:0:
192,192,144153,1,0,0:0:0:0:
320,192,144257,1,0,0:0:0:0:
64,192,144361,1,0,0:0:0:0:
448,192,144361,1,0,0:0:0:0:
192,192,144465,1,0,0:0:0:0:
320,192,144570,1,0,0:0:0:0:
448,192,144674,1,0,0:0:0:0:
64,192,144778,1,0,0:0:0:0:
192,192,144778,1,0,0:0:0:0:
64,192,144882,1,0,0:0:0:0:
448,192,144986,1,0,0:0:0:0:
448,192,145090,1,0,0:0:0:0:
64,192,145195,1,0,0:0:0:0:
320,192,145195,1,0,0:0:0:0:
448,192,145611,1,0,0:0:0:0:
320,192,145820,1,0,0:0:0:0:
192,192,146028,1,0,0:0:0:0:
448,192,146028,1,0,0:0:0:0:
64,192,146653,128,0,146902:0:0:0:0:
448,192,146902,1,0,0:0:0:0:
192,192,146902,1,0,0:0:0:0:
320,192,147214,1,0,0:0:0:0:
64,192,147318,1,0,0:0:0:0:
320,192,147527,1,0,0:0:0:0:
64,192,147735,1,0,0:0:0:0:
448,192,147735,1,0,0:0:0:0:
320,192,147943,1,0,0:0:0:0:
448,192,148047,1,0,0:0:0:0:
64,192,148152,1,0,0:0:0:0:
192,192,148152,1,0,0:0:0:0:
320,192,148360,1,0,0:0:0:0:
64,192,148568,1,0,0:0:0:0:
448,192,148568,1,0,0:0:0:0:
192,192,148777,1,0,0:0:0:0:
320,192,148985,1,0,0:0:0:0:
448,192,148985,1,0,0:0:0:0:
192,192,149193,1,0,0:0:0:0:
64,192,149402,1,0,0:0:0:0:
320,192,149402,1,0,0:0:0:0:
448,192,149610,1,0,0:0:0:0:
64,192,149818,1,0,0:0:0:0:
320,192,149818,1,0,0:0:0:0:
192,192,150027,1,0,0:0:0:0:
64,192,150235,1,0,0:0:0:0:
448,192,150235,128,0,150339:0:0:0:0:
320,192,150547,128,0,150652:0:0:0:0:
192,192,150860,128,0,150964:0:0:0:0:
320,192,151068,128,0,151172:0:0:0:0:
64,192,151381,128,0,151485:0:0:0:0:
320,192,151693,128,0,151797:0:0:0:0:
192,192,151902,128,0,152006:0:0:0:0:
448,192,152214,128,0,152318:0:0:0:0:
320,192,152527,128,0,152631:0:0:0:0:
64,192,152735,128,0,152839:0:0:0:0:
192,192,152839,128,0,152943:0:0:0:0:
448,192,152943,128,0,153047:0:0:0:0:
320,192,153047,128,0,153152:0:0:0:0:
64,192,153152,128,0,153204:0:0:0:0:
192,192,153204,128,0,153256:0:0:0:0:
448,192,153256,128,0,153308:0:0:0:0:
320,192,153308,128,0,153360:0:0:0:0:
64,192,153360,128,0,153412:0:0:0:0:
192,192,153412,128,0,153464:0:0:0:0:
448,192,153464,128,0,153516:0:0:0:0:
320,192,153516,128,0,153568:0:0:0:0:
192,192,153568,1,0,0:0:0:0:
64,192,153568,1,0,0:0:0:0:
448,192,153672,1,0,0:0:0:0:
192,192,153777,1,0,0:0:0:0:
64,192,153881,1,0,0:0:0:0:
320,192,153985,1,0,0:0:0:0:
448,192,153985,1,0,0:0:0:0:
64,192,154089,1,0,0:0:0:0:
192,192,154193,1,0,0:0:0:0:
448,192,154297,1,0,0:0:0:0:
64,192,154402,1,0,0:0:0:0:
192,192,154402,1,0,0:0:0:0:
448,192,154506,1,0,0:0:0:0:
320,192,154610,1,0,0:0:0:0:
64,192,154714,1,0,0:0:0:0:
192,192,154714,1,0,0:0:0:0:
448,192,154818,1,0,0:0:0:0:
64,192,154922,1,0,0:0:0:0:
192,192,155027,1,0,0:0:0:0:
320,192,155027,1,0,0:0:0:0:
448,192,155131,1,0,0:0:0:0:
192,192,155235,1,0,0:0:0:0:
64,192,155235,1,0,0:0:0:0:
448,192,155339,1,0,0:0:0:0:
320,192,155443,1,0,0:0:0:0:
192,192,155547,1,0,0:0:0:0:
64,192,155652,1,0,0:0:0:0:
448,192,155652,1,0,0:0:0:0:
192,192,155756,1,0,0:0:0:0:
320,192,155860,1,0,0:0:0:0:
448,192,155964,1,0,0:0:0:0:
320,192,156068,1,0,0:0:0:0:
64,192,156068,1,0,0:0:0:0:
192,192,156172,1,0,0:0:0:0:
320,192,156277,1,0,0:0:0:0:
448,192,156381,1,0,0:0:0:0:
64,192,156485,1,0,0:0:0:0:
192,192,156485,1,0,0:0:0:0:
320,192,156589,1,0,0:0:0:0:
448,192,156693,1,0,0:0:0:0:
64,192,156797,1,0,0:0:0:0:
192,192,156902,1,0,0:0:0:0:
448,192,156902,1,0,0:0:0:0:
320,192,157006,1,0,0:0:0:0:
448,192,157110,1,0,0:0:0:0:
64,192,157214,1,0,0:0:0:0:
192,192,157318,1,0,0:0:0:0:
448,192,157422,1,0,0:0:0:0:
64,192,157527,1,0,0:0:0:0:
192,192,157631,1,0,0:0:0:0:
320,192,157735,1,0,0:0:0:0:
64,192,157839,1,0,0:0:0:0:
192,192,157943,1,0,0:0:0:0:
320,192,158047,1,0,0:0:0:0:
448,192,158152,1,0,0:0:0:0:
64,192,158152,1,0,0:0:0:0:
192,192,158256,1,0,0:0:0:0:
320,192,158360,1,0,0:0:0:0:
448,192,158360,1,0,0:0:0:0:
192,192,158464,1,0,0:0:0:0:
64,192,158464,1,0,0:0:0:0:
320,192,158568,1,0,0:0:0:0:
448,192,158568,1,0,0:0:0:0:
64,192,158672,1,0,0:0:0:0:
192,192,158777,1,0,0:0:0:0:
448,192,158881,1,0,0:0:0:0:
320,192,158985,1,0,0:0:0:0:
64,192,158985,1,0,0:0:0:0:
192,192,159089,1,0,0:0:0:0:
64,192,159193,1,0,0:0:0:0:
448,192,159297,1,0,0:0:0:0:
64,192,159402,1,0,0:0:0:0:
320,192,159402,1,0,0:0:0:0:
192,192,159506,1,0,0:0:0:0:
320,192,159610,1,0,0:0:0:0:
448,192,159714,1,0,0:0:0:0:
320,192,159818,1,0,0:0:0:0:
64,192,159818,1,0,0:0:0:0:
192,192,159922,1,0,0:0:0:0:
64,192,160027,1,0,0:0:0:0:
448,192,160131,1,0,0:0:0:0:
64,192,160235,1,0,0:0:0:0:
192,192,160235,1,0,0:0:0:0:
320,192,160339,1,0,0:0:0:0:
64,192,160443,1,0,0:0:0:0:
448,192,160547,1,0,0:0:0:0:
192,192,160652,1,0,0:0:0:0:
320,192,160652,1,0,0:0:0:0:
64,192,160756,1,0,0:0:0:0:
448,192,160860,1,0,0:0:0:0:
64,192,160964,1,0,0:0:0:0:
320,192,161068,1,0,0:0:0:0:
192,192,161068,1,0,0:0:0:0:
448,192,161172,1,0,0:0:0:0:
320,192,161277,1,0,0:0:0:0:
64,192,161381,1,0,0:0:0:0:
192,192,161381,1,0,0:0:0:0:
448,192,161485,1,0,0:0:0:0:
192,192,161589,1,0,0:0:0:0:
64,192,161693,1,0,0:0:0:0:
320,192,161693,1,0,0:0:0:0:
448,192,161797,1,0,0:0:0:0:
64,192,161902,1,0,0:0:0:0:
192,192,161902,1,0,0:0:0:0:
320,192,162006,1,0,0:0:0:0:
64,192,162110,1,0,0:0:0:0:
192,192,162214,1,0,0:0:0:0:
320,192,162318,1,0,0:0:0:0:
448,192,162318,1,0,0:0:0:0:
64,192,162422,1,0,0:0:0:0:
192,192,162527,1,0,0:0:0:0:
320,192,162631,1,0,0:0:0:0:
64,192,162735,1,0,0:0:0:0:
448,192,162735,1,0,0:0:0:0:
192,192,162839,1,0,0:0:0:0:
320,192,162943,1,0,0:0:0:0:
448,192,163047,1,0,0:0:0:0:
64,192,163152,1,0,0:0:0:0:
320,192,163152,1,0,0:0:0:0:
192,192,163256,1,0,0:0:0:0:
448,192,163360,1,0,0:0:0:0:
320,192,163464,1,0,0:0:0:0:
64,192,163568,1,0,0:0:0:0:
192,192,163568,1,0,0:0:0:0:
448,192,163672,1,0,0:0:0:0:
64,192,163777,1,0,0:0:0:0:
320,192,163881,1,0,0:0:0:0:
192,192,163985,1,0,0:0:0:0:
448,192,164089,1,0,0:0:0:0:
320,192,164193,1,0,0:0:0:0:
64,192,164297,1,0,0:0:0:0:
192,192,164402,1,0,0:0:0:0:
448,192,164506,1,0,0:0:0:0:
64,192,164610,1,0,0:0:0:0:
192,192,164714,1,0,0:0:0:0:
320,192,164818,1,0,0:0:0:0:
448,192,164922,1,0,0:0:0:0:
320,192,165027,1,0,0:0:0:0:
192,192,165131,1,0,0:0:0:0:
64,192,165235,1,0,0:0:0:0:
448,192,165235,1,0,0:0:0:0:
192,192,165652,1,0,0:0:0:0:
320,192,165652,128,0,166902:0:0:0:0:
64,192,166068,1,0,0:0:0:0:
448,192,166485,1,0,0:0:0:0:
64,192,166902,1,0,0:0:0:0:
448,192,166902,1,0,0:0:0:0:
192,192,166902,1,0,0:0:0:0:
192,192,167006,1,0,0:0:0:0:
448,192,167110,1,0,0:0:0:0:
320,192,167110,1,0,0:0:0:0:
64,192,167214,1,0,0:0:0:0:
64,192,167318,1,0,0:0:0:0:
448,192,167318,1,0,0:0:0:0:
192,192,167318,1,0,0:0:0:0:
320,192,167318,1,0,0:0:0:0:
448,192,167422,1,0,0:0:0:0:
320,192,167527,1,0,0:0:0:0:
64,192,167527,1,0,0:0:0:0:
192,192,167527,1,0,0:0:0:0:
192,192,167631,1,0,0:0:0:0:
320,192,167735,1,0,0:0:0:0:
448,192,167735,1,0,0:0:0:0:
64,192,167735,1,0,0:0:0:0:
64,192,167839,1,0,0:0:0:0:
448,192,167943,1,0,0:0:0:0:
192,192,167943,1,0,0:0:0:0:
320,192,167943,1,0,0:0:0:0:
448,192,168047,1,0,0:0:0:0:
192,192,168152,1,0,0:0:0:0:
64,192,168152,1,0,0:0:0:0:
320,192,168256,1,0,0:0:0:0:
64,192,168360,1,0,0:0:0:0:
448,192,168360,1,0,0:0:0:0:
192,192,168464,1,0,0:0:0:0:
64,192,168568,1,0,0:0:0:0:
448,192,168568,1,0,0:0:0:0:
320,192,168568,1,0,0:0:0:0:
320,192,168672,1,0,0:0:0:0:
192,192,168777,1,0,0:0:0:0:
448,192,168777,1,0,0:0:0:0:
64,192,168881,1,0,0:0:0:0:
320,192,168985,1,0,0:0:0:0:
64,192,168985,1,0,0:0:0:0:
448,192,168985,1,0,0:0:0:0:
192,192,169089,1,0,0:0:0:0:
320,192,169193,1,0,0:0:0:0:
64,192,169193,1,0,0:0:0:0:
448,192,169193,1,0,0:0:0:0:
64,192,169297,1,0,0:0:0:0:
192,192,169402,1,0,0:0:0:0:
448,192,169402,1,0,0:0:0:0:
320,192,169506,1,0,0:0:0:0:
64,192,169610,1,0,0:0:0:0:
192,192,169610,1,0,0:0:0:0:
320,192,169714,1,0,0:0:0:0:
448,192,169818,1,0,0:0:0:0:
64,192,169818,1,0,0:0:0:0:
320,192,169922,1,0,0:0:0:0:
192,192,170027,1,0,0:0:0:0:
64,192,170027,1,0,0:0:0:0:
448,192,170131,1,0,0:0:0:0:
64,192,170131,1,0,0:0:0:0:
448,192,170235,1,0,0:0:0:0:
320,192,170235,1,0,0:0:0:0:
192,192,170339,1,0,0:0:0:0:
448,192,170443,1,0,0:0:0:0:
64,192,170443,1,0,0:0:0:0:
320,192,170443,1,0,0:0:0:0:
64,192,170547,1,0,0:0:0:0:
320,192,170652,1,0,0:0:0:0:
448,192,170652,1,0,0:0:0:0:
192,192,170756,1,0,0:0:0:0:
448,192,170860,1,0,0:0:0:0:
320,192,170860,1,0,0:0:0:0:
64,192,170860,1,0,0:0:0:0:
64,192,170964,1,0,0:0:0:0:
448,192,171068,1,0,0:0:0:0:
320,192,171068,1,0,0:0:0:0:
192,192,171172,1,0,0:0:0:0:
320,192,171277,1,0,0:0:0:0:
448,192,171277,1,0,0:0:0:0:
64,192,171277,1,0,0:0:0:0:
192,192,171381,1,0,0:0:0:0:
64,192,171485,1,0,0:0:0:0:
448,192,171485,1,0,0:0:0:0:
320,192,171589,1,0,0:0:0:0:
64,192,171693,1,0,0:0:0:0:
192,192,171693,1,0,0:0:0:0:
448,192,171693,1,0,0:0:0:0:
192,192,171797,1,0,0:0:0:0:
320,192,171902,1,0,0:0:0:0:
448,192,171902,1,0,0:0:0:0:
64,192,171902,1,0,0:0:0:0:
448,192,172006,1,0,0:0:0:0:
64,192,172110,1,0,0:0:0:0:
192,192,172110,1,0,0:0:0:0:
448,192,172214,1,0,0:0:0:0:
192,192,172318,1,0,0:0:0:0:
320,192,172318,1,0,0:0:0:0:
64,192,172318,1,0,0:0:0:0:
320,192,172422,1,0,0:0:0:0:
448,192,172527,1,0,0:0:0:0:
64,192,172527,1,0,0:0:0:0:
192,192,172631,1,0,0:0:0:0:
320,192,172735,1,0,0:0:0:0:
448,192,172735,1,0,0:0:0:0:
64,192,172839,1,0,0:0:0:0:
192,192,172943,1,0,0:0:0:0:
320,192,172943,1,0,0:0:0:0:
448,192,173047,1,0,0:0:0:0:
64,192,173152,1,0,0:0:0:0:
320,192,173152,1,0,0:0:0:0:
192,192,173256,1,0,0:0:0:0:
64,192,173360,1,0,0:0:0:0:
448,192,173360,1,0,0:0:0:0:
448,192,173464,1,0,0:0:0:0:
64,192,173568,1,0,0:0:0:0:
192,192,173568,1,0,0:0:0:0:
64,192,173985,1,0,0:0:0:0:
192,192,173985,1,0,0:0:0:0:
64,192,174089,1,0,0:0:0:0:
448,192,174193,1,0,0:0:0:0:
320,192,174193,1,0,0:0:0:0:
448,192,174297,1,0,0:0:0:0:
64,192,174402,1,0,0:0:0:0:
192,192,174402,1,0,0:0:0:0:
320,192,174402,1,0,0:0:0:0:
64,192,174610,1,0,0:0:0:0:
320,192,174610,1,0,0:0:0:0:
448,192,174610,1,0,0:0:0:0:
192,192,174818,1,0,0:0:0:0:
320,192,174818,1,0,0:0:0:0:
448,192,175027,1,0,0:0:0:0:
192,192,175027,1,0,0:0:0:0:
192,192,175131,1,0,0:0:0:0:
64,192,175235,1,0,0:0:0:0:
320,192,175235,1,0,0:0:0:0:
320,192,175547,1,0,0:0:0:0:
64,192,175652,1,0,0:0:0:0:
448,192,175652,1,0,0:0:0:0:
64,192,175756,1,0,0:0:0:0:
320,192,175860,1,0,0:0:0:0:
448,192,175860,1,0,0:0:0:0:
448,192,175964,1,0,0:0:0:0:
64,192,176068,1,0,0:0:0:0:
320,192,176068,1,0,0:0:0:0:
64,192,176277,1,0,0:0:0:0:
320,192,176693,1,0,0:0:0:0:
448,192,176693,1,0,0:0:0:0:
448,192,176797,1,0,0:0:0:0:
64,192,176902,1,0,0:0:0:0:
192,192,176902,1,0,0:0:0:0:
64,192,177006,1,0,0:0:0:0:
320,192,177110,1,0,0:0:0:0:
448,192,177110,1,0,0:0:0:0:
448,192,177214,1,0,0:0:0:0:
192,192,177318,1,0,0:0:0:0:
64,192,177318,1,0,0:0:0:0:
192,192,177422,1,0,0:0:0:0:
320,192,177527,1,0,0:0:0:0:
448,192,177527,1,0,0:0:0:0:
320,192,177631,1,0,0:0:0:0:
192,192,177735,1,0,0:0:0:0:
64,192,177735,1,0,0:0:0:0:
64,192,177839,1,0,0:0:0:0:
320,192,177943,1,0,0:0:0:0:
448,192,177943,1,0,0:0:0:0:
448,192,178047,1,0,0:0:0:0:
64,192,178152,1,0,0:0:0:0:
192,192,178152,1,0,0:0:0:0:
192,192,178256,1,0,0:0:0:0:
320,192,178360,1,0,0:0:0:0:
448,192,178360,1,0,0:0:0:0:
320,192,178464,1,0,0:0:0:0:
64,192,178568,1,0,0:0:0:0:
192,192,178568,1,0,0:0:0:0:
64,192,178985,1,0,0:0:0:0:
320,192,178985,1,0,0:0:0:0:
448,192,178985,1,0,0:0:0:0:
448,192,179193,1,0,0:0:0:0:
448,192,179297,1,0,0:0:0:0:
64,192,179402,1,0,0:0:0:0:
192,192,179402,1,0,0:0:0:0:
320,192,179402,1,0,0:0:0:0:
448,192,179506,1,0,0:0:0:0:
192,192,179610,1,0,0:0:0:0:
192,192,179714,1,0,0:0:0:0:
64,192,179818,1,0,0:0:0:0:
320,192,179818,1,0,0:0:0:0:
448,192,179818,1,0,0:0:0:0:
320,192,179922,1,0,0:0:0:0:
320,192,180027,1,0,0:0:0:0:
320,192,180131,1,0,0:0:0:0:
192,192,180235,1,0,0:0:0:0:
64,192,180235,1,0,0:0:0:0:
448,192,180235,1,0,0:0:0:0:
320,192,180339,1,0,0:0:0:0:
192,192,180443,1,0,0:0:0:0:
64,192,180443,1,0,0:0:0:0:
448,192,180547,1,0,0:0:0:0:
320,192,180652,1,0,0:0:0:0:
192,192,180652,1,0,0:0:0:0:
448,192,180652,1,0,0:0:0:0:
64,192,180652,1,0,0:0:0:0:
64,192,180756,1,0,0:0:0:0:
320,192,180860,1,0,0:0:0:0:
448,192,180860,1,0,0:0:0:0:
192,192,180860,1,0,0:0:0:0:
320,192,180964,1,0,0:0:0:0:
448,192,181068,1,0,0:0:0:0:
64,192,181068,1,0,0:0:0:0:
192,192,181068,1,0,0:0:0:0:
448,192,181172,1,0,0:0:0:0:
192,192,181277,1,0,0:0:0:0:
320,192,181277,1,0,0:0:0:0:
64,192,181277,1,0,0:0:0:0:
64,192,181381,1,0,0:0:0:0:
448,192,181485,1,0,0:0:0:0:
320,192,181485,1,0,0:0:0:0:
192,192,181589,1,0,0:0:0:0:
64,192,181693,1,0,0:0:0:0:
448,192,181693,1,0,0:0:0:0:
320,192,181797,1,0,0:0:0:0:
192,192,181902,1,0,0:0:0:0:
64,192,181902,1,0,0:0:0:0:
448,192,181902,1,0,0:0:0:0:
192,192,182006,1,0,0:0:0:0:
64,192,182110,1,0,0:0:0:0:
320,192,182110,1,0,0:0:0:0:
448,192,182214,1,0,0:0:0:0:
64,192,182318,1,0,0:0:0:0:
448,192,182318,1,0,0:0:0:0:
192,192,182318,1,0,0:0:0:0:
320,192,182422,1,0,0:0:0:0:
64,192,182527,1,0,0:0:0:0:
448,192,182527,1,0,0:0:0:0:
192,192,182527,1,0,0:0:0:0:
448,192,182631,1,0,0:0:0:0:
64,192,182735,1,0,0:0:0:0:
320,192,182735,1,0,0:0:0:0:
192,192,182839,1,0,0:0:0:0:
320,192,182943,1,0,0:0:0:0:
448,192,182943,1,0,0:0:0:0:
192,192,183047,1,0,0:0:0:0:
448,192,183152,1,0,0:0:0:0:
64,192,183152,1,0,0:0:0:0:
192,192,183256,1,0,0:0:0:0:
448,192,183360,1,0,0:0:0:0:
320,192,183360,1,0,0:0:0:0:
448,192,183464,1,0,0:0:0:0:
64,192,183464,1,0,0:0:0:0:
192,192,183568,1,0,0:0:0:0:
64,192,183568,1,0,0:0:0:0:
320,192,183672,1,0,0:0:0:0:
192,192,183777,1,0,0:0:0:0:
448,192,183777,1,0,0:0:0:0:
64,192,183777,1,0,0:0:0:0:
448,192,183881,1,0,0:0:0:0:
64,192,183985,1,0,0:0:0:0:
192,192,183985,1,0,0:0:0:0:
320,192,184089,1,0,0:0:0:0:
448,192,184193,1,0,0:0:0:0:
192,192,184193,1,0,0:0:0:0:
64,192,184193,1,0,0:0:0:0:
448,192,184297,1,0,0:0:0:0:
192,192,184402,1,0,0:0:0:0:
64,192,184402,1,0,0:0:0:0:
320,192,184506,1,0,0:0:0:0:
448,192,184610,1,0,0:0:0:0:
64,192,184610,1,0,0:0:0:0:
192,192,184610,1,0,0:0:0:0:
320,192,184714,1,0,0:0:0:0:
64,192,184818,1,0,0:0:0:0:
448,192,184818,1,0,0:0:0:0:
192,192,184922,1,0,0:0:0:0:
64,192,185027,1,0,0:0:0:0:
320,192,185027,1,0,0:0:0:0:
448,192,185027,1,0,0:0:0:0:
320,192,185131,1,0,0:0:0:0:
448,192,185235,1,0,0:0:0:0:
64,192,185235,1,0,0:0:0:0:
192,192,185235,1,0,0:0:0:0:
64,192,185339,1,0,0:0:0:0:
320,192,185443,1,0,0:0:0:0:
448,192,185443,1,0,0:0:0:0:
64,192,185547,1,0,0:0:0:0:
448,192,185652,1,0,0:0:0:0:
192,192,185652,1,0,0:0:0:0:
320,192,185652,1,0,0:0:0:0:
192,192,185756,1,0,0:0:0:0:
448,192,185860,1,0,0:0:0:0:
64,192,185860,1,0,0:0:0:0:
320,192,185964,1,0,0:0:0:0:
64,192,186068,1,0,0:0:0:0:
192,192,186068,1,0,0:0:0:0:
448,192,186172,1,0,0:0:0:0:
192,192,186277,1,0,0:0:0:0:
320,192,186277,1,0,0:0:0:0:
64,192,186381,1,0,0:0:0:0:
192,192,186485,1,0,0:0:0:0:
448,192,186485,1,0,0:0:0:0:
320,192,186589,1,0,0:0:0:0:
64,192,186693,1,0,0:0:0:0:
448,192,186693,1,0,0:0:0:0:
64,192,186797,1,0,0:0:0:0:
320,192,186902,1,0,0:0:0:0:
448,192,186902,1,0,0:0:0:0:
320,192,187318,1,0,0:0:0:0:
448,192,187318,1,0,0:0:0:0:
448,192,187422,1,0,0:0:0:0:
192,192,187527,1,0,0:0:0:0:
64,192,187527,1,0,0:0:0:0:
64,192,187631,1,0,0:0:0:0:
192,192,187735,1,0,0:0:0:0:
320,192,187735,1,0,0:0:0:0:
448,192,187735,1,0,0:0:0:0:
64,192,187943,1,0,0:0:0:0:
192,192,187943,1,0,0:0:0:0:
448,192,187943,1,0,0:0:0:0:
192,192,188152,1,0,0:0:0:0:
320,192,188152,1,0,0:0:0:0:
320,192,188360,1,0,0:0:0:0:
64,192,188360,1,0,0:0:0:0:
320,192,188464,1,0,0:0:0:0:
192,192,188568,1,0,0:0:0:0:
448,192,188568,1,0,0:0:0:0:
192,192,188881,1,0,0:0:0:0:
64,192,188985,1,0,0:0:0:0:
448,192,188985,1,0,0:0:0:0:
448,192,189089,1,0,0:0:0:0:
64,192,189193,1,0,0:0:0:0:
192,192,189193,1,0,0:0:0:0:
64,192,189297,1,0,0:0:0:0:
192,192,189402,1,0,0:0:0:0:
448,192,189402,1,0,0:0:0:0:
448,192,189610,1,0,0:0:0:0:
64,192,190027,1,0,0:0:0:0:
192,192,190027,1,0,0:0:0:0:
64,192,190131,1,0,0:0:0:0:
320,192,190235,1,0,0:0:0:0:
448,192,190235,1,0,0:0:0:0:
448,192,190339,1,0,0:0:0:0:
64,192,190443,1,0,0:0:0:0:
192,192,190443,1,0,0:0:0:0:
64,192,190547,1,0,0:0:0:0:
448,192,190652,1,0,0:0:0:0:
320,192,190652,1,0,0:0:0:0:
320,192,190756,1,0,0:0:0:0:
64,192,190860,1,0,0:0:0:0:
192,192,190860,1,0,0:0:0:0:
192,192,190964,1,0,0:0:0:0:
448,192,191068,1,0,0:0:0:0:
320,192,191068,1,0,0:0:0:0:
448,192,191172,1,0,0:0:0:0:
64,192,191277,1,0,0:0:0:0:
192,192,191277,1,0,0:0:0:0:
64,192,191381,1,0,0:0:0:0:
320,192,191485,1,0,0:0:0:0:
448,192,191485,1,0,0:0:0:0:
320,192,191589,1,0,0:0:0:0:
64,192,191693,1,0,0:0:0:0:
192,192,191693,1,0,0:0:0:0:
192,192,191797,1,0,0:0:0:0:
320,192,191902,1,0,0:0:0:0:
448,192,191902,1,0,0:0:0:0:
64,192,192318,1,0,0:0:0:0:
192,192,192318,1,0,0:0:0:0:
448,192,192318,1,0,0:0:0:0:
64,192,192527,1,0,0:0:0:0:
64,192,192631,1,0,0:0:0:0:
192,192,192735,1,0,0:0:0:0:
320,192,192735,1,0,0:0:0:0:
448,192,192735,1,0,0:0:0:0:
64,192,192839,1,0,0:0:0:0:
320,192,192943,1,0,0:0:0:0:
320,192,193047,1,0,0:0:0:0:
64,192,193152,1,0,0:0:0:0:
192,192,193152,1,0,0:0:0:0:
448,192,193152,1,0,0:0:0:0:
192,192,193256,1,0,0:0:0:0:
192,192,193360,1,0,0:0:0:0:
192,192,193464,1,0,0:0:0:0:
64,192,193568,1,0,0:0:0:0:
320,192,193568,1,0,0:0:0:0:
448,192,193568,1,0,0:0:0:0:
192,192,193777,1,0,0:0:0:0:
64,192,193985,1,0,0:0:0:0:
320,192,193985,1,0,0:0:0:0:
448,192,194089,1,0,0:0:0:0:
320,192,194297,1,0,0:0:0:0:
64,192,194402,1,0,0:0:0:0:
448,192,194402,1,0,0:0:0:0:
192,192,194610,1,0,0:0:0:0:
64,192,194714,1,0,0:0:0:0:
320,192,194818,1,0,0:0:0:0:
448,192,194818,1,0,0:0:0:0:
192,192,194922,1,0,0:0:0:0:
64,192,195027,1,0,0:0:0:0:
320,192,195131,1,0,0:0:0:0:
64,192,195235,1,0,0:0:0:0:
448,192,195235,1,0,0:0:0:0:
192,192,195443,1,0,0:0:0:0:
64,192,195652,1,0,0:0:0:0:
448,192,195652,1,0,0:0:0:0:
320,192,195756,1,0,0:0:0:0:
192,192,195964,1,0,0:0:0:0:
64,192,196068,1,0,0:0:0:0:
448,192,196068,1,0,0:0:0:0:
320,192,196277,1,0,0:0:0:0:
192,192,196381,1,0,0:0:0:0:
448,192,196485,1,0,0:0:0:0:
320,192,196485,1,0,0:0:0:0:
192,192,196589,1,0,0:0:0:0:
64,192,196693,1,0,0:0:0:0:
320,192,196797,1,0,0:0:0:0:
64,192,196902,1,0,0:0:0:0:
448,192,196902,1,0,0:0:0:0:
192,192,197006,1,0,0:0:0:0:
320,192,197110,1,0,0:0:0:0:
448,192,197214,1,0,0:0:0:0:
64,192,197318,1,0,0:0:0:0:
320,192,197318,1,0,0:0:0:0:
192,192,197422,1,0,0:0:0:0:
320,192,197527,1,0,0:0:0:0:
448,192,197631,1,0,0:0:0:0:
64,192,197735,1,0,0:0:0:0:
320,192,197735,1,0,0:0:0:0:
192,192,197839,1,0,0:0:0:0:
320,192,197943,1,0,0:0:0:0:
448,192,198047,1,0,0:0:0:0:
64,192,198152,1,0,0:0:0:0:
192,192,198152,1,0,0:0:0:0:
64,192,198256,1,0,0:0:0:0:
320,192,198360,1,0,0:0:0:0:
320,192,198464,1,0,0:0:0:0:
64,192,198568,1,0,0:0:0:0:
448,192,198568,1,0,0:0:0:0:
448,192,199402,1,0,0:0:0:0:
64,192,200027,128,0,200235:0:0:0:0:
448,192,200235,1,0,0:0:0:0:
192,192,200235,1,0,0:0:0:0:
320,192,200547,1,0,0:0:0:0:
64,192,200652,1,0,0:0:0:0:
192,192,200860,1,0,0:0:0:0:
448,192,201068,1,0,0:0:0:0:
320,192,201277,1,0,0:0:0:0:
448,192,201381,1,0,0:0:0:0:
64,192,201485,1,0,0:0:0:0:
320,192,201693,1,0,0:0:0:0:
448,192,201902,1,0,0:0:0:0:
192,192,202110,1,0,0:0:0:0:
64,192,202318,1,0,0:0:0:0:
320,192,202527,1,0,0:0:0:0:
192,192,202735,1,0,0:0:0:0:
448,192,202943,1,0,0:0:0:0:
320,192,203152,1,0,0:0:0:0:
64,192,203360,1,0,0:0:0:0:
192,192,203568,1,0,0:0:0:0:
448,192,203568,128,0,203672:0:0:0:0:
64,192,203881,128,0,203985:0:0:0:0:
320,192,204193,128,0,204297:0:0:0:0:
192,192,204402,128,0,204506:0:0:0:0:
448,192,204714,128,0,204818:0:0:0:0:
64,192,205027,128,0,205131:0:0:0:0:
192,192,205235,128,0,205339:0:0:0:0:
448,192,205547,128,0,205652:0:0:0:0:
192,192,205860,128,0,205964:0:0:0:0:
448,192,206068,128,0,206172:0:0:0:0:
64,192,206172,128,0,206277:0:0:0:0:
320,192,206277,128,0,206381:0:0:0:0:
192,192,206381,128,0,206485:0:0:0:0:
448,192,206485,128,0,206537:0:0:0:0:
64,192,206537,128,0,206589:0:0:0:0:
320,192,206589,128,0,206641:0:0:0:0:
192,192,206641,128,0,206693:0:0:0:0:
448,192,206693,128,0,206745:0:0:0:0:
64,192,206745,128,0,206797:0:0:0:0:
320,192,206797,128,0,206849:0:0:0:0:
192,192,206849,128,0,206902:0:0:0:0:
320,192,206902,1,0,0:0:0:0:
448,192,206902,1,0,0:0:0:0:
448,192,207006,1,0,0:0:0:0:
64,192,207110,1,0,0:0:0:0:
320,192,207110,1,0,0:0:0:0:
64,192,207214,1,0,0:0:0:0:
448,192,207318,1,0,0:0:0:0:
192,192,207318,1,0,0:0:0:0:
192,192,207422,1,0,0:0:0:0:
64,192,207527,1,0,0:0:0:0:
320,192,207527,1,0,0:0:0:0:
320,192,207631,1,0,0:0:0:0:
448,192,207735,1,0,0:0:0:0:
192,192,207735,1,0,0:0:0:0:
192,192,207839,1,0,0:0:0:0:
320,192,207943,1,0,0:0:0:0:
320,192,208047,1,0,0:0:0:0:
192,192,208047,1,0,0:0:0:0:
64,192,208152,1,0,0:0:0:0:
64,192,208256,1,0,0:0:0:0:
192,192,208360,1,0,0:0:0:0:
448,192,208360,1,0,0:0:0:0:
192,192,208464,1,0,0:0:0:0:
64,192,208568,1,0,0:0:0:0:
320,192,208568,1,0,0:0:0:0:
320,192,208672,1,0,0:0:0:0:
448,192,208777,1,0,0:0:0:0:
192,192,208777,1,0,0:0:0:0:
192,192,208881,1,0,0:0:0:0:
64,192,208985,1,0,0:0:0:0:
320,192,208985,1,0,0:0:0:0:
320,192,209089,1,0,0:0:0:0:
192,192,209193,1,0,0:0:0:0:
448,192,209193,1,0,0:0:0:0:
448,192,209297,1,0,0:0:0:0:
320,192,209402,1,0,0:0:0:0:
64,192,209402,1,0,0:0:0:0:
64,192,209506,1,0,0:0:0:0:
192,192,209610,1,0,0:0:0:0:
448,192,209610,1,0,0:0:0:0:
448,192,209714,1,0,0:0:0:0:
320,192,209818,1,0,0:0:0:0:
192,192,209818,1,0,0:0:0:0:
320,192,209922,1,0,0:0:0:0:
64,192,210027,1,0,0:0:0:0:
192,192,210027,1,0,0:0:0:0:
64,192,210131,1,0,0:0:0:0:
448,192,210235,1,0,0:0:0:0:
192,192,210235,1,0,0:0:0:0:
192,192,210339,1,0,0:0:0:0:
64,192,210443,1,0,0:0:0:0:
320,192,210443,1,0,0:0:0:0:
320,192,210547,1,0,0:0:0:0:
448,192,210652,1,0,0:0:0:0:
192,192,210652,1,0,0:0:0:0:
192,192,210756,1,0,0:0:0:0:
64,192,210860,1,0,0:0:0:0:
320,192,210860,1,0,0:0:0:0:
320,192,210964,1,0,0:0:0:0:
448,192,211068,1,0,0:0:0:0:
192,192,211068,1,0,0:0:0:0:
192,192,211172,1,0,0:0:0:0:
64,192,211277,1,0,0:0:0:0:
320,192,211277,1,0,0:0:0:0:
320,192,211381,1,0,0:0:0:0:
448,192,211485,1,0,0:0:0:0:
192,192,211485,1,0,0:0:0:0:
192,192,211589,1,0,0:0:0:0:
64,192,211693,1,0,0:0:0:0:
448,192,211693,1,0,0:0:0:0:
64,192,211797,1,0,0:0:0:0:
192,192,211902,1,0,0:0:0:0:
448,192,211902,1,0,0:0:0:0:
448,192,212006,1,0,0:0:0:0:
320,192,212110,1,0,0:0:0:0:
192,192,212214,1,0,0:0:0:0:
64,192,212318,1,0,0:0:0:0:
448,192,212318,1,0,0:0:0:0:
448,192,212422,1,0,0:0:0:0:
320,192,212527,1,0,0:0:0:0:
192,192,212631,1,0,0:0:0:0:
64,192,212735,1,0,0:0:0:0:
448,192,212735,1,0,0:0:0:0:
320,192,212839,1,0,0:0:0:0:
320,192,212943,1,0,0:0:0:0:
192,192,213047,1,0,0:0:0:0:
64,192,213152,1,0,0:0:0:0:
320,192,213152,1,0,0:0:0:0:
320,192,213256,1,0,0:0:0:0:
192,192,213360,1,0,0:0:0:0:
320,192,213464,1,0,0:0:0:0:
64,192,213568,1,0,0:0:0:0:
448,192,213568,1,0,0:0:0:0:
64,192,213672,1,0,0:0:0:0:
192,192,213777,1,0,0:0:0:0:
320,192,213881,1,0,0:0:0:0:
448,192,213985,1,0,0:0:0:0:
64,192,213985,1,0,0:0:0:0:
64,192,214089,1,0,0:0:0:0:
320,192,214193,1,0,0:0:0:0:
192,192,214297,1,0,0:0:0:0:
64,192,214402,1,0,0:0:0:0:
448,192,214402,1,0,0:0:0:0:
448,192,214506,1,0,0:0:0:0:
64,192,214610,1,0,0:0:0:0:
192,192,214714,1,0,0:0:0:0:
320,192,214714,1,0,0:0:0:0:
448,192,214818,1,0,0:0:0:0:
448,192,214922,1,0,0:0:0:0:
192,192,215027,1,0,0:0:0:0:
320,192,215027,1,0,0:0:0:0:
64,192,215131,1,0,0:0:0:0:
320,192,215235,1,0,0:0:0:0:
448,192,215235,1,0,0:0:0:0:
320,192,215339,1,0,0:0:0:0:
64,192,215443,1,0,0:0:0:0:
192,192,215547,1,0,0:0:0:0:
64,192,215652,1,0,0:0:0:0:
320,192,215652,1,0,0:0:0:0:
320,192,215756,1,0,0:0:0:0:
448,192,215860,1,0,0:0:0:0:
192,192,215964,1,0,0:0:0:0:
64,192,216068,1,0,0:0:0:0:
320,192,216068,1,0,0:0:0:0:
64,192,216172,1,0,0:0:0:0:
448,192,216277,1,0,0:0:0:0:
320,192,216381,1,0,0:0:0:0:
64,192,216485,1,0,0:0:0:0:
192,192,216485,1,0,0:0:0:0:
64,192,216589,1,0,0:0:0:0:
192,192,216693,1,0,0:0:0:0:
320,192,216797,1,0,0:0:0:0:
64,192,216902,1,0,0:0:0:0:
448,192,216902,1,0,0:0:0:0:
448,192,217006,1,0,0:0:0:0:
320,192,217110,1,0,0:0:0:0:
320,192,217214,1,0,0:0:0:0:
192,192,217318,1,0,0:0:0:0:
192,192,217422,1,0,0:0:0:0:
64,192,217527,1,0,0:0:0:0:
64,192,217631,1,0,0:0:0:0:
192,192,217735,1,0,0:0:0:0:
192,192,217839,1,0,0:0:0:0:
320,192,217943,1,0,0:0:0:0:
320,192,218047,1,0,0:0:0:0:
448,192,218152,1,0,0:0:0:0:
448,192,218256,1,0,0:0:0:0:
64,192,218360,1,0,0:0:0:0:
64,192,218464,1,0,0:0:0:0:
192,192,218568,1,0,0:0:0:0:
320,192,218568,1,0,0:0:0:0:
192,192,218985,1,0,0:0:0:0:
448,192,218985,1,0,0:0:0:0:
320,192,219402,1,0,0:0:0:0:
192,192,219402,1,0,0:0:0:0:
64,192,219402,1,0,0:0:0:0:
192,192,219818,1,0,0:0:0:0:
320,192,219818,1,0,0:0:0:0:
448,192,219818,1,0,0:0:0:0:
64,192,220235,1,0,0:0:0:0:
192,192,220235,1,0,0:0:0:0:
448,192,220235,1,0,0:0:0:0:
320,192,220235,1,0,0:0:0:0:
192,192,220339,1,0,0:0:0:0:
64,192,220443,1,0,0:0:0:0:
320,192,220443,1,0,0:0:0:0:
448,192,220547,1,0,0:0:0:0:
64,192,220652,1,0,0:0:0:0:
448,192,220652,1,0,0:0:0:0:
192,192,220652,1,0,0:0:0:0:
320,192,220652,1,0,0:0:0:0:
64,192,220756,1,0,0:0:0:0:
320,192,220860,1,0,0:0:0:0:
448,192,220860,1,0,0:0:0:0:
192,192,220860,1,0,0:0:0:0:
320,192,220964,1,0,0:0:0:0:
448,192,221068,1,0,0:0:0:0:
64,192,221068,1,0,0:0:0:0:
192,192,221068,1,0,0:0:0:0:
448,192,221172,1,0,0:0:0:0:
64,192,221277,1,0,0:0:0:0:
192,192,221277,1,0,0:0:0:0:
320,192,221277,1,0,0:0:0:0:
64,192,221381,1,0,0:0:0:0:
448,192,221485,1,0,0:0:0:0:
320,192,221485,1,0,0:0:0:0:
192,192,221589,1,0,0:0:0:0:
64,192,221693,1,0,0:0:0:0:
448,192,221693,1,0,0:0:0:0:
320,192,221797,1,0,0:0:0:0:
448,192,221902,1,0,0:0:0:0:
192,192,221902,1,0,0:0:0:0:
64,192,221902,1,0,0:0:0:0:
192,192,222006,1,0,0:0:0:0:
64,192,222110,1,0,0:0:0:0:
320,192,222110,1,0,0:0:0:0:
448,192,222214,1,0,0:0:0:0:
64,192,222318,1,0,0:0:0:0:
448,192,222318,1,0,0:0:0:0:
192,192,222318,1,0,0:0:0:0:
320,192,222422,1,0,0:0:0:0:
448,192,222527,1,0,0:0:0:0:
192,192,222527,1,0,0:0:0:0:
64,192,222527,1,0,0:0:0:0:
448,192,222631,1,0,0:0:0:0:
64,192,222735,1,0,0:0:0:0:
320,192,222735,1,0,0:0:0:0:
192,192,222839,1,0,0:0:0:0:
320,192,222943,1,0,0:0:0:0:
448,192,222943,1,0,0:0:0:0:
192,192,223047,1,0,0:0:0:0:
448,192,223152,1,0,0:0:0:0:
64,192,223152,1,0,0:0:0:0:
192,192,223256,1,0,0:0:0:0:
448,192,223360,1,0,0:0:0:0:
320,192,223360,1,0,0:0:0:0:
448,192,223464,1,0,0:0:0:0:
64,192,223464,1,0,0:0:0:0:
192,192,223568,1,0,0:0:0:0:
64,192,223568,1,0,0:0:0:0:
320,192,223672,1,0,0:0:0:0:
192,192,223777,1,0,0:0:0:0:
448,192,223777,1,0,0:0:0:0:
64,192,223777,1,0,0:0:0:0:
448,192,223881,1,0,0:0:0:0:
64,192,223985,1,0,0:0:0:0:
192,192,223985,1,0,0:0:0:0:
320,192,224089,1,0,0:0:0:0:
448,192,224193,1,0,0:0:0:0:
192,192,224193,1,0,0:0:0:0:
64,192,224193,1,0,0:0:0:0:
448,192,224297,1,0,0:0:0:0:
64,192,224402,1,0,0:0:0:0:
192,192,224402,1,0,0:0:0:0:
320,192,224506,1,0,0:0:0:0:
448,192,224610,1,0,0:0:0:0:
64,192,224610,1,0,0:0:0:0:
192,192,224610,1,0,0:0:0:0:
320,192,224714,1,0,0:0:0:0:
64,192,224818,1,0,0:0:0:0:
448,192,224818,1,0,0:0:0:0:
192,192,224922,1,0,0:0:0:0:
320,192,225027,1,0,0:0:0:0:
448,192,225027,1,0,0:0:0:0:
64,192,225027,1,0,0:0:0:0:
320,192,225131,1,0,0:0:0:0:
448,192,225235,1,0,0:0:0:0:
64,192,225235,1,0,0:0:0:0:
192,192,225235,1,0,0:0:0:0:
64,192,225339,1,0,0:0:0:0:
320,192,225443,1,0,0:0:0:0:
448,192,225443,1,0,0:0:0:0:
64,192,225547,1,0,0:0:0:0:
192,192,225652,1,0,0:0:0:0:
320,192,225652,1,0,0:0:0:0:
448,192,225652,1,0,0:0:0:0:
192,192,225756,1,0,0:0:0:0:
448,192,225860,1,0,0:0:0:0:
64,192,225860,1,0,0:0:0:0:
320,192,225964,1,0,0:0:0:0:
64,192,226068,1,0,0:0:0:0:
192,192,226068,1,0,0:0:0:0:
448,192,226172,1,0,0:0:0:0:
320,192,226277,1,0,0:0:0:0:
192,192,226277,1,0,0:0:0:0:
64,192,226381,1,0,0:0:0:0:
192,192,226485,1,0,0:0:0:0:
448,192,226485,1,0,0:0:0:0:
320,192,226589,1,0,0:0:0:0:
64,192,226693,1,0,0:0:0:0:
448,192,226693,1,0,0:0:0:0:
64,192,226797,1,0,0:0:0:0:
320,192,226902,1,0,0:0:0:0:
448,192,226902,1,0,0:0:0:0:
448,192,227422,1,0,0:0:0:0:
64,192,227527,1,0,0:0:0:0:
448,192,227527,1,0,0:0:0:0:
64,192,227631,1,0,0:0:0:0:
192,192,227735,1,0,0:0:0:0:
320,192,227735,1,0,0:0:0:0:
448,192,227735,1,0,0:0:0:0:
64,192,227943,1,0,0:0:0:0:
192,192,227943,1,0,0:0:0:0:
448,192,227943,1,0,0:0:0:0:
320,192,228360,1,0,0:0:0:0:
64,192,228360,1,0,0:0:0:0:
320,192,228464,1,0,0:0:0:0:
192,192,228568,1,0,0:0:0:0:
448,192,228568,1,0,0:0:0:0:
192,192,228881,1,0,0:0:0:0:
64,192,228985,1,0,0:0:0:0:
448,192,229089,1,0,0:0:0:0:
320,192,229089,1,0,0:0:0:0:
64,192,229193,1,0,0:0:0:0:
64,192,229297,1,0,0:0:0:0:
192,192,229297,1,0,0:0:0:0:
448,192,229402,1,0,0:0:0:0:
320,192,229402,1,0,0:0:0:0:
448,192,229610,1,0,0:0:0:0:
64,192,230027,1,0,0:0:0:0:
192,192,230027,1,0,0:0:0:0:
64,192,230131,1,0,0:0:0:0:
320,192,230235,1,0,0:0:0:0:
448,192,230235,1,0,0:0:0:0:
448,192,230339,1,0,0:0:0:0:
64,192,230443,1,0,0:0:0:0:
192,192,230443,1,0,0:0:0:0:
64,192,230547,1,0,0:0:0:0:
448,192,230652,1,0,0:0:0:0:
320,192,230652,1,0,0:0:0:0:
320,192,230756,1,0,0:0:0:0:
64,192,230860,1,0,0:0:0:0:
192,192,230860,1,0,0:0:0:0:
192,192,230964,1,0,0:0:0:0:
448,192,231068,1,0,0:0:0:0:
320,192,231068,1,0,0:0:0:0:
448,192,231172,1,0,0:0:0:0:
64,192,231277,1,0,0:0:0:0:
192,192,231277,1,0,0:0:0:0:
64,192,231381,1,0,0:0:0:0:
320,192,231485,1,0,0:0:0:0:
448,192,231485,1,0,0:0:0:0:
320,192,231589,1,0,0:0:0:0:
64,192,231693,1,0,0:0:0:0:
192,192,231693,1,0,0:0:0:0:
192,192,231797,1,0,0:0:0:0:
320,192,231902,1,0,0:0:0:0:
448,192,231902,1,0,0:0:0:0:
64,192,232318,1,0,0:0:0:0:
192,192,232318,1,0,0:0:0:0:
448,192,232318,1,0,0:0:0:0:
64,192,232527,1,0,0:0:0:0:
64,192,232631,1,0,0:0:0:0:
192,192,232735,1,0,0:0:0:0:
320,192,232735,1,0,0:0:0:0:
448,192,232735,1,0,0:0:0:0:
64,192,232839,1,0,0:0:0:0:
320,192,232943,1,0,0:0:0:0:
320,192,233047,1,0,0:0:0:0:
64,192,233152,1,0,0:0:0:0:
192,192,233152,1,0,0:0:0:0:
448,192,233152,1,0,0:0:0:0:
192,192,233256,1,0,0:0:0:0:
192,192,233360,1,0,0:0:0:0:
192,192,233464,1,0,0:0:0:0:
64,192,233568,1,0,0:0:0:0:
448,192,233568,1,0,0:0:0:0:
320,192,233568,1,0,0:0:0:0:
192,192,233672,1,0,0:0:0:0:
448,192,233777,1,0,0:0:0:0:
320,192,233777,1,0,0:0:0:0:
64,192,233881,1,0,0:0:0:0:
64,192,233985,1,0,0:0:0:0:
448,192,233985,1,0,0:0:0:0:
192,192,233985,1,0,0:0:0:0:
320,192,233985,1,0,0:0:0:0:
448,192,234089,1,0,0:0:0:0:
320,192,234193,1,0,0:0:0:0:
64,192,234193,1,0,0:0:0:0:
192,192,234193,1,0,0:0:0:0:
192,192,234297,1,0,0:0:0:0:
320,192,234402,1,0,0:0:0:0:
448,192,234402,1,0,0:0:0:0:
64,192,234402,1,0,0:0:0:0:
64,192,234506,1,0,0:0:0:0:
448,192,234610,1,0,0:0:0:0:
192,192,234610,1,0,0:0:0:0:
320,192,234610,1,0,0:0:0:0:
448,192,234714,1,0,0:0:0:0:
192,192,234818,1,0,0:0:0:0:
64,192,234818,1,0,0:0:0:0:
320,192,234922,1,0,0:0:0:0:
64,192,235027,1,0,0:0:0:0:
448,192,235027,1,0,0:0:0:0:
192,192,235131,1,0,0:0:0:0:
64,192,235235,1,0,0:0:0:0:
448,192,235235,1,0,0:0:0:0:
320,192,235235,1,0,0:0:0:0:
320,192,235339,1,0,0:0:0:0:
192,192,235443,1,0,0:0:0:0:
448,192,235443,1,0,0:0:0:0:
64,192,235547,1,0,0:0:0:0:
320,192,235652,1,0,0:0:0:0:
64,192,235652,1,0,0:0:0:0:
448,192,235652,1,0,0:0:0:0:
192,192,235756,1,0,0:0:0:0:
320,192,235860,1,0,0:0:0:0:
64,192,235860,1,0,0:0:0:0:
448,192,235860,1,0,0:0:0:0:
64,192,235964,1,0,0:0:0:0:
192,192,236068,1,0,0:0:0:0:
448,192,236068,1,0,0:0:0:0:
320,192,236172,1,0,0:0:0:0:
64,192,236277,1,0,0:0:0:0:
192,192,236277,1,0,0:0:0:0:
320,192,236381,1,0,0:0:0:0:
448,192,236485,1,0,0:0:0:0:
64,192,236485,1,0,0:0:0:0:
320,192,236589,1,0,0:0:0:0:
192,192,236693,1,0,0:0:0:0:
64,192,236693,1,0,0:0:0:0:
448,192,236797,1,0,0:0:0:0:
64,192,236797,1,0,0:0:0:0:
448,192,236902,1,0,0:0:0:0:
320,192,236902,1,0,0:0:0:0:
192,192,237006,1,0,0:0:0:0:
448,192,237110,1,0,0:0:0:0:
64,192,237110,1,0,0:0:0:0:
320,192,237110,1,0,0:0:0:0:
64,192,237214,1,0,0:0:0:0:
320,192,237318,1,0,0:0:0:0:
448,192,237318,1,0,0:0:0:0:
192,192,237422,1,0,0:0:0:0:
448,192,237527,1,0,0:0:0:0:
320,192,237527,1,0,0:0:0:0:
64,192,237527,1,0,0:0:0:0:
64,192,237631,1,0,0:0:0:0:
448,192,237735,1,0,0:0:0:0:
320,192,237735,1,0,0:0:0:0:
192,192,237839,1,0,0:0:0:0:
320,192,237943,1,0,0:0:0:0:
448,192,237943,1,0,0:0:0:0:
64,192,237943,1,0,0:0:0:0:
192,192,238047,1,0,0:0:0:0:
64,192,238152,1,0,0:0:0:0:
448,192,238152,1,0,0:0:0:0:
320,192,238256,1,0,0:0:0:0:
64,192,238360,1,0,0:0:0:0:
192,192,238360,1,0,0:0:0:0:
448,192,238360,1,0,0:0:0:0:
192,192,238464,1,0,0:0:0:0:
320,192,238568,1,0,0:0:0:0:
448,192,238568,1,0,0:0:0:0:
64,192,238568,1,0,0:0:0:0:
448,192,238672,1,0,0:0:0:0:
64,192,238777,1,0,0:0:0:0:
192,192,238777,1,0,0:0:0:0:
448,192,238881,1,0,0:0:0:0:
192,192,238985,1,0,0:0:0:0:
320,192,238985,1,0,0:0:0:0:
64,192,238985,1,0,0:0:0:0:
320,192,239089,1,0,0:0:0:0:
448,192,239193,1,0,0:0:0:0:
64,192,239193,1,0,0:0:0:0:
192,192,239297,1,0,0:0:0:0:
320,192,239402,1,0,0:0:0:0:
448,192,239402,1,0,0:0:0:0:
64,192,239506,1,0,0:0:0:0:
192,192,239610,1,0,0:0:0:0:
320,192,239610,1,0,0:0:0:0:
448,192,239714,1,0,0:0:0:0:
64,192,239818,1,0,0:0:0:0:
320,192,239818,1,0,0:0:0:0:
192,192,239922,1,0,0:0:0:0:
64,192,240027,1,0,0:0:0:0:
448,192,240027,1,0,0:0:0:0:
448,192,240131,1,0,0:0:0:0:
64,192,240235,1,0,0:0:0:0:
192,192,240235,1,0,0:0:0:0:
64,192,240652,1,0,0:0:0:0:
192,192,240652,1,0,0:0:0:0:
64,192,240756,1,0,0:0:0:0:
448,192,240860,1,0,0:0:0:0:
320,192,240860,1,0,0:0:0:0:
448,192,240964,1,0,0:0:0:0:
64,192,241068,1,0,0:0:0:0:
192,192,241068,1,0,0:0:0:0:
320,192,241068,1,0,0:0:0:0:
64,192,241277,1,0,0:0:0:0:
320,192,241277,1,0,0:0:0:0:
448,192,241277,1,0,0:0:0:0:
192,192,241485,1,0,0:0:0:0:
320,192,241485,1,0,0:0:0:0:
448,192,241693,1,0,0:0:0:0:
192,192,241693,1,0,0:0:0:0:
192,192,241797,1,0,0:0:0:0:
64,192,241902,1,0,0:0:0:0:
320,192,241902,1,0,0:0:0:0:
320,192,242214,1,0,0:0:0:0:
64,192,242318,1,0,0:0:0:0:
448,192,242318,1,0,0:0:0:0:
64,192,242422,1,0,0:0:0:0:
320,192,242527,1,0,0:0:0:0:
448,192,242527,1,0,0:0:0:0:
448,192,242631,1,0,0:0:0:0:
64,192,242735,1,0,0:0:0:0:
320,192,242735,1,0,0:0:0:0:
64,192,242943,1,0,0:0:0:0:
320,192,243360,1,0,0:0:0:0:
448,192,243360,1,0,0:0:0:0:
448,192,243464,1,0,0:0:0:0:
64,192,243568,1,0,0:0:0:0:
192,192,243568,1,0,0:0:0:0:
64,192,243672,1,0,0:0:0:0:
320,192,243777,1,0,0:0:0:0:
448,192,243777,1,0,0:0:0:0:
448,192,243881,1,0,0:0:0:0:
192,192,243985,1,0,0:0:0:0:
64,192,243985,1,0,0:0:0:0:
192,192,244089,1,0,0:0:0:0:
320,192,244193,1,0,0:0:0:0:
448,192,244193,1,0,0:0:0:0:
320,192,244297,1,0,0:0:0:0:
192,192,244402,1,0,0:0:0:0:
64,192,244402,1,0,0:0:0:0:
64,192,244506,1,0,0:0:0:0:
320,192,244610,1,0,0:0:0:0:
448,192,244610,1,0,0:0:0:0:
448,192,244714,1,0,0:0:0:0:
64,192,244818,1,0,0:0:0:0:
192,192,244818,1,0,0:0:0:0:
192,192,244922,1,0,0:0:0:0:
320,192,245027,1,0,0:0:0:0:
448,192,245027,1,0,0:0:0:0:
320,192,245131,1,0,0:0:0:0:
64,192,245235,1,0,0:0:0:0:
192,192,245235,1,0,0:0:0:0:
64,192,245652,1,0,0:0:0:0:
320,192,245652,1,0,0:0:0:0:
448,192,245652,1,0,0:0:0:0:
448,192,245860,1,0,0:0:0:0:
448,192,245964,1,0,0:0:0:0:
64,192,246068,1,0,0:0:0:0:
192,192,246068,1,0,0:0:0:0:
320,192,246068,1,0,0:0:0:0:
448,192,246172,1,0,0:0:0:0:
192,192,246277,1,0,0:0:0:0:
192,192,246381,1,0,0:0:0:0:
64,192,246485,1,0,0:0:0:0:
320,192,246485,1,0,0:0:0:0:
448,192,246485,1,0,0:0:0:0:
320,192,246589,1,0,0:0:0:0:
320,192,246693,1,0,0:0:0:0:
320,192,246797,1,0,0:0:0:0:
448,192,246902,1,0,0:0:0:0:
192,192,246902,1,0,0:0:0:0:
64,192,246902,1,0,0:0:0:0:
320,192,247110,1,0,0:0:0:0:
448,192,247318,1,0,0:0:0:0:
192,192,247318,1,0,0:0:0:0:
64,192,247422,1,0,0:0:0:0:
192,192,247631,1,0,0:0:0:0:
448,192,247735,1,0,0:0:0:0:
64,192,247735,1,0,0:0:0:0:
320,192,247943,1,0,0:0:0:0:
448,192,248047,1,0,0:0:0:0:
192,192,248152,1,0,0:0:0:0:
64,192,248152,1,0,0:0:0:0:
320,192,248256,1,0,0:0:0:0:
448,192,248360,1,0,0:0:0:0:
192,192,248464,1,0,0:0:0:0:
448,192,248568,1,0,0:0:0:0:
64,192,248568,1,0,0:0:0:0:
320,192,248777,1,0,0:0:0:0:
448,192,248985,1,0,0:0:0:0:
64,192,248985,1,0,0:0:0:0:
192,192,249089,1,0,0:0:0:0:
320,192,249297,1,0,0:0:0:0:
448,192,249402,1,0,0:0:0:0:
64,192,249402,1,0,0:0:0:0:
192,192,249610,1,0,0:0:0:0:
320,192,249714,1,0,0:0:0:0:
64,192,249818,1,0,0:0:0:0:
192,192,249818,1,0,0:0:0:0:
320,192,249922,1,0,0:0:0:0:
448,192,250027,1,0,0:0:0:0:
192,192,250131,1,0,0:0:0:0:
448,192,250235,1,0,0:0:0:0:
64,192,250235,1,0,0:0:0:0:
320,192,250339,1,0,0:0:0:0:
192,192,250443,1,0,0:0:0:0:
64,192,250547,1,0,0:0:0:0:
448,192,250652,1,0,0:0:0:0:
192,192,250652,1,0,0:0:0:0:
320,192,250756,1,0,0:0:0:0:
192,192,250860,1,0,0:0:0:0:
64,192,250964,1,0,0:0:0:0:
448,192,251068,1,0,0:0:0:0:
192,192,251068,1,0,0:0:0:0:
320,192,251172,1,0,0:0:0:0:
192,192,251277,1,0,0:0:0:0:
64,192,251381,1,0,0:0:0:0:
448,192,251485,1,0,0:0:0:0:
320,192,251485,1,0,0:0:0:0:
448,192,251589,1,0,0:0:0:0:
192,192,251693,1,0,0:0:0:0:
192,192,251797,1,0,0:0:0:0:
448,192,251902,1,0,0:0:0:0:
64,192,251902,1,0,0:0:0:0:
64,192,252735,1,0,0:0:0:0:
448,192,253360,128,0,253568:0:0:0:0:
64,192,253568,1,0,0:0:0:0:
320,192,253568,1,0,0:0:0:0:
192,192,253881,1,0,0:0:0:0:
448,192,253985,1,0,0:0:0:0:
320,192,254193,1,0,0:0:0:0:
64,192,254402,1,0,0:0:0:0:
192,192,254610,1,0,0:0:0:0:
64,192,254714,1,0,0:0:0:0:
448,192,254818,1,0,0:0:0:0:
192,192,255027,1,0,0:0:0:0:
64,192,255235,1,0,0:0:0:0:
320,192,255443,1,0,0:0:0:0:
448,192,255652,1,0,0:0:0:0:
192,192,255860,1,0,0:0:0:0:
320,192,256068,1,0,0:0:0:0:
64,192,256277,1,0,0:0:0:0:
192,192,256485,1,0,0:0:0:0:
448,192,256693,1,0,0:0:0:0:
320,192,256902,1,0,0:0:0:0:
64,192,256902,128,0,257006:0:0:0:0:
448,192,257214,128,0,257318:0:0:0:0:
192,192,257527,128,0,257631:0:0:0:0:
320,192,257735,128,0,257839:0:0:0:0:
64,192,258047,128,0,258152:0:0:0:0:
448,192,258360,128,0,258464:0:0:0:0:
320,192,258568,128,0,258672:0:0:0:0:
64,192,258881,128,0,258985:0:0:0:0:
320,192,259193,128,0,259297:0:0:0:0:
64,192,259402,128,0,259506:0:0:0:0:
448,192,259506,128,0,259610:0:0:0:0:
192,192,259610,128,0,259714:0:0:0:0:
320,192,259714,128,0,259818:0:0:0:0:
64,192,259818,128,0,259870:0:0:0:0:
448,192,259870,128,0,259922:0:0:0:0:
192,192,259922,128,0,259974:0:0:0:0:
320,192,259974,128,0,260027:0:0:0:0:
64,192,260027,128,0,260079:0:0:0:0:
448,192,260079,128,0,260131:0:0:0:0:
192,192,260131,128,0,260183:0:0:0:0:
320,192,260183,128,0,260235:0:0:0:0:
192,192,260235,1,0,0:0:0:0:
64,192,260235,1,0,0:0:0:0:
64,192,260339,1,0,0:0:0:0:
448,192,260443,1,0,0:0:0:0:
192,192,260443,1,0,0:0:0:0:
448,192,260547,1,0,0:0:0:0:
64,192,260652,1,0,0:0:0:0:
320,192,260652,1,0,0:0:0:0:
320,192,260756,1,0,0:0:0:0:
448,192,260860,1,0,0:0:0:0:
192,192,260860,1,0,0:0:0:0:
192,192,260964,1,0,0:0:0:0:
64,192,261068,1,0,0:0:0:0:
320,192,261068,1,0,0:0:0:0:
320,192,261172,1,0,0:0:0:0:
192,192,261277,1,0,0:0:0:0:
192,192,261381,1,0,0:0:0:0:
320,192,261381,1,0,0:0:0:0:
448,192,261485,1,0,0:0:0:0:
448,192,261589,1,0,0:0:0:0:
320,192,261693,1,0,0:0:0:0:
64,192,261693,1,0,0:0:0:0:
320,192,261797,1,0,0:0:0:0:
448,192,261902,1,0,0:0:0:0:
192,192,261902,1,0,0:0:0:0:
192,192,262006,1,0,0:0:0:0:
64,192,262110,1,0,0:0:0:0:
320,192,262110,1,0,0:0:0:0:
320,192,262214,1,0,0:0:0:0:
448,192,262318,1,0,0:0:0:0:
192,192,262318,1,0,0:0:0:0:
192,192,262422,1,0,0:0:0:0:
320,192,262527,1,0,0:0:0:0:
64,192,262527,1,0,0:0:0:0:
64,192,262631,1,0,0:0:0:0:
192,192,262735,1,0,0:0:0:0:
448,192,262735,1,0,0:0:0:0:
448,192,262839,1,0,0:0:0:0:
320,192,262943,1,0,0:0:0:0:
64,192,262943,1,0,0:0:0:0:
64,192,263047,1,0,0:0:0:0:
192,192,263152,1,0,0:0:0:0:
320,192,263152,1,0,0:0:0:0:
192,192,263256,1,0,0:0:0:0:
448,192,263360,1,0,0:0:0:0:
320,192,263360,1,0,0:0:0:0:
448,192,263464,1,0,0:0:0:0:
64,192,263568,1,0,0:0:0:0:
320,192,263568,1,0,0:0:0:0:
320,192,263672,1,0,0:0:0:0:
448,192,263777,1,0,0:0:0:0:
192,192,263777,1,0,0:0:0:0:
192,192,263881,1,0,0:0:0:0:
64,192,263985,1,0,0:0:0:0:
320,192,263985,1,0,0:0:0:0:
320,192,264089,1,0,0:0:0:0:
448,192,264193,1,0,0:0:0:0:
192,192,264193,1,0,0:0:0:0:
192,192,264297,1,0,0:0:0:0:
64,192,264402,1,0,0:0:0:0:
320,192,264402,1,0,0:0:0:0:
320,192,264506,1,0,0:0:0:0:
448,192,264610,1,0,0:0:0:0:
192,192,264610,1,0,0:0:0:0:
192,192,264714,1,0,0:0:0:0:
64,192,264818,1,0,0:0:0:0:
320,192,264818,1,0,0:0:0:0:
320,192,264922,1,0,0:0:0:0:
448,192,265027,1,0,0:0:0:0:
64,192,265027,1,0,0:0:0:0:
448,192,265131,1,0,0:0:0:0:
320,192,265235,1,0,0:0:0:0:
64,192,265235,1,0,0:0:0:0:
64,192,265339,1,0,0:0:0:0:
192,192,265443,1,0,0:0:0:0:
320,192,265547,1,0,0:0:0:0:
448,192,265652,1,0,0:0:0:0:
64,192,265652,1,0,0:0:0:0:
64,192,265756,1,0,0:0:0:0:
192,192,265860,1,0,0:0:0:0:
320,192,265964,1,0,0:0:0:0:
448,192,266068,1,0,0:0:0:0:
64,192,266068,1,0,0:0:0:0:
192,192,266172,1,0,0:0:0:0:
192,192,266277,1,0,0:0:0:0:
320,192,266381,1,0,0:0:0:0:
448,192,266485,1,0,0:0:0:0:
192,192,266485,1,0,0:0:0:0:
192,192,266589,1,0,0:0:0:0:
320,192,266693,1,0,0:0:0:0:
192,192,266797,1,0,0:0:0:0:
448,192,266902,1,0,0:0:0:0:
64,192,266902,1,0,0:0:0:0:
448,192,267006,1,0,0:0:0:0:
320,192,267110,1,0,0:0:0:0:
192,192,267214,1,0,0:0:0:0:
64,192,267318,1,0,0:0:0:0:
448,192,267318,1,0,0:0:0:0:
448,192,267422,1,0,0:0:0:0:
192,192,267527,1,0,0:0:0:0:
320,192,267631,1,0,0:0:0:0:
448,192,267735,1,0,0:0:0:0:
64,192,267735,1,0,0:0:0:0:
64,192,267839,1,0,0:0:0:0:
448,192,267943,1,0,0:0:0:0:
320,192,268047,1,0,0:0:0:0:
192,192,268047,1,0,0:0:0:0:
64,192,268152,1,0,0:0:0:0:
64,192,268256,1,0,0:0:0:0:
320,192,268360,1,0,0:0:0:0:
192,192,268360,1,0,0:0:0:0:
448,192,268464,1,0,0:0:0:0:
192,192,268568,1,0,0:0:0:0:
64,192,268568,1,0,0:0:0:0:
192,192,268672,1,0,0:0:0:0:
448,192,268777,1,0,0:0:0:0:
320,192,268881,1,0,0:0:0:0:
448,192,268985,1,0,0:0:0:0:
192,192,268985,1,0,0:0:0:0:
192,192,269089,1,0,0:0:0:0:
64,192,269193,1,0,0:0:0:0:
320,192,269297,1,0,0:0:0:0:
448,192,269402,1,0,0:0:0:0:
192,192,269402,1,0,0:0:0:0:
448,192,269506,1,0,0:0:0:0:
64,192,269610,1,0,0:0:0:0:
192,192,269714,1,0,0:0:0:0:
448,192,269818,1,0,0:0:0:0:
320,192,269818,1,0,0:0:0:0:
448,192,269922,1,0,0:0:0:0:
320,192,270027,1,0,0:0:0:0:
192,192,270131,1,0,0:0:0:0:
448,192,270235,1,0,0:0:0:0:
64,192,270235,1,0,0:0:0:0:
64,192,270339,1,0,0:0:0:0:
192,192,270443,1,0,0:0:0:0:
192,192,270547,1,0,0:0:0:0:
320,192,270652,1,0,0:0:0:0:
320,192,270756,1,0,0:0:0:0:
448,192,270860,1,0,0:0:0:0:
448,192,270964,1,0,0:0:0:0:
320,192,271068,1,0,0:0:0:0:
320,192,271172,1,0,0:0:0:0:
192,192,271277,1,0,0:0:0:0:
192,192,271381,1,0,0:0:0:0:
64,192,271485,1,0,0:0:0:0:
64,192,271589,1,0,0:0:0:0:
448,192,271693,1,0,0:0:0:0:
448,192,271797,1,0,0:0:0:0:
320,192,271902,1,0,0:0:0:0:
192,192,271902,1,0,0:0:0:0:
64,192,272318,1,0,0:0:0:0:
448,192,272318,1,0,0:0:0:0:
64,192,272735,1,0,0:0:0:0:
320,192,272735,1,0,0:0:0:0:
448,192,272735,1,0,0:0:0:0:
64,192,273152,1,0,0:0:0:0:
192,192,273152,1,0,0:0:0:0:
448,192,273152,1,0,0:0:0:0:
64,192,273568,1,0,0:0:0:0:
192,192,273568,1,0,0:0:0:0:
448,192,273568,1,0,0:0:0:0:
320,192,273568,1,0,0:0:0:0:
192,192,273672,1,0,0:0:0:0:
64,192,273777,1,0,0:0:0:0:
320,192,273777,1,0,0:0:0:0:
448,192,273881,1,0,0:0:0:0:
64,192,273985,1,0,0:0:0:0:
448,192,273985,1,0,0:0:0:0:
192,192,273985,1,0,0:0:0:0:
320,192,273985,1,0,0:0:0:0:
64,192,274089,1,0,0:0:0:0:
320,192,274193,1,0,0:0:0:0:
448,192,274193,1,0,0:0:0:0:
192,192,274193,1,0,0:0:0:0:
320,192,274297,1,0,0:0:0:0:
448,192,274402,1,0,0:0:0:0:
64,192,274402,1,0,0:0:0:0:
192,192,274402,1,0,0:0:0:0:
448,192,274506,1,0,0:0:0:0:
64,192,274610,1,0,0:0:0:0:
192,192,274610,1,0,0:0:0:0:
320,192,274610,1,0,0:0:0:0:
64,192,274714,1,0,0:0:0:0:
448,192,274818,1,0,0:0:0:0:
320,192,274818,1,0,0:0:0:0:
192,192,274922,1,0,0:0:0:0:
64,192,275027,1,0,0:0:0:0:
448,192,275027,1,0,0:0:0:0:
320,192,275131,1,0,0:0:0:0:
448,192,275235,1,0,0:0:0:0:
192,192,275235,1,0,0:0:0:0:
64,192,275235,1,0,0:0:0:0:
192,192,275339,1,0,0:0:0:0:
64,192,275443,1,0,0:0:0:0:
320,192,275443,1,0,0:0:0:0:
448,192,275547,1,0,0:0:0:0:
64,192,275652,1,0,0:0:0:0:
448,192,275652,1,0,0:0:0:0:
192,192,275652,1,0,0:0:0:0:
320,192,275756,1,0,0:0:0:0:
448,192,275860,1,0,0:0:0:0:
192,192,275860,1,0,0:0:0:0:
64,192,275860,1,0,0:0:0:0:
448,192,275964,1,0,0:0:0:0:
64,192,276068,1,0,0:0:0:0:
320,192,276068,1,0,0:0:0:0:
192,192,276172,1,0,0:0:0:0:
320,192,276277,1,0,0:0:0:0:
448,192,276277,1,0,0:0:0:0:
192,192,276381,1,0,0:0:0:0:
448,192,276485,1,0,0:0:0:0:
64,192,276485,1,0,0:0:0:0:
192,192,276589,1,0,0:0:0:0:
448,192,276693,1,0,0:0:0:0:
320,192,276693,1,0,0:0:0:0:
448,192,276797,1,0,0:0:0:0:
64,192,276797,1,0,0:0:0:0:
192,192,276902,1,0,0:0:0:0:
64,192,276902,1,0,0:0:0:0:
320,192,277006,1,0,0:0:0:0:
192,192,277110,1,0,0:0:0:0:
448,192,277110,1,0,0:0:0:0:
64,192,277110,1,0,0:0:0:0:
448,192,277214,1,0,0:0:0:0:
64,192,277318,1,0,0:0:0:0:
192,192,277318,1,0,0:0:0:0:
320,192,277422,1,0,0:0:0:0:
448,192,277527,1,0,0:0:0:0:
192,192,277527,1,0,0:0:0:0:
64,192,277527,1,0,0:0:0:0:
448,192,277631,1,0,0:0:0:0:
64,192,277735,1,0,0:0:0:0:
192,192,277735,1,0,0:0:0:0:
320,192,277839,1,0,0:0:0:0:
448,192,277943,1,0,0:0:0:0:
64,192,277943,1,0,0:0:0:0:
192,192,277943,1,0,0:0:0:0:
320,192,278047,1,0,0:0:0:0:
64,192,278152,1,0,0:0:0:0:
448,192,278152,1,0,0:0:0:0:
192,192,278256,1,0,0:0:0:0:
320,192,278360,1,0,0:0:0:0:
448,192,278360,1,0,0:0:0:0:
64,192,278360,1,0,0:0:0:0:
320,192,278464,1,0,0:0:0:0:
448,192,278568,1,0,0:0:0:0:
64,192,278568,1,0,0:0:0:0:
192,192,278568,1,0,0:0:0:0:
64,192,278672,1,0,0:0:0:0:
320,192,278777,1,0,0:0:0:0:
448,192,278777,1,0,0:0:0:0:
64,192,278881,1,0,0:0:0:0:
192,192,278985,1,0,0:0:0:0:
320,192,278985,1,0,0:0:0:0:
448,192,278985,1,0,0:0:0:0:
192,192,279089,1,0,0:0:0:0:
448,192,279193,1,0,0:0:0:0:
64,192,279193,1,0,0:0:0:0:
320,192,279297,1,0,0:0:0:0:
64,192,279402,1,0,0:0:0:0:
192,192,279402,1,0,0:0:0:0:
448,192,279506,1,0,0:0:0:0:
320,192,279610,1,0,0:0:0:0:
192,192,279610,1,0,0:0:0:0:
64,192,279714,1,0,0:0:0:0:
192,192,279818,1,0,0:0:0:0:
448,192,279818,1,0,0:0:0:0:
320,192,279922,1,0,0:0:0:0:
64,192,280027,1,0,0:0:0:0:
448,192,280027,1,0,0:0:0:0:
64,192,280131,1,0,0:0:0:0:
320,192,280235,1,0,0:0:0:0:
448,192,280235,1,0,0:0:0:0:
192,192,280652,1,0,0:0:0:0:
448,192,280652,1,0,0:0:0:0:
448,192,280756,1,0,0:0:0:0:
64,192,280860,1,0,0:0:0:0:
448,192,280860,1,0,0:0:0:0:
64,192,280964,1,0,0:0:0:0:
192,192,281068,1,0,0:0:0:0:
320,192,281068,1,0,0:0:0:0:
448,192,281068,1,0,0:0:0:0:
64,192,281277,1,0,0:0:0:0:
192,192,281277,1,0,0:0:0:0:
448,192,281277,1,0,0:0:0:0:
320,192,281693,1,0,0:0:0:0:
64,192,281693,1,0,0:0:0:0:
320,192,281797,1,0,0:0:0:0:
192,192,281902,1,0,0:0:0:0:
448,192,281902,1,0,0:0:0:0:
192,192,282214,1,0,0:0:0:0:
64,192,282318,1,0,0:0:0:0:
448,192,282422,1,0,0:0:0:0:
320,192,282422,1,0,0:0:0:0:
64,192,282527,1,0,0:0:0:0:
64,192,282631,1,0,0:0:0:0:
192,192,282631,1,0,0:0:0:0:
448,192,282735,1,0,0:0:0:0:
320,192,282735,1,0,0:0:0:0:
448,192,282943,1,0,0:0:0:0:
64,192,283360,1,0,0:0:0:0:
192,192,283360,1,0,0:0:0:0:
64,192,283464,1,0,0:0:0:0:
320,192,283568,1,0,0:0:0:0:
448,192,283568,1,0,0:0:0:0:
448,192,283672,1,0,0:0:0:0:
64,192,283777,1,0,0:0:0:0:
192,192,283777,1,0,0:0:0:0:
64,192,283881,1,0,0:0:0:0:
448,192,283985,1,0,0:0:0:0:
320,192,283985,1,0,0:0:0:0:
320,192,284089,1,0,0:0:0:0:
64,192,284193,1,0,0:0:0:0:
192,192,284193,1,0,0:0:0:0:
192,192,284297,1,0,0:0:0:0:
448,192,284402,1,0,0:0:0:0:
320,192,284402,1,0,0:0:0:0:
448,192,284506,1,0,0:0:0:0:
64,192,284610,1,0,0:0:0:0:
192,192,284610,1,0,0:0:0:0:
64,192,284714,1,0,0:0:0:0:
320,192,284818,1,0,0:0:0:0:
448,192,284818,1,0,0:0:0:0:
320,192,284922,1,0,0:0:0:0:
64,192,285027,1,0,0:0:0:0:
192,192,285027,1,0,0:0:0:0:
192,192,285131,1,0,0:0:0:0:
320,192,285235,1,0,0:0:0:0:
448,192,285235,1,0,0:0:0:0:
64,192,285652,1,0,0:0:0:0:
192,192,285652,1,0,0:0:0:0:
448,192,285652,1,0,0:0:0:0:
64,192,285860,1,0,0:0:0:0:
64,192,285964,1,0,0:0:0:0:
192,192,286068,1,0,0:0:0:0:
320,192,286068,1,0,0:0:0:0:
448,192,286068,1,0,0:0:0:0:
64,192,286172,1,0,0:0:0:0:
320,192,286277,1,0,0:0:0:0:
320,192,286381,1,0,0:0:0:0:
64,192,286485,1,0,0:0:0:0:
192,192,286485,1,0,0:0:0:0:
448,192,286485,1,0,0:0:0:0:
192,192,286589,1,0,0:0:0:0:
192,192,286693,1,0,0:0:0:0:
192,192,286797,1,0,0:0:0:0:
64,192,286902,1,0,0:0:0:0:
448,192,286902,1,0,0:0:0:0:
320,192,286902,1,0,0:0:0:0:
192,192,287006,1,0,0:0:0:0:
448,192,287110,1,0,0:0:0:0:
320,192,287110,1,0,0:0:0:0:
64,192,287214,1,0,0:0:0:0:
64,192,287318,1,0,0:0:0:0:
448,192,287318,1,0,0:0:0:0:
192,192,287318,1,0,0:0:0:0:
320,192,287318,1,0,0:0:0:0:
448,192,287422,1,0,0:0:0:0:
320,192,287527,1,0,0:0:0:0:
64,192,287527,1,0,0:0:0:0:
192,192,287527,1,0,0:0:0:0:
192,192,287631,1,0,0:0:0:0:
320,192,287735,1,0,0:0:0:0:
448,192,287735,1,0,0:0:0:0:
64,192,287735,1,0,0:0:0:0:
64,192,287839,1,0,0:0:0:0:
448,192,287943,1,0,0:0:0:0:
192,192,287943,1,0,0:0:0:0:
320,192,287943,1,0,0:0:0:0:
448,192,288047,1,0,0:0:0:0:
192,192,288152,1,0,0:0:0:0:
64,192,288152,1,0,0:0:0:0:
320,192,288256,1,0,0:0:0:0:
64,192,288360,1,0,0:0:0:0:
448,192,288360,1,0,0:0:0:0:
192,192,288464,1,0,0:0:0:0:
64,192,288568,1,0,0:0:0:0:
448,192,288568,1,0,0:0:0:0:
320,192,288568,1,0,0:0:0:0:
320,192,288672,1,0,0:0:0:0:
192,192,288777,1,0,0:0:0:0:
448,192,288777,1,0,0:0:0:0:
64,192,288881,1,0,0:0:0:0:
320,192,288985,1,0,0:0:0:0:
64,192,288985,1,0,0:0:0:0:
448,192,288985,1,0,0:0:0:0:
192,192,289089,1,0,0:0:0:0:
320,192,289193,1,0,0:0:0:0:
64,192,289193,1,0,0:0:0:0:
448,192,289193,1,0,0:0:0:0:
64,192,289297,1,0,0:0:0:0:
192,192,289402,1,0,0:0:0:0:
448,192,289402,1,0,0:0:0:0:
320,192,289506,1,0,0:0:0:0:
64,192,289610,1,0,0:0:0:0:
192,192,289610,1,0,0:0:0:0:
320,192,289714,1,0,0:0:0:0:
448,192,289818,1,0,0:0:0:0:
64,192,289818,1,0,0:0:0:0:
320,192,289922,1,0,0:0:0:0:
192,192,290027,1,0,0:0:0:0:
64,192,290027,1,0,0:0:0:0:
448,192,290131,1,0,0:0:0:0:
64,192,290131,1,0,0:0:0:0:
448,192,290235,1,0,0:0:0:0:
320,192,290235,1,0,0:0:0:0:
192,192,290339,1,0,0:0:0:0:
448,192,290443,1,0,0:0:0:0:
64,192,290443,1,0,0:0:0:0:
320,192,290443,1,0,0:0:0:0:
64,192,290547,1,0,0:0:0:0:
320,192,290652,1,0,0:0:0:0:
448,192,290652,1,0,0:0:0:0:
192,192,290756,1,0,0:0:0:0:
448,192,290860,1,0,0:0:0:0:
320,192,290860,1,0,0:0:0:0:
64,192,290860,1,0,0:0:0:0:
64,192,290964,1,0,0:0:0:0:
448,192,291068,1,0,0:0:0:0:
320,192,291068,1,0,0:0:0:0:
192,192,291172,1,0,0:0:0:0:
320,192,291277,1,0,0:0:0:0:
448,192,291277,1,0,0:0:0:0:
64,192,291277,1,0,0:0:0:0:
192,192,291381,1,0,0:0:0:0:
64,192,291485,1,0,0:0:0:0:
448,192,291485,1,0,0:0:0:0:
320,192,291589,1,0,0:0:0:0:
64,192,291693,1,0,0:0:0:0:
192,192,291693,1,0,0:0:0:0:
448,192,291693,1,0,0:0:0:0:
192,192,291797,1,0,0:0:0:0:
320,192,291902,1,0,0:0:0:0:
448,192,291902,1,0,0:0:0:0:
64,192,291902,1,0,0:0:0:0:
448,192,292006,1,0,0:0:0:0:
64,192,292110,1,0,0:0:0:0:
192,192,292110,1,0,0:0:0:0:
448,192,292214,1,0,0:0:0:0:
192,192,292318,1,0,0:0:0:0:
320,192,292318,1,0,0:0:0:0:
64,192,292318,1,0,0:0:0:0:
320,192,292422,1,0,0:0:0:0:
448,192,292527,1,0,0:0:0:0:
64,192,292527,1,0,0:0:0:0:
192,192,292631,1,0,0:0:0:0:
320,192,292735,1,0,0:0:0:0:
448,192,292735,1,0,0:0:0:0:
64,192,292839,1,0,0:0:0:0:
192,192,292943,1,0,0:0:0:0:
320,192,292943,1,0,0:0:0:0:
448,192,293047,1,0,0:0:0:0:
64,192,293152,1,0,0:0:0:0:
320,192,293152,1,0,0:0:0:0:
192,192,293256,1,0,0:0:0:0:
64,192,293360,1,0,0:0:0:0:
448,192,293360,1,0,0:0:0:0:
448,192,293464,1,0,0:0:0:0:
64,192,293568,1,0,0:0:0:0:
192,192,293568,1,0,0:0:0:0:
64,192,293985,1,0,0:0:0:0:
192,192,293985,1,0,0:0:0:0:
64,192,294089,1,0,0:0:0:0:
448,192,294193,1,0,0:0:0:0:
320,192,294193,1,0,0:0:0:0:
448,192,294297,1,0,0:0:0:0:
64,192,294402,1,0,0:0:0:0:
192,192,294402,1,0,0:0:0:0:
320,192,294402,1,0,0:0:0:0:
64,192,294610,1,0,0:0:0:0:
320,192,294610,1,0,0:0:0:0:
448,192,294610,1,0,0:0:0:0:
192,192,294818,1,0,0:0:0:0:
320,192,294818,1,0,0:0:0:0:
448,192,295027,1,0,0:0:0:0:
192,192,295027,1,0,0:0:0:0:
192,192,295131,1,0,0:0:0:0:
64,192,295235,1,0,0:0:0:0:
320,192,295235,1,0,0:0:0:0:
320,192,295547,1,0,0:0:0:0:
64,192,295652,1,0,0:0:0:0:
448,192,295652,1,0,0:0:0:0:
64,192,295756,1,0,0:0:0:0:
320,192,295860,1,0,0:0:0:0:
448,192,295860,1,0,0:0:0:0:
448,192,295964,1,0,0:0:0:0:
64,192,296068,1,0,0:0:0:0:
320,192,296068,1,0,0:0:0:0:
64,192,296277,1,0,0:0:0:0:
320,192,296693,1,0,0:0:0:0:
448,192,296693,1,0,0:0:0:0:
448,192,296797,1,0,0:0:0:0:
64,192,296902,1,0,0:0:0:0:
192,192,296902,1,0,0:0:0:0:
64,192,297006,1,0,0:0:0:0:
320,192,297110,1,0,0:0:0:0:
448,192,297110,1,0,0:0:0:0:
448,192,297214,1,0,0:0:0:0:
192,192,297318,1,0,0:0:0:0:
64,192,297318,1,0,0:0:0:0:
192,192,297422,1,0,0:0:0:0:
320,192,297527,1,0,0:0:0:0:
448,192,297527,1,0,0:0:0:0:
320,192,297631,1,0,0:0:0:0:
192,192,297735,1,0,0:0:0:0:
64,192,297735,1,0,0:0:0:0:
64,192,297839,1,0,0:0:0:0:
320,192,297943,1,0,0:0:0:0:
448,192,297943,1,0,0:0:0:0:
448,192,298047,1,0,0:0:0:0:
64,192,298152,1,0,0:0:0:0:
192,192,298152,1,0,0:0:0:0:
192,192,298256,1,0,0:0:0:0:
320,192,298360,1,0,0:0:0:0:
448,192,298360,1,0,0:0:0:0:
320,192,298464,1,0,0:0:0:0:
64,192,298568,1,0,0:0:0:0:
192,192,298568,1,0,0:0:0:0:
64,192,298985,1,0,0:0:0:0:
320,192,298985,1,0,0:0:0:0:
448,192,298985,1,0,0:0:0:0:
448,192,299193,1,0,0:0:0:0:
448,192,299297,1,0,0:0:0:0:
64,192,299402,1,0,0:0:0:0:
192,192,299402,1,0,0:0:0:0:
320,192,299402,1,0,0:0:0:0:
448,192,299506,1,0,0:0:0:0:
192,192,299610,1,0,0:0:0:0:
192,192,299714,1,0,0:0:0:0:
64,192,299818,1,0,0:0:0:0:
320,192,299818,1,0,0:0:0:0:
448,192,299818,1,0,0:0:0:0:
320,192,299922,1,0,0:0:0:0:
320,192,300027,1,0,0:0:0:0:
320,192,300131,1,0,0:0:0:0:
448,192,300235,1,0,0:0:0:0:
64,192,300235,1,0,0:0:0:0:
192,192,300235,1,0,0:0:0:0:
192,192,300339,1,0,0:0:0:0:
320,192,300443,1,0,0:0:0:0:
64,192,300443,1,0,0:0:0:0:
448,192,300547,1,0,0:0:0:0:
192,192,300652,1,0,0:0:0:0:
320,192,300652,1,0,0:0:0:0:
64,192,300652,1,0,0:0:0:0:
448,192,300652,1,0,0:0:0:0:
64,192,300756,1,0,0:0:0:0:
192,192,300860,1,0,0:0:0:0:
448,192,300860,1,0,0:0:0:0:
320,192,300860,1,0,0:0:0:0:
320,192,300964,1,0,0:0:0:0:
192,192,301068,1,0,0:0:0:0:
64,192,301068,1,0,0:0:0:0:
448,192,301068,1,0,0:0:0:0:
448,192,301172,1,0,0:0:0:0:
320,192,301277,1,0,0:0:0:0:
192,192,301277,1,0,0:0:0:0:
64,192,301277,1,0,0:0:0:0:
64,192,301381,1,0,0:0:0:0:
320,192,301485,1,0,0:0:0:0:
448,192,301485,1,0,0:0:0:0:
192,192,301589,1,0,0:0:0:0:
448,192,301693,1,0,0:0:0:0:
64,192,301693,1,0,0:0:0:0:
320,192,301797,1,0,0:0:0:0:
64,192,301902,1,0,0:0:0:0:
192,192,301902,1,0,0:0:0:0:
448,192,301902,1,0,0:0:0:0:
192,192,302006,1,0,0:0:0:0:
320,192,302110,1,0,0:0:0:0:
64,192,302110,1,0,0:0:0:0:
448,192,302214,1,0,0:0:0:0:
192,192,302318,1,0,0:0:0:0:
448,192,302318,1,0,0:0:0:0:
64,192,302318,1,0,0:0:0:0:
320,192,302422,1,0,0:0:0:0:
64,192,302527,1,0,0:0:0:0:
192,192,302527,1,0,0:0:0:0:
448,192,302527,1,0,0:0:0:0:
448,192,302631,1,0,0:0:0:0:
320,192,302735,1,0,0:0:0:0:
64,192,302735,1,0,0:0:0:0:
192,192,302839,1,0,0:0:0:0:
448,192,302943,1,0,0:0:0:0:
320,192,302943,1,0,0:0:0:0:
192,192,303047,1,0,0:0:0:0:
64,192,303152,1,0,0:0:0:0:
448,192,303152,1,0,0:0:0:0:
192,192,303256,1,0,0:0:0:0:
320,192,303360,1,0,0:0:0:0:
448,192,303360,1,0,0:0:0:0:
64,192,303464,1,0,0:0:0:0:
448,192,303464,1,0,0:0:0:0:
64,192,303568,1,0,0:0:0:0:
192,192,303568,1,0,0:0:0:0:
320,192,303672,1,0,0:0:0:0:
64,192,303777,1,0,0:0:0:0:
448,192,303777,1,0,0:0:0:0:
192,192,303777,1,0,0:0:0:0:
448,192,303881,1,0,0:0:0:0:
192,192,303985,1,0,0:0:0:0:
64,192,303985,1,0,0:0:0:0:
320,192,304089,1,0,0:0:0:0:
64,192,304193,1,0,0:0:0:0:
192,192,304193,1,0,0:0:0:0:
448,192,304193,1,0,0:0:0:0:
448,192,304297,1,0,0:0:0:0:
192,192,304402,1,0,0:0:0:0:
64,192,304402,1,0,0:0:0:0:
320,192,304506,1,0,0:0:0:0:
192,192,304610,1,0,0:0:0:0:
64,192,304610,1,0,0:0:0:0:
448,192,304610,1,0,0:0:0:0:
320,192,304714,1,0,0:0:0:0:
448,192,304818,1,0,0:0:0:0:
64,192,304818,1,0,0:0:0:0:
192,192,304922,1,0,0:0:0:0:
64,192,305027,1,0,0:0:0:0:
448,192,305027,1,0,0:0:0:0:
320,192,305027,1,0,0:0:0:0:
320,192,305131,1,0,0:0:0:0:
192,192,305235,1,0,0:0:0:0:
64,192,305235,1,0,0:0:0:0:
448,192,305235,1,0,0:0:0:0:
64,192,305339,1,0,0:0:0:0:
448,192,305443,1,0,0:0:0:0:
320,192,305443,1,0,0:0:0:0:
64,192,305547,1,0,0:0:0:0:
448,192,305652,1,0,0:0:0:0:
320,192,305652,1,0,0:0:0:0:
192,192,305652,1,0,0:0:0:0:
192,192,305756,1,0,0:0:0:0:
64,192,305860,1,0,0:0:0:0:
448,192,305860,1,0,0:0:0:0:
320,192,305964,1,0,0:0:0:0:
192,192,306068,1,0,0:0:0:0:
64,192,306068,1,0,0:0:0:0:
448,192,306172,1,0,0:0:0:0:
192,192,306277,1,0,0:0:0:0:
320,192,306277,1,0,0:0:0:0:
64,192,306381,1,0,0:0:0:0:
448,192,306485,1,0,0:0:0:0:
192,192,306485,1,0,0:0:0:0:
320,192,306589,1,0,0:0:0:0:
448,192,306693,1,0,0:0:0:0:
64,192,306693,1,0,0:0:0:0:
64,192,306797,1,0,0:0:0:0:
448,192,306902,1,0,0:0:0:0:
320,192,306902,1,0,0:0:0:0:
448,192,307318,1,0,0:0:0:0:
64,192,307318,1,0,0:0:0:0:
448,192,307422,1,0,0:0:0:0:
448,192,307527,1,0,0:0:0:0:
64,192,307527,1,0,0:0:0:0:
64,192,307631,1,0,0:0:0:0:
448,192,307735,1,0,0:0:0:0:
320,192,307735,1,0,0:0:0:0:
192,192,307735,1,0,0:0:0:0:
448,192,307943,1,0,0:0:0:0:
192,192,307943,1,0,0:0:0:0:
64,192,307943,1,0,0:0:0:0:
64,192,308360,1,0,0:0:0:0:
320,192,308360,1,0,0:0:0:0:
320,192,308464,1,0,0:0:0:0:
448,192,308568,1,0,0:0:0:0:
192,192,308568,1,0,0:0:0:0:
192,192,308881,1,0,0:0:0:0:
64,192,308985,1,0,0:0:0:0:
320,192,309089,1,0,0:0:0:0:
448,192,309089,1,0,0:0:0:0:
64,192,309193,1,0,0:0:0:0:
192,192,309297,1,0,0:0:0:0:
64,192,309297,1,0,0:0:0:0:
320,192,309402,1,0,0:0:0:0:
448,192,309402,1,0,0:0:0:0:
448,192,309610,1,0,0:0:0:0:
192,192,310027,1,0,0:0:0:0:
64,192,310027,1,0,0:0:0:0:
64,192,310131,1,0,0:0:0:0:
448,192,310235,1,0,0:0:0:0:
320,192,310235,1,0,0:0:0:0:
448,192,310339,1,0,0:0:0:0:
192,192,310443,1,0,0:0:0:0:
64,192,310443,1,0,0:0:0:0:
64,192,310547,1,0,0:0:0:0:
320,192,310652,1,0,0:0:0:0:
448,192,310652,1,0,0:0:0:0:
320,192,310756,1,0,0:0:0:0:
192,192,310860,1,0,0:0:0:0:
64,192,310860,1,0,0:0:0:0:
192,192,310964,1,0,0:0:0:0:
320,192,311068,1,0,0:0:0:0:
448,192,311068,1,0,0:0:0:0:
448,192,311172,1,0,0:0:0:0:
192,192,311277,1,0,0:0:0:0:
64,192,311277,1,0,0:0:0:0:
64,192,311381,1,0,0:0:0:0:
448,192,311485,1,0,0:0:0:0:
320,192,311485,1,0,0:0:0:0:
320,192,311589,1,0,0:0:0:0:
192,192,311693,1,0,0:0:0:0:
64,192,311693,1,0,0:0:0:0:
192,192,311797,1,0,0:0:0:0:
448,192,311902,1,0,0:0:0:0:
320,192,311902,1,0,0:0:0:0:
448,192,312318,1,0,0:0:0:0:
192,192,312318,1,0,0:0:0:0:
64,192,312318,1,0,0:0:0:0:
64,192,312527,1,0,0:0:0:0:
64,192,312631,1,0,0:0:0:0:
448,192,312735,1,0,0:0:0:0:
320,192,312735,1,0,0:0:0:0:
192,192,312735,1,0,0:0:0:0:
64,192,312839,1,0,0:0:0:0:
320,192,312943,1,0,0:0:0:0:
320,192,313047,1,0,0:0:0:0:
448,192,313152,1,0,0:0:0:0:
192,192,313152,1,0,0:0:0:0:
64,192,313152,1,0,0:0:0:0:
192,192,313256,1,0,0:0:0:0:
192,192,313360,1,0,0:0:0:0:
192,192,313464,1,0,0:0:0:0:
320,192,313568,1,0,0:0:0:0:
448,192,313568,1,0,0:0:0:0:
64,192,313568,1,0,0:0:0:0:
192,192,313672,1,0,0:0:0:0:
320,192,313777,1,0,0:0:0:0:
448,192,313777,1,0,0:0:0:0:
64,192,313881,1,0,0:0:0:0:
320,192,313985,1,0,0:0:0:0:
192,192,313985,1,0,0:0:0:0:
448,192,314089,1,0,0:0:0:0:
64,192,314193,1,0,0:0:0:0:
320,192,314193,1,0,0:0:0:0:
192,192,314297,1,0,0:0:0:0:
64,192,314402,1,0,0:0:0:0:
448,192,314402,1,0,0:0:0:0:
320,192,314402,1,0,0:0:0:0:
64,192,314506,1,0,0:0:0:0:
192,192,314610,1,0,0:0:0:0:
448,192,314610,1,0,0:0:0:0:
448,192,314714,1,0,0:0:0:0:
64,192,314818,1,0,0:0:0:0:
192,192,314818,1,0,0:0:0:0:
320,192,314922,1,0,0:0:0:0:
448,192,315027,1,0,0:0:0:0:
64,192,315027,1,0,0:0:0:0:
192,192,315131,1,0,0:0:0:0:
448,192,315235,1,0,0:0:0:0:
64,192,315235,1,0,0:0:0:0:
320,192,315339,1,0,0:0:0:0:
448,192,315443,1,0,0:0:0:0:
192,192,315443,1,0,0:0:0:0:
64,192,315547,1,0,0:0:0:0:
448,192,315652,1,0,0:0:0:0:
64,192,315652,1,0,0:0:0:0:
192,192,315756,1,0,0:0:0:0:
448,192,315860,1,0,0:0:0:0:
64,192,315860,1,0,0:0:0:0:
64,192,315964,1,0,0:0:0:0:
448,192,316068,1,0,0:0:0:0:
192,192,316068,1,0,0:0:0:0:
320,192,316172,1,0,0:0:0:0:
192,192,316277,1,0,0:0:0:0:
64,192,316277,1,0,0:0:0:0:
320,192,316381,1,0,0:0:0:0:
64,192,316485,1,0,0:0:0:0:
448,192,316485,1,0,0:0:0:0:
320,192,316589,1,0,0:0:0:0:
192,192,316693,1,0,0:0:0:0:
64,192,316797,1,0,0:0:0:0:
448,192,316797,1,0,0:0:0:0:
320,192,316902,1,0,0:0:0:0:
192,192,317006,1,0,0:0:0:0:
448,192,317110,1,0,0:0:0:0:
64,192,317214,1,0,0:0:0:0:
320,192,317318,1,0,0:0:0:0:
192,192,317422,1,0,0:0:0:0:
64,192,317527,1,0,0:0:0:0:
448,192,317527,1,0,0:0:0:0:
64,192,317631,1,0,0:0:0:0:
320,192,317735,1,0,0:0:0:0:
192,192,317839,1,0,0:0:0:0:
64,192,317943,1,0,0:0:0:0:
448,192,317943,1,0,0:0:0:0:
192,192,318047,1,0,0:0:0:0:
448,192,318152,1,0,0:0:0:0:
64,192,318152,1,0,0:0:0:0:
320,192,318256,1,0,0:0:0:0:
448,192,318360,1,0,0:0:0:0:
64,192,318360,1,0,0:0:0:0:
192,192,318464,1,0,0:0:0:0:
64,192,318568,1,0,0:0:0:0:
320,192,318568,1,0,0:0:0:0:
448,192,318672,1,0,0:0:0:0:
192,192,318777,1,0,0:0:0:0:
64,192,318777,1,0,0:0:0:0:
448,192,318881,1,0,0:0:0:0:
64,192,318985,1,0,0:0:0:0:
192,192,318985,1,0,0:0:0:0:
320,192,319089,1,0,0:0:0:0:
64,192,319193,1,0,0:0:0:0:
448,192,319193,1,0,0:0:0:0:
192,192,319297,1,0,0:0:0:0:
448,192,319402,1,0,0:0:0:0:
320,192,319402,1,0,0:0:0:0:
192,192,319454,1,0,0:0:0:0:
64,192,319506,1,0,0:0:0:0:
448,192,319558,1,0,0:0:0:0:
320,192,319610,1,0,0:0:0:0:
192,192,319610,1,0,0:0:0:0:
64,192,319662,1,0,0:0:0:0:
448,192,319714,1,0,0:0:0:0:
320,192,319766,1,0,0:0:0:0:
64,192,319818,1,0,0:0:0:0:
448,192,319870,1,0,0:0:0:0:
192,192,319922,1,0,0:0:0:0:
320,192,319974,1,0,0:0:0:0:
448,192,320027,1,0,0:0:0:0:
64,192,320027,1,0,0:0:0:0:
192,192,320079,1,0,0:0:0:0:
448,192,320131,1,0,0:0:0:0:
320,192,320183,1,0,0:0:0:0:
192,192,320235,1,0,0:0:0:0:
64,192,320235,1,0,0:0:0:0:
448,192,320443,1,0,0:0:0:0:
192,192,320652,1,0,0:0:0:0:
64,192,320652,1,0,0:0:0:0:
320,192,320860,1,0,0:0:0:0:
64,192,321068,1,0,0:0:0:0:
448,192,321068,1,0,0:0:0:0:
192,192,321277,1,0,0:0:0:0:
320,192,321485,1,0,0:0:0:0:
64,192,321485,1,0,0:0:0:0:
448,192,321693,1,0,0:0:0:0:
64,192,321902,1,0,0:0:0:0:
192,192,321902,1,0,0:0:0:0:
320,192,322110,1,0,0:0:0:0:
448,192,322318,1,0,0:0:0:0:
192,192,322318,1,0,0:0:0:0:
64,192,322527,1,0,0:0:0:0:
320,192,322735,1,0,0:0:0:0:
448,192,322735,1,0,0:0:0:0:
64,192,322943,1,0,0:0:0:0:
192,192,323152,1,0,0:0:0:0:
448,192,323152,1,0,0:0:0:0:
320,192,323360,1,0,0:0:0:0:
192,192,323568,1,0,0:0:0:0:
64,192,323568,1,0,0:0:0:0:
64,192,323777,1,0,0:0:0:0:
320,192,323985,1,0,0:0:0:0:
448,192,323985,1,0,0:0:0:0:
448,192,324193,1,0,0:0:0:0:
64,192,324402,1,0,0:0:0:0:
192,192,324402,1,0,0:0:0:0:
64,192,324610,1,0,0:0:0:0:
320,192,324818,1,0,0:0:0:0:
448,192,324818,1,0,0:0:0:0:
448,192,325027,1,0,0:0:0:0:
192,192,325235,1,0,0:0:0:0:
64,192,325235,1,0,0:0:0:0:
64,192,325443,1,0,0:0:0:0:
448,192,325652,1,0,0:0:0:0:
320,192,325652,1,0,0:0:0:0:
64,192,325652,1,0,0:0:0:0:
448,192,325860,1,0,0:0:0:0:
448,192,325964,1,0,0:0:0:0:
320,192,326068,1,0,0:0:0:0:
192,192,326068,1,0,0:0:0:0:
64,192,326068,1,0,0:0:0:0:
448,192,326172,1,0,0:0:0:0:
192,192,326277,1,0,0:0:0:0:
192,192,326381,1,0,0:0:0:0:
448,192,326485,1,0,0:0:0:0:
320,192,326485,1,0,0:0:0:0:
64,192,326485,1,0,0:0:0:0:
320,192,326589,1,0,0:0:0:0:
320,192,326693,1,0,0:0:0:0:
320,192,326797,1,0,0:0:0:0:
