osu file format v14

[General]
AudioFilename: audio.mp3
AudioLeadIn: 0
PreviewTime: 31984
Countdown: 0
SampleSet: Soft
StackLeniency: 0.7
Mode: 3
LetterboxInBreaks: 0
SpecialStyle: 0
WidescreenStoryboard: 1

[Editor]
DistanceSpacing: 1.2
BeatDivisor: 4
GridSize: 8
TimelineZoom: 1.6

[Metadata]
Title:Ji Ming Yue
TitleUnicode:寄明月
Artist:Kohigashi Hitona x Kano
ArtistUnicode:小東ひとな × 鹿乃
Creator:ExNeko
Version:Normal
Source:
Tags:花寄女子寮 cover 歌ってみた Vtuber SING女团 Pop Japanese
BeatmapID:3204265
BeatmapSetID:1569120

[Difficulty]
HPDrainRate:6
CircleSize:7
OverallDifficulty:6
ApproachRate:5
SliderMultiplier:1.4
SliderTickRate:1

[Events]
//Background and Video events
0,0,"bg.jpg",0,0
//Break Periods
//Storyboard Layer 0 (Background)
//Storyboard Layer 1 (Fail)
//Storyboard Layer 2 (Pass)
//Storyboard Layer 3 (Foreground)
//Storyboard Layer 4 (Overlay)
//Storyboard Sound Samples
Sample,18913,0,"soft-hitwhistle.wav",50
Sample,19341,0,"soft-hitclap.wav",50
Sample,19770,0,"soft-hitwhistle.wav",50
Sample,20198,0,"soft-hitclap.wav",50
Sample,20627,0,"soft-hitwhistle.wav",50
Sample,21056,0,"soft-hitclap.wav",50
Sample,21484,0,"soft-hitwhistle.wav",50
Sample,21913,0,"soft-hitclap.wav",50
Sample,22341,0,"soft-hitwhistle.wav",50
Sample,22770,0,"soft-hitclap.wav",50
Sample,23198,0,"soft-hitwhistle.wav",50
Sample,23627,0,"soft-hitclap.wav",50
Sample,24056,0,"soft-hitwhistle.wav",50
Sample,24484,0,"soft-hitclap.wav",50
Sample,24913,0,"soft-hitwhistle.wav",50
Sample,25341,0,"soft-hitclap.wav",50
Sample,25770,0,"soft-hitwhistle.wav",50
Sample,26198,0,"soft-hitclap.wav",50
Sample,26627,0,"soft-hitwhistle.wav",50
Sample,27056,0,"soft-hitclap.wav",50
Sample,27484,0,"soft-hitwhistle.wav",50
Sample,27913,0,"soft-hitclap.wav",50
Sample,28341,0,"soft-hitwhistle.wav",50
Sample,28770,0,"soft-hitclap.wav",50
Sample,29198,0,"soft-hitwhistle.wav",50
Sample,29627,0,"soft-hitclap.wav",50
Sample,30056,0,"soft-hitwhistle.wav",50
Sample,30484,0,"soft-hitclap.wav",50
Sample,30913,0,"soft-hitwhistle.wav",50
Sample,31341,0,"soft-hitclap.wav",50
Sample,31770,0,"soft-hitwhistle.wav",50
Sample,32198,0,"soft-hitclap.wav",50
Sample,101198,0,"soft-hitwhistle.wav",50
Sample,101627,0,"soft-hitclap.wav",50
Sample,102056,0,"soft-hitwhistle.wav",50
Sample,102484,0,"soft-hitclap.wav",50
Sample,102913,0,"soft-hitwhistle.wav",50
Sample,103341,0,"soft-hitclap.wav",50
Sample,103770,0,"soft-hitwhistle.wav",50
Sample,104198,0,"soft-hitclap.wav",50
Sample,104627,0,"soft-hitwhistle.wav",50
Sample,105056,0,"soft-hitclap.wav",50
Sample,105484,0,"soft-hitwhistle.wav",50
Sample,105913,0,"soft-hitclap.wav",50
Sample,106341,0,"soft-hitwhistle.wav",50
Sample,106770,0,"soft-hitclap.wav",50
Sample,107198,0,"soft-hitwhistle.wav",50
Sample,107627,0,"soft-hitclap.wav",50
Sample,108056,0,"soft-hitwhistle.wav",50
Sample,108484,0,"soft-hitclap.wav",50
Sample,108913,0,"soft-hitwhistle.wav",50
Sample,109341,0,"soft-hitclap.wav",50
Sample,109770,0,"soft-hitwhistle.wav",50
Sample,110198,0,"soft-hitclap.wav",50
Sample,110627,0,"soft-hitwhistle.wav",50
Sample,111056,0,"soft-hitclap.wav",50
Sample,111484,0,"soft-hitwhistle.wav",50
Sample,111913,0,"soft-hitclap.wav",50
Sample,112341,0,"soft-hitwhistle.wav",50
Sample,112770,0,"soft-hitclap.wav",50
Sample,113198,0,"soft-hitwhistle.wav",50
Sample,113627,0,"soft-hitfinish.wav",50
Sample,113841,0,"soft-hitwhistle.wav",50
Sample,114270,0,"soft-hitwhistle.wav",50
Sample,114484,0,"soft-hitfinish.wav",50

[TimingPoints]
56,428.571428571429,4,2,1,50,1,0
73770,-100,4,2,1,50,0,1
101198,-100,4,2,1,50,0,0

[HitObjects]
329,192,4234,5,0,0:0:0:70:C#6S_Db6S_s.wav
475,192,4341,1,0,0:0:0:70:C#6S_Db6S_s.wav
182,192,4556,1,0,0:0:0:70:G#5S_Ab5S_s.wav
402,192,4770,1,0,0:0:0:70:F#5S_Gb5S_s.wav
109,192,4984,1,0,0:0:0:70:E5S_s.wav
36,192,5198,1,0,0:0:0:70:C#5S_Db5S_s.wav
256,192,5198,1,0,0:0:0:0:
402,192,5841,1,0,0:0:0:70:G#5S_Ab5S_s.wav
109,192,6484,1,0,0:0:0:70:B4S_s.wav
182,192,6913,1,0,0:0:0:70:C#5S_Db5S_s.wav
402,192,7556,1,0,0:0:0:70:G#5S_Ab5S_s.wav
329,192,8198,1,0,0:0:0:70:F#5S_Gb5S_s.wav
109,192,8413,1,0,0:0:0:70:E5S_s.wav
329,192,8627,1,0,0:0:0:70:F#5S_Gb5S_s.wav
182,192,9056,1,0,0:0:0:70:G#5S_Ab5S_s.wav
402,192,9270,1,0,0:0:0:70:B5S_s.wav
182,192,9698,1,0,0:0:0:70:G#5S_Ab5S_s.wav
182,192,10127,1,0,0:0:0:70:G#5S_Ab5S_s.wav
329,192,10341,1,0,0:0:0:70:F#5S_Gb5S_s.wav
109,192,10556,1,0,0:0:0:70:E5S_s.wav
256,192,10770,1,0,0:0:0:70:F#5S_Gb5S_s.wav
402,192,10984,1,0,0:0:0:70:F#5S_Gb5S_s.wav
329,192,11198,1,0,0:0:0:70:F#5S_Gb5S_s.wav
182,192,11413,1,0,0:0:0:70:E5S_s.wav
256,192,11627,1,0,0:0:0:70:C#5S_Db5S_s.wav
109,192,11841,1,0,0:0:0:70:B4S_s.wav
36,192,12056,1,0,0:0:0:70:C#5S_Db5S_s.wav
402,192,12698,1,0,0:0:0:70:G#5S_Ab5S_s.wav
109,192,13341,1,0,0:0:0:70:B4S_s.wav
182,192,13770,1,0,0:0:0:70:C#5S_Db5S_s.wav
402,192,14413,1,0,0:0:0:70:G#5S_Ab5S_s.wav
329,192,15056,1,0,0:0:0:70:F#5S_Gb5S_s.wav
109,192,15270,1,0,0:0:0:70:E5S_s.wav
329,192,15484,1,0,0:0:0:70:F#5S_Gb5S_s.wav
182,192,15913,1,0,0:0:0:70:G#5S_Ab5S_s.wav
402,192,16127,1,0,0:0:0:70:B5S_s.wav
475,192,16556,1,0,0:0:0:70:E6S_s.wav
475,192,16984,1,0,0:0:0:70:E6S_s.wav
329,192,17198,1,0,0:0:0:70:D#6S_Eb6S_s.wav
182,192,17413,1,0,0:0:0:70:D#6S_Eb6S_s.wav
402,192,17627,1,0,0:0:0:70:D#6S_Eb6S_s.wav
109,192,17841,1,0,0:0:0:70:B5S_s.wav
256,192,18056,1,0,0:0:0:70:C#6S_Db6S_s.wav
329,192,18484,1,0,0:0:0:70:C#6S_Db6S_s.wav
109,192,18698,1,0,0:0:0:70:G#5S_Ab5S_s.wav
256,192,18913,1,0,0:0:0:70:F#5S_Gb5S_s.wav
329,192,19127,1,0,0:0:0:70:F#5S_Gb5S_s.wav
182,192,19234,1,0,0:0:0:70:G#5S_Ab5S_s.wav
36,192,19341,1,0,0:0:0:70:F#5S_Gb5S_s.wav
402,192,19341,1,0,0:0:0:0:
256,192,19556,1,0,0:0:0:70:E5S_s.wav
109,192,19663,1,0,0:0:0:0:
329,192,19770,1,0,0:0:0:70:F#5S_Gb5S_s.wav
182,192,19984,1,0,0:0:0:70:G#5S_Ab5S_s.wav
256,192,20198,1,0,0:0:0:70:B5S_s.wav
475,192,20198,1,0,0:0:0:0:
402,192,20413,1,0,0:0:0:70:G#5S_Ab5S_s.wav
329,192,20627,1,0,0:0:0:70:F#5S_Gb5S_s.wav
182,192,20841,1,0,0:0:0:70:F#5S_Gb5S_s.wav
36,192,20948,1,0,0:0:0:70:G#5S_Ab5S_s.wav
256,192,21056,1,0,0:0:0:70:F#5S_Gb5S_s.wav
402,192,21056,1,0,0:0:0:0:
109,192,21270,1,0,0:0:0:70:E5S_s.wav
329,192,21377,1,0,0:0:0:0:
182,192,21484,1,0,0:0:0:70:F#5S_Gb5S_s.wav
402,192,21698,1,0,0:0:0:70:G#5S_Ab5S_s.wav
109,192,21913,1,0,0:0:0:70:C#6S_Db6S_s.wav
256,192,21913,1,0,0:0:0:0:
329,192,22127,1,0,0:0:0:70:G#5S_Ab5S_s.wav
182,192,22341,1,0,0:0:0:70:F#5S_Gb5S_s.wav
256,192,22556,1,0,0:0:0:70:F#5S_Gb5S_s.wav
109,192,22663,1,0,0:0:0:70:G#5S_Ab5S_s.wav
329,192,22770,1,0,0:0:0:70:F#5S_Gb5S_s.wav
475,192,22770,1,0,0:0:0:0:
182,192,22984,1,0,0:0:0:70:E5S_s.wav
402,192,23091,1,0,0:0:0:0:
36,192,23198,1,0,0:0:0:70:F#5S_Gb5S_s.wav
475,192,23413,1,0,0:0:0:70:E6S_s.wav
109,192,23627,1,0,0:0:0:70:D#6S_Eb6S_s.wav
329,192,23627,1,0,0:0:0:0:
475,192,23841,1,0,0:0:0:70:E6S_s.wav
182,192,24056,1,0,0:0:0:70:D#6S_Eb6S_s.wav
329,192,24270,1,0,0:0:0:70:D#6S_Eb6S_s.wav
109,192,24377,1,0,0:0:0:70:E6S_s.wav
256,192,24484,1,0,0:0:0:70:D#6S_Eb6S_s.wav
475,192,24484,1,0,0:0:0:0:
182,192,24698,1,0,0:0:0:70:B5S_s.wav
329,192,24806,1,0,0:0:0:0:
475,192,24913,1,0,0:0:0:70:G#5S_Ab5S_s.wav
256,192,25127,1,0,0:0:0:0:
36,192,25341,1,0,0:0:0:70:C#6S_Db6S_s.wav
182,192,25341,1,0,0:0:0:0:
329,192,25556,1,0,0:0:0:70:G#5S_Ab5S_s.wav
109,192,25770,1,0,0:0:0:70:F#5S_Gb5S_s.wav
182,192,25984,1,0,0:0:0:70:F#5S_Gb5S_s.wav
36,192,26091,1,0,0:0:0:70:G#5S_Ab5S_s.wav
256,192,26198,1,0,0:0:0:70:F#5S_Gb5S_s.wav
402,192,26198,1,0,0:0:0:0:
109,192,26413,1,0,0:0:0:70:E5S_s.wav
329,192,26520,1,0,0:0:0:0:
182,192,26627,1,0,0:0:0:70:F#5S_Gb5S_s.wav
402,192,26841,1,0,0:0:0:70:G#5S_Ab5S_s.wav
36,192,27056,1,0,0:0:0:70:B5S_s.wav
256,192,27056,1,0,0:0:0:0:
329,192,27270,1,0,0:0:0:70:G#5S_Ab5S_s.wav
402,192,27484,1,0,0:0:0:70:F#5S_Gb5S_s.wav
256,192,27698,1,0,0:0:0:70:F#5S_Gb5S_s.wav
109,192,27806,1,0,0:0:0:70:G#5S_Ab5S_s.wav
329,192,27913,1,0,0:0:0:70:F#5S_Gb5S_s.wav
475,192,27913,1,0,0:0:0:0:
182,192,28127,1,0,0:0:0:70:E5S_s.wav
402,192,28234,1,0,0:0:0:0:
256,192,28341,1,0,0:0:0:70:F#5S_Gb5S_s.wav
109,192,28556,1,0,0:0:0:70:G#5S_Ab5S_s.wav
182,192,28770,1,0,0:0:0:70:C#6S_Db6S_s.wav
402,192,28770,1,0,0:0:0:0:
256,192,28984,1,0,0:0:0:70:G#5S_Ab5S_s.wav
109,192,29198,1,0,0:0:0:70:F#5S_Gb5S_s.wav
182,192,29413,1,0,0:0:0:70:F#5S_Gb5S_s.wav
402,192,29520,1,0,0:0:0:70:G#5S_Ab5S_s.wav
36,192,29627,1,0,0:0:0:70:F#5S_Gb5S_s.wav
256,192,29627,1,0,0:0:0:0:
109,192,29841,1,0,0:0:0:70:E5S_s.wav
329,192,29948,1,0,0:0:0:0:
182,192,30056,1,0,0:0:0:70:F#5S_Gb5S_s.wav
475,192,30270,1,0,0:0:0:70:E6S_s.wav
109,192,30484,1,0,0:0:0:70:D#6S_Eb6S_s.wav
329,192,30484,1,0,0:0:0:0:
475,192,30698,1,0,0:0:0:70:E6S_s.wav
256,192,30913,1,0,0:0:0:70:D#6S_Eb6S_s.wav
182,192,31127,1,0,0:0:0:70:D#6S_Eb6S_s.wav
329,192,31234,1,0,0:0:0:70:E6S_s.wav
109,192,31341,1,0,0:0:0:70:D#6S_Eb6S_s.wav
475,192,31341,1,0,0:0:0:0:
256,192,31556,1,0,0:0:0:70:B5S_s.wav
402,192,31663,1,0,0:0:0:0:
182,192,31770,1,0,0:0:0:70:C#6S_Db6S_s.wav
329,192,31984,1,0,0:0:0:0:
36,192,32198,1,0,0:0:0:0:
256,192,32198,1,0,0:0:0:0:
402,192,32413,1,0,0:0:0:0:
182,192,32627,1,2,0:0:0:0:
329,192,32841,1,0,0:0:0:0:
36,192,33056,1,8,0:0:0:0:
256,192,33056,1,0,0:0:0:0:
182,192,33270,1,0,0:0:0:0:
475,192,33377,1,0,0:0:0:0:
329,192,33484,1,2,0:0:0:0:
256,192,33698,1,0,0:0:0:0:
36,192,33913,1,8,0:0:0:0:
182,192,33913,1,0,0:0:0:0:
329,192,34127,1,0,0:0:0:0:
109,192,34341,1,2,0:0:0:0:
182,192,34556,1,0,0:0:0:0:
256,192,34770,1,8,0:0:0:0:
475,192,34770,1,0,0:0:0:0:
109,192,34984,1,0,0:0:0:0:
329,192,35091,1,0,0:0:0:0:
182,192,35198,1,2,0:0:0:0:
402,192,35413,1,0,0:0:0:0:
109,192,35627,1,8,0:0:0:0:
256,192,35627,1,0,0:0:0:0:
329,192,35841,1,0,0:0:0:0:
182,192,36056,1,2,0:0:0:0:
256,192,36270,1,0,0:0:0:0:
329,192,36484,1,8,0:0:0:0:
475,192,36484,1,0,0:0:0:0:
182,192,36698,1,0,0:0:0:0:
402,192,36806,1,0,0:0:0:0:
256,192,36913,1,2,0:0:0:0:
329,192,37127,1,0,0:0:0:0:
36,192,37341,1,8,0:0:0:0:
182,192,37341,1,0,0:0:0:0:
256,192,37556,1,0,0:0:0:0:
109,192,37770,1,2,0:0:0:0:
329,192,37984,1,0,0:0:0:0:
256,192,38198,1,8,0:0:0:0:
475,192,38198,1,0,0:0:0:0:
182,192,38413,1,0,0:0:0:0:
329,192,38520,1,0,0:0:0:0:
109,192,38627,1,2,0:0:0:0:
256,192,38841,1,0,0:0:0:0:
36,192,39056,1,8,0:0:0:0:
402,192,39056,1,0,0:0:0:0:
182,192,39270,1,0,0:0:0:0:
329,192,39484,1,2,0:0:0:0:
109,192,39698,1,0,0:0:0:0:
182,192,39913,1,8,0:0:0:0:
475,192,39913,1,0,0:0:0:0:
256,192,40127,1,0,0:0:0:0:
36,192,40234,1,0,0:0:0:0:
402,192,40341,1,2,0:0:0:0:
329,192,40556,1,0,0:0:0:0:
109,192,40770,1,8,0:0:0:0:
256,192,40770,1,0,0:0:0:0:
402,192,40984,1,0,0:0:0:0:
182,192,41198,1,2,0:0:0:0:
256,192,41413,1,0,0:0:0:0:
109,192,41627,1,8,0:0:0:0:
329,192,41627,1,0,0:0:0:0:
182,192,41841,1,0,0:0:0:0:
402,192,41948,1,0,0:0:0:0:
256,192,42056,1,2,0:0:0:0:
109,192,42270,1,0,0:0:0:0:
329,192,42484,1,8,0:0:0:0:
475,192,42484,1,0,0:0:0:0:
182,192,42698,1,0,0:0:0:0:
402,192,42913,1,2,0:0:0:0:
256,192,43127,1,0,0:0:0:0:
36,192,43341,1,8,0:0:0:0:
329,192,43341,1,0,0:0:0:0:
402,192,43556,1,0,0:0:0:0:
256,192,43663,1,0,0:0:0:0:
109,192,43770,1,2,0:0:0:0:
182,192,43984,1,0,0:0:0:0:
256,192,44198,1,8,0:0:0:0:
475,192,44198,1,0,0:0:0:0:
109,192,44413,1,0,0:0:0:0:
329,192,44627,1,2,0:0:0:0:
256,192,44841,1,0,0:0:0:0:
182,192,45056,1,8,0:0:0:0:
402,192,45056,1,0,0:0:0:0:
329,192,45270,1,0,0:0:0:0:
109,192,45377,1,0,0:0:0:0:
256,192,45484,1,2,0:0:0:0:
402,192,45698,1,0,0:0:0:0:
36,192,45806,1,4,0:0:0:0:
182,192,45806,1,0,0:0:0:0:
329,192,45913,1,4,0:0:0:0:
475,192,45913,1,0,0:0:0:0:
36,192,46127,1,8,0:0:0:0:
256,192,46341,1,2,0:0:0:0:
182,192,46556,1,0,0:0:0:0:
182,192,46770,1,8,0:0:0:0:
402,192,46770,1,0,0:0:0:0:
329,192,46984,1,0,0:0:0:0:
109,192,47091,1,0,0:0:0:0:
256,192,47198,1,2,0:0:0:0:
402,192,47413,1,0,0:0:0:0:
182,192,47627,1,8,0:0:0:0:
402,192,47627,1,0,0:0:0:0:
256,192,47841,1,0,0:0:0:0:
329,192,48056,1,2,0:0:0:0:
109,192,48270,1,0,0:0:0:0:
109,192,48484,1,8,0:0:0:0:
475,192,48484,1,0,0:0:0:0:
182,192,48698,1,0,0:0:0:0:
402,192,48806,1,0,0:0:0:0:
256,192,48913,1,2,0:0:0:0:
329,192,49127,1,0,0:0:0:0:
109,192,49341,1,8,0:0:0:0:
329,192,49341,1,0,0:0:0:0:
182,192,49556,1,0,0:0:0:0:
256,192,49770,1,2,0:0:0:0:
36,192,49984,1,0,0:0:0:0:
36,192,50198,1,8,0:0:0:0:
256,192,50198,1,0,0:0:0:0:
329,192,50413,1,0,0:0:0:0:
182,192,50520,1,0,0:0:0:0:
402,192,50627,1,2,0:0:0:0:
329,192,50841,1,0,0:0:0:0:
109,192,51056,1,8,0:0:0:0:
329,192,51056,1,0,0:0:0:0:
256,192,51270,1,0,0:0:0:0:
402,192,51484,1,2,0:0:0:0:
182,192,51698,1,0,0:0:0:0:
182,192,51913,1,8,0:0:0:0:
329,192,51913,1,0,0:0:0:0:
109,192,52127,1,0,0:0:0:0:
256,192,52234,1,0,0:0:0:0:
402,192,52341,1,2,0:0:0:0:
475,192,52556,1,0,0:0:0:0:
182,192,52770,1,8,0:0:0:0:
475,192,52770,1,0,0:0:0:0:
256,192,52984,1,0,0:0:0:0:
329,192,53198,1,2,0:0:0:0:
182,192,53413,1,0,0:0:0:0:
182,192,53627,1,8,0:0:0:0:
402,192,53627,1,0,0:0:0:0:
109,192,53841,1,0,0:0:0:0:
256,192,53948,1,0,0:0:0:0:
36,192,54056,1,2,0:0:0:0:
329,192,54270,1,0,0:0:0:0:
109,192,54484,1,8,0:0:0:0:
329,192,54484,1,0,0:0:0:0:
182,192,54698,1,0,0:0:0:0:
256,192,54913,1,2,0:0:0:0:
109,192,55127,1,0,0:0:0:0:
109,192,55341,1,8,0:0:0:0:
329,192,55341,1,0,0:0:0:0:
402,192,55556,1,0,0:0:0:0:
256,192,55663,1,0,0:0:0:0:
475,192,55770,1,2,0:0:0:0:
402,192,55984,1,0,0:0:0:0:
182,192,56198,1,8,0:0:0:0:
402,192,56198,1,0,0:0:0:0:
109,192,56413,1,0,0:0:0:0:
36,192,56627,1,2,0:0:0:0:
182,192,56841,1,0,0:0:0:0:
182,192,57056,1,8,0:0:0:0:
329,192,57056,1,0,0:0:0:0:
402,192,57270,1,0,0:0:0:0:
109,192,57377,1,0,0:0:0:0:
256,192,57484,1,2,0:0:0:0:
329,192,57698,1,0,0:0:0:0:
329,192,57913,1,8,0:0:0:0:
475,192,57913,1,0,0:0:0:0:
182,192,58127,1,0,0:0:0:0:
256,192,58341,1,2,0:0:0:0:
109,192,58556,1,0,0:0:0:0:
109,192,58770,1,8,0:0:0:0:
329,192,58770,1,0,0:0:0:0:
402,192,58984,1,0,0:0:0:0:
182,192,59091,1,0,0:0:0:0:
475,192,59198,1,2,0:0:0:0:
256,192,59413,1,0,0:0:0:0:
36,192,59627,1,8,0:0:0:0:
256,192,59627,1,0,0:0:0:0:
329,192,59841,1,0,0:0:0:0:
182,192,60056,128,2,60484:0:0:0:0:
182,192,60698,1,2,0:0:0:0:
329,192,60913,1,4,0:0:0:0:
475,192,60913,1,0,0:0:0:0:
182,192,61127,128,2,61556:0:0:0:0:
329,192,61770,1,2,0:0:0:0:
329,192,62091,1,2,0:0:0:0:
329,192,62413,1,2,0:0:0:0:
36,192,62627,1,4,0:0:0:0:
182,192,62627,128,0,63056:0:0:0:0:
402,192,63270,1,2,0:0:0:0:
402,192,63484,128,2,63913:0:0:0:0:
402,192,64127,1,2,0:0:0:0:
109,192,64341,1,4,0:0:0:0:
256,192,64341,1,0,0:0:0:0:
402,192,64556,128,2,64984:0:0:0:0:
109,192,65198,1,2,0:0:0:0:
109,192,65520,1,2,0:0:0:0:
109,192,65841,1,2,0:0:0:0:
256,192,66056,1,4,0:0:0:0:
402,192,66056,1,0,0:0:0:0:
109,192,66270,128,2,66698:0:0:0:0:
329,192,66698,1,2,0:0:0:0:
329,192,66913,128,2,67341:0:0:0:0:
329,192,67556,1,2,0:0:0:0:
36,192,67770,1,4,0:0:0:0:
182,192,67770,1,0,0:0:0:0:
329,192,67984,128,2,68413:0:0:0:0:
182,192,68627,1,2,0:0:0:0:
182,192,68948,1,2,0:0:0:0:
182,192,69270,1,2,0:0:0:0:
329,192,69484,128,4,69913:0:0:0:0:
475,192,69484,1,0,0:0:0:0:
182,192,70127,1,2,0:0:0:0:
182,192,70341,128,2,70770:0:0:0:0:
182,192,70984,1,2,0:0:0:0:
329,192,71198,1,4,0:0:0:0:
475,192,71198,1,0,0:0:0:0:
182,192,71413,128,2,71841:0:0:0:0:
256,192,72056,1,0,0:0:0:0:
475,192,73770,128,2,75484:0:0:0:0:
256,192,73984,1,0,0:0:0:0:
36,192,74198,1,8,0:0:0:0:
182,192,74198,1,0,0:0:0:0:
329,192,74413,1,0,0:0:0:0:
109,192,74627,1,2,0:0:0:0:
256,192,74841,1,0,0:0:0:0:
36,192,75056,1,8,0:0:0:0:
182,192,75056,1,0,0:0:0:0:
329,192,75270,1,0,0:0:0:0:
402,192,75484,128,2,77198:0:0:0:0:
109,192,75698,1,0,0:0:0:0:
36,192,75913,1,8,0:0:0:0:
256,192,75913,1,0,0:0:0:0:
182,192,76127,1,0,0:0:0:0:
329,192,76341,1,2,0:0:0:0:
109,192,76556,1,0,0:0:0:0:
36,192,76770,1,8,0:0:0:0:
256,192,76770,1,0,0:0:0:0:
182,192,76984,1,0,0:0:0:0:
329,192,77198,128,2,78913:0:0:0:0:
109,192,77413,1,0,0:0:0:0:
182,192,77627,1,8,0:0:0:0:
475,192,77627,1,0,0:0:0:0:
36,192,77841,1,0,0:0:0:0:
256,192,78056,1,2,0:0:0:0:
109,192,78270,1,0,0:0:0:0:
182,192,78484,1,8,0:0:0:0:
475,192,78484,1,0,0:0:0:0:
36,192,78698,1,0,0:0:0:0:
182,192,78913,128,2,79127:0:0:0:0:
402,192,79127,128,0,79341:0:0:0:0:
109,192,79341,128,8,79556:0:0:0:0:
256,192,79341,1,0,0:0:0:0:
329,192,79556,128,0,79770:0:0:0:0:
36,192,79770,128,2,79984:0:0:0:0:
256,192,79984,128,0,80198:0:0:0:0:
109,192,80198,1,8,0:0:0:0:
475,192,80198,128,0,80413:0:0:0:0:
182,192,80413,128,0,80627:0:0:0:0:
329,192,80627,128,2,82341:0:0:0:0:
109,192,80841,1,0,0:0:0:0:
182,192,81056,1,8,0:0:0:0:
475,192,81056,1,0,0:0:0:0:
36,192,81270,1,0,0:0:0:0:
256,192,81484,1,2,0:0:0:0:
109,192,81698,1,0,0:0:0:0:
182,192,81913,1,8,0:0:0:0:
475,192,81913,1,0,0:0:0:0:
36,192,82127,1,0,0:0:0:0:
256,192,82341,128,2,84056:0:0:0:0:
402,192,82556,1,0,0:0:0:0:
36,192,82770,1,8,0:0:0:0:
329,192,82770,1,0,0:0:0:0:
475,192,82984,1,0,0:0:0:0:
109,192,83198,1,2,0:0:0:0:
402,192,83413,1,0,0:0:0:0:
36,192,83627,1,8,0:0:0:0:
329,192,83627,1,0,0:0:0:0:
475,192,83841,1,0,0:0:0:0:
182,192,84056,128,2,85770:0:0:0:0:
402,192,84270,1,0,0:0:0:0:
36,192,84484,1,8,0:0:0:0:
329,192,84484,1,0,0:0:0:0:
475,192,84698,1,0,0:0:0:0:
256,192,84913,1,2,0:0:0:0:
402,192,85127,1,0,0:0:0:0:
36,192,85341,1,8,0:0:0:0:
329,192,85341,1,0,0:0:0:0:
475,192,85556,1,0,0:0:0:0:
329,192,85770,1,2,0:0:0:0:
182,192,85984,1,0,0:0:0:0:
109,192,86198,128,8,86413:0:0:0:0:
402,192,86198,1,0,0:0:0:0:
256,192,86413,128,0,86627:0:0:0:0:
402,192,86627,128,2,86841:0:0:0:0:
329,192,86841,1,0,0:0:0:0:
36,192,86948,1,4,0:0:0:0:
182,192,86948,1,0,0:0:0:0:
329,192,87056,128,4,87270:0:0:0:0:
475,192,87056,1,0,0:0:0:0:
182,192,87270,128,8,87484:0:0:0:0:
36,192,87484,128,2,89198:0:0:0:0:
256,192,87698,1,0,0:0:0:0:
329,192,87913,1,8,0:0:0:0:
475,192,87913,1,0,0:0:0:0:
182,192,88127,1,0,0:0:0:0:
402,192,88341,1,2,0:0:0:0:
256,192,88556,1,0,0:0:0:0:
329,192,88770,1,8,0:0:0:0:
475,192,88770,1,0,0:0:0:0:
182,192,88984,1,0,0:0:0:0:
109,192,89198,128,2,90913:0:0:0:0:
402,192,89413,1,0,0:0:0:0:
256,192,89627,1,8,0:0:0:0:
475,192,89627,1,0,0:0:0:0:
329,192,89841,1,0,0:0:0:0:
182,192,90056,1,2,0:0:0:0:
402,192,90270,1,0,0:0:0:0:
256,192,90484,1,8,0:0:0:0:
475,192,90484,1,0,0:0:0:0:
329,192,90698,1,0,0:0:0:0:
182,192,90913,128,2,92627:0:0:0:0:
402,192,91127,1,0,0:0:0:0:
36,192,91341,1,8,0:0:0:0:
329,192,91341,1,0,0:0:0:0:
475,192,91556,1,0,0:0:0:0:
256,192,91770,1,2,0:0:0:0:
402,192,91984,1,0,0:0:0:0:
36,192,92198,1,8,0:0:0:0:
329,192,92198,1,0,0:0:0:0:
475,192,92413,1,0,0:0:0:0:
329,192,92627,128,2,92841:0:0:0:0:
109,192,92841,128,0,93056:0:0:0:0:
256,192,93056,1,8,0:0:0:0:
402,192,93056,128,0,93270:0:0:0:0:
182,192,93270,128,0,93484:0:0:0:0:
475,192,93484,128,2,93698:0:0:0:0:
256,192,93698,128,0,93913:0:0:0:0:
36,192,93913,128,8,94127:0:0:0:0:
402,192,93913,1,0,0:0:0:0:
329,192,94127,128,0,94341:0:0:0:0:
182,192,94341,128,2,96056:0:0:0:0:
402,192,94556,1,0,0:0:0:0:
36,192,94770,1,8,0:0:0:0:
329,192,94770,1,0,0:0:0:0:
475,192,94984,1,0,0:0:0:0:
256,192,95198,1,2,0:0:0:0:
402,192,95413,1,0,0:0:0:0:
36,192,95627,1,8,0:0:0:0:
329,192,95627,1,0,0:0:0:0:
475,192,95841,1,0,0:0:0:0:
256,192,96056,128,2,97770:0:0:0:0:
109,192,96270,1,0,0:0:0:0:
182,192,96484,1,8,0:0:0:0:
475,192,96484,1,0,0:0:0:0:
36,192,96698,1,0,0:0:0:0:
402,192,96913,1,2,0:0:0:0:
109,192,97127,1,0,0:0:0:0:
182,192,97341,1,8,0:0:0:0:
475,192,97341,1,0,0:0:0:0:
36,192,97556,1,0,0:0:0:0:
329,192,97770,128,2,99484:0:0:0:0:
109,192,97984,1,0,0:0:0:0:
182,192,98198,1,8,0:0:0:0:
475,192,98198,1,0,0:0:0:0:
36,192,98413,1,0,0:0:0:0:
256,192,98627,1,2,0:0:0:0:
109,192,98841,1,0,0:0:0:0:
182,192,99056,1,8,0:0:0:0:
475,192,99056,1,0,0:0:0:0:
36,192,99270,1,0,0:0:0:0:
256,192,99484,1,2,0:0:0:0:
109,192,99698,1,0,0:0:0:0:
329,192,99913,1,4,0:0:0:0:
475,192,99913,1,0,0:0:0:0:
256,192,100127,1,2,0:0:0:0:
182,192,100341,1,0,0:0:0:0:
329,192,100556,1,0,0:0:0:0:
182,192,100663,1,0,0:0:0:0:
36,192,100770,1,4,0:0:0:0:
402,192,100770,1,0,0:0:0:0:
256,192,100984,1,0,0:0:0:0:
109,192,101198,128,0,101413:0:0:0:70:F#5S_Gb5S_s.wav
329,192,101413,128,0,101841:0:0:0:70:F#5S_Gb5S_s.wav
182,192,101520,128,0,101841:0:0:0:70:G#5S_Ab5S_s.wav
36,192,101627,128,0,101841:0:0:0:70:F#5S_Gb5S_s.wav
475,192,101841,128,0,102056:0:0:0:70:E5S_s.wav
256,192,102056,128,0,102484:0:0:0:70:F#5S_Gb5S_s.wav
402,192,102270,128,0,102484:0:0:0:70:G#5S_Ab5S_s.wav
182,192,102484,128,0,102913:0:0:0:70:B5S_s.wav
329,192,102698,128,0,102913:0:0:0:70:G#5S_Ab5S_s.wav
36,192,102913,128,0,103127:0:0:0:70:F#5S_Gb5S_s.wav
402,192,103127,128,0,103556:0:0:0:70:F#5S_Gb5S_s.wav
256,192,103234,128,0,103556:0:0:0:70:G#5S_Ab5S_s.wav
109,192,103341,128,0,103556:0:0:0:70:F#5S_Gb5S_s.wav
475,192,103556,128,0,103770:0:0:0:70:E5S_s.wav
182,192,103770,128,0,104198:0:0:0:70:F#5S_Gb5S_s.wav
402,192,103984,128,0,104198:0:0:0:70:G#5S_Ab5S_s.wav
109,192,104198,128,0,104627:0:0:0:70:C#6S_Db6S_s.wav
329,192,104413,128,0,104627:0:0:0:70:G#5S_Ab5S_s.wav
182,192,104627,128,0,104841:0:0:0:70:F#5S_Gb5S_s.wav
402,192,104841,128,0,105270:0:0:0:70:F#5S_Gb5S_s.wav
256,192,104948,128,0,105270:0:0:0:70:G#5S_Ab5S_s.wav
109,192,105056,128,0,105270:0:0:0:70:F#5S_Gb5S_s.wav
36,192,105270,128,0,105484:0:0:0:70:E5S_s.wav
182,192,105484,128,0,105913:0:0:0:70:F#5S_Gb5S_s.wav
329,192,105698,128,0,105913:0:0:0:70:E6S_s.wav
402,192,105913,128,0,106341:0:0:0:70:D#6S_Eb6S_s.wav
109,192,106127,128,0,106341:0:0:0:70:E6S_s.wav
256,192,106341,128,0,106556:0:0:0:70:D#6S_Eb6S_s.wav
36,192,106556,128,0,106984:0:0:0:70:D#6S_Eb6S_s.wav
182,192,106663,128,0,106984:0:0:0:70:E6S_s.wav
329,192,106770,128,0,106984:0:0:0:70:D#6S_Eb6S_s.wav
402,192,106984,128,0,107198:0:0:0:70:B5S_s.wav
109,192,107198,128,0,107413:0:0:0:70:G#5S_Ab5S_s.wav
329,192,107627,128,0,108056:0:0:0:70:C#6S_Db6S_s.wav
182,192,107841,128,0,108056:0:0:0:70:G#5S_Ab5S_s.wav
36,192,108056,128,0,108270:0:0:0:70:F#5S_Gb5S_s.wav
182,192,108270,128,0,108698:0:0:0:70:F#5S_Gb5S_s.wav
329,192,108377,128,0,108698:0:0:0:70:G#5S_Ab5S_s.wav
475,192,108484,128,0,108698:0:0:0:70:F#5S_Gb5S_s.wav
109,192,108698,128,0,108913:0:0:0:70:E5S_s.wav
329,192,108913,128,0,109341:0:0:0:70:F#5S_Gb5S_s.wav
182,192,109127,128,0,109341:0:0:0:70:G#5S_Ab5S_s.wav
402,192,109341,128,0,109770:0:0:0:70:B5S_s.wav
256,192,109556,128,0,109770:0:0:0:70:G#5S_Ab5S_s.wav
109,192,109770,128,0,109984:0:0:0:70:F#5S_Gb5S_s.wav
329,192,109984,128,0,110413:0:0:0:70:F#5S_Gb5S_s.wav
182,192,110091,128,0,110413:0:0:0:70:G#5S_Ab5S_s.wav
36,192,110198,128,0,110413:0:0:0:70:F#5S_Gb5S_s.wav
475,192,110413,128,0,110627:0:0:0:70:E5S_s.wav
256,192,110627,128,0,111056:0:0:0:70:F#5S_Gb5S_s.wav
402,192,110841,128,0,111056:0:0:0:70:G#5S_Ab5S_s.wav
182,192,111056,128,0,111484:0:0:0:70:C#6S_Db6S_s.wav
329,192,111270,128,0,111484:0:0:0:70:G#5S_Ab5S_s.wav
475,192,111484,128,0,111698:0:0:0:70:F#5S_Gb5S_s.wav
36,192,111698,128,0,112127:0:0:0:70:F#5S_Gb5S_s.wav
182,192,111806,128,0,112127:0:0:0:70:G#5S_Ab5S_s.wav
329,192,111913,128,0,112127:0:0:0:70:F#5S_Gb5S_s.wav
402,192,112127,128,0,112341:0:0:0:70:E5S_s.wav
109,192,112341,128,0,112770:0:0:0:70:F#5S_Gb5S_s.wav
329,192,112556,128,0,112770:0:0:0:70:E6S_s.wav
475,192,112770,128,0,113198:0:0:0:70:D#6S_Eb6S_s.wav
256,192,112984,128,0,113198:0:0:0:70:E6S_s.wav
109,192,113198,1,0,0:0:0:70:D#6S_Eb6S_s.wav
329,192,113413,1,0,0:0:0:70:D#6S_Eb6S_s.wav
182,192,113520,1,0,0:0:0:70:E6S_s.wav
36,192,113627,1,0,0:0:0:70:D#6S_Eb6S_s.wav
402,192,113627,1,0,0:0:0:0:
109,192,113841,1,0,0:0:0:70:B5S_s.wav
475,192,114056,1,0,0:0:0:70:C#6S_Db6S_s.wav
329,192,114270,1,0,0:0:0:0:
36,192,114484,1,0,0:0:0:0:
182,192,114484,1,0,0:0:0:0:
256,192,114698,1,0,0:0:0:0:
329,192,114913,1,0,0:0:0:0:
