osu file format v14

[General]
AudioFilename: audio.mp3
AudioLeadIn: 0
PreviewTime: 100560
Countdown: 1
SampleSet: Normal
StackLeniency: 0.7
Mode: 1
LetterboxInBreaks: 0
WidescreenStoryboard: 0

[Editor]
Bookmarks: 24641,44233,58927,78519,83417,100560,120152,139743,154437,174029,178927
DistanceSpacing: 1.2
BeatDivisor: 8
GridSize: 32
TimelineZoom: 3.599998

[Metadata]
Title:Fascinating Paths
TitleUnicode:Fascinating Paths
Artist:Kohei Tanaka
ArtistUnicode:Kohei Tanaka
Creator:-[ ix Ishida xi ]-
Version:Poisonous Cookie
Source:Gravity Rush
Tags:Gravity Daze
BeatmapID:2028154
BeatmapSetID:969388

[Difficulty]
HPDrainRate:7.2
CircleSize:5
OverallDifficulty:6.5
ApproachRate:5
SliderMultiplier:2.8
SliderTickRate:1

[Events]
//Background and Video events
0,0,"1554451904703.jpg",0,0
//Break Periods
//Storyboard Layer 0 (Background)
//Storyboard Layer 1 (Fail)
//Storyboard Layer 2 (Pass)
//Storyboard Layer 3 (Foreground)
//Storyboard Sound Samples

[TimingPoints]
5050,612.244897959184,4,1,0,30,1,0
5050,-200,4,1,0,30,0,0
7498,-50,4,1,0,30,0,0
7652,-200,4,1,0,30,0,0
7958,-60.6060606060606,4,1,0,30,0,0
8111,-200,4,1,0,30,0,0
8264,-76.9230769230769,4,1,0,30,0,0
8417,-200,4,1,0,30,0,0
8570,-105.263157894737,4,1,0,30,0,0
8723,-200,4,1,0,30,0,0
8876,-166.666666666667,4,1,0,30,0,0
9029,-200,4,1,0,30,0,0
12396,-100,4,1,0,30,0,0
14233,-50,4,1,0,30,0,0
14310,-55.5555555555556,4,1,0,30,0,0
14386,-62.5,4,1,0,30,0,0
14463,-71.4285714285714,4,1,0,30,0,0
14539,-83.3333333333333,4,1,0,30,0,0
14616,-100,4,1,0,30,0,0
14692,-125,4,1,0,30,0,0
14845,-200,4,1,0,30,0,0
17289,-50,4,1,0,30,0,0
17443,-200,4,1,0,30,0,0
17749,-60.6060606060606,4,1,0,30,0,0
17902,-200,4,1,0,30,0,0
18055,-76.9230769230769,4,1,0,30,0,0
18208,-200,4,1,0,30,0,0
18361,-105.263157894737,4,1,0,30,0,0
18514,-200,4,1,0,30,0,0
18667,-166.666666666667,4,1,0,30,0,0
18820,-200,4,1,0,30,0,0
22187,-100,4,1,0,30,0,0
24024,-50,4,1,0,30,0,0
24101,-55.5555555555556,4,1,0,30,0,0
24177,-62.5,4,1,0,30,0,0
24254,-71.4285714285714,4,1,0,30,0,0
24330,-83.3333333333333,4,1,0,30,0,0
24407,-100,4,1,0,30,0,0
24483,-125,4,1,0,30,0,0
24636,-200,4,1,0,30,0,0
27085,-50,4,1,0,30,0,0
27239,-200,4,1,0,30,0,0
27545,-60.6060606060606,4,1,0,30,0,0
27698,-200,4,1,0,30,0,0
27851,-76.9230769230769,4,1,0,30,0,0
28004,-200,4,1,0,30,0,0
28157,-105.263157894737,4,1,0,30,0,0
28310,-200,4,1,0,30,0,0
28463,-166.666666666667,4,1,0,30,0,0
28616,-200,4,1,0,30,0,0
31983,-100,4,1,0,30,0,0
33820,-50,4,1,0,30,0,0
33897,-55.5555555555556,4,1,0,30,0,0
33973,-62.5,4,1,0,30,0,0
34050,-71.4285714285714,4,1,0,30,0,0
34126,-83.3333333333333,4,1,0,30,0,0
34203,-100,4,1,0,30,0,0
34279,-125,4,1,0,30,0,0
34432,-200,4,1,0,30,0,0
36881,-50,4,1,0,30,0,0
37035,-200,4,1,0,30,0,0
37341,-60.6060606060606,4,1,0,30,0,0
37494,-200,4,1,0,30,0,0
37647,-76.9230769230769,4,1,0,30,0,0
37800,-200,4,1,0,30,0,0
37953,-105.263157894737,4,1,0,30,0,0
38106,-200,4,1,0,30,0,0
38259,-166.666666666667,4,1,0,30,0,0
38412,-200,4,1,0,30,0,0
41779,-100,4,1,0,30,0,0
43616,-50,4,1,0,30,0,0
43693,-55.5555555555556,4,1,0,30,0,0
43769,-62.5,4,1,0,30,0,0
43846,-71.4285714285714,4,1,0,30,0,0
43922,-83.3333333333333,4,1,0,30,0,0
43999,-100,4,1,0,30,0,0
44075,-125,4,1,0,30,0,0
44228,-200,4,1,0,30,0,0
46677,-50,4,1,0,30,0,0
46831,-200,4,1,0,30,0,0
47137,-60.6060606060606,4,1,0,30,0,0
47290,-200,4,1,0,30,0,0
47443,-76.9230769230769,4,1,0,30,0,0
47596,-200,4,1,0,30,0,0
47749,-105.263157894737,4,1,0,30,0,0
47902,-200,4,1,0,30,0,0
48055,-166.666666666667,4,1,0,30,0,0
48208,-200,4,1,0,30,0,0
51575,-100,4,1,0,30,0,0
53412,-50,4,1,0,30,0,0
53489,-55.5555555555556,4,1,0,30,0,0
53565,-62.5,4,1,0,30,0,0
53642,-71.4285714285714,4,1,0,30,0,0
53718,-83.3333333333333,4,1,0,30,0,0
53795,-100,4,1,0,30,0,0
53871,-125,4,1,0,30,0,0
54024,-200,4,1,0,30,0,0
56473,-50,4,1,0,30,0,0
56627,-200,4,1,0,30,0,0
56933,-60.6060606060606,4,1,0,30,0,0
57086,-200,4,1,0,30,0,0
57239,-76.9230769230769,4,1,0,30,0,0
57392,-200,4,1,0,30,0,0
57545,-105.263157894737,4,1,0,30,0,0
57698,-200,4,1,0,30,0,0
57851,-166.666666666667,4,1,0,30,0,0
58004,-200,4,1,0,30,0,0
59228,-133.333333333333,4,1,0,30,0,0
61371,-100,4,1,0,30,0,0
63208,-50,4,1,0,30,0,0
63285,-55.5555555555556,4,1,0,30,0,0
63361,-62.5,4,1,0,30,0,0
63438,-71.4285714285714,4,1,0,30,0,0
63514,-83.3333333333333,4,1,0,30,0,0
63591,-100,4,1,0,30,0,0
63667,-125,4,1,0,30,0,0
63820,-200,4,1,0,30,0,0
66269,-50,4,1,0,30,0,0
66423,-200,4,1,0,30,0,0
66729,-60.6060606060606,4,1,0,30,0,0
66882,-200,4,1,0,30,0,0
67035,-76.9230769230769,4,1,0,30,0,0
67188,-200,4,1,0,30,0,0
67341,-105.263157894737,4,1,0,30,0,0
67494,-200,4,1,0,30,0,0
67647,-166.666666666667,4,1,0,30,0,0
67800,-200,4,1,0,30,0,0
71167,-100,4,1,0,30,0,0
73004,-50,4,1,0,30,0,0
73081,-55.5555555555556,4,1,0,30,0,0
73157,-62.5,4,1,0,30,0,0
73234,-71.4285714285714,4,1,0,30,0,0
73310,-83.3333333333333,4,1,0,30,0,0
73387,-100,4,1,0,30,0,0
73463,-125,4,1,0,30,0,0
73616,-200,4,1,0,30,0,0
76065,-50,4,1,0,30,0,0
76219,-200,4,1,0,30,0,0
76525,-60.6060606060606,4,1,0,30,0,0
76678,-200,4,1,0,30,0,0
76831,-76.9230769230769,4,1,0,30,0,0
76984,-200,4,1,0,30,0,0
77137,-105.263157894737,4,1,0,30,0,0
77290,-200,4,1,0,30,0,0
77443,-166.666666666667,4,1,0,30,0,0
77596,-200,4,1,0,30,0,0
78825,-133.333333333333,4,1,0,30,0,0
80963,-100,4,1,0,30,0,0
82800,-50,4,1,0,30,0,0
82877,-55.5555555555556,4,1,0,30,0,0
82953,-62.5,4,1,0,30,0,0
83030,-71.4285714285714,4,1,0,30,0,0
83106,-83.3333333333333,4,1,0,30,0,0
83183,-100,4,1,0,30,0,0
83259,-125,4,1,0,30,0,0
83412,-270.27027027027,4,1,0,30,0,0
83417,-270.27027027027,4,1,0,30,0,0
90764,-200,4,1,0,30,0,0

[HitObjects]
256,192,5051,5,4,0:0:0:0:
256,192,5356,1,8,0:0:0:0:
256,192,5509,1,0,0:0:0:0:
256,192,5662,1,12,0:0:0:0:
256,192,5968,1,4,0:0:0:0:
256,192,6274,1,0,0:0:0:0:
256,192,6427,1,8,0:0:0:0:
256,192,6580,1,0,0:0:0:0:
256,192,6657,1,0,0:0:0:0:
256,192,6733,1,0,0:0:0:0:
256,192,6810,1,0,0:0:0:0:
256,192,6886,1,8,0:0:0:0:
256,192,7039,1,0,0:0:0:0:
256,192,7345,1,0,0:0:0:0:
256,192,7498,1,12,0:0:0:0:
256,192,7652,1,0,0:0:0:0:
256,192,7805,1,0,0:0:0:0:
256,192,7958,1,12,0:0:0:0:
256,192,8111,1,0,0:0:0:0:
256,192,8264,1,12,0:0:0:0:
256,192,8417,1,0,0:0:0:0:
256,192,8570,1,8,0:0:0:0:
256,192,8723,1,0,0:0:0:0:
256,192,8876,1,8,0:0:0:0:
256,192,9029,1,0,0:0:0:0:
256,192,9182,1,0,0:0:0:0:
256,192,9259,1,0,0:0:0:0:
256,192,9335,1,8,0:0:0:0:
256,192,9488,1,0,0:0:0:0:
256,192,9641,1,8,0:0:0:0:
256,192,9794,1,8,0:0:0:0:
256,192,9947,1,4,0:0:0:0:
256,192,10254,1,0,0:0:0:0:
256,192,10407,1,0,0:0:0:0:
256,192,10560,1,8,0:0:0:0:
256,192,10611,1,8,0:0:0:0:
256,192,10662,1,8,0:0:0:0:
256,192,10713,1,8,0:0:0:0:
256,192,10866,1,0,0:0:0:0:
256,192,11172,1,0,0:0:0:0:
256,192,11325,1,8,0:0:0:0:
256,192,11478,1,0,0:0:0:0:
256,192,11631,1,0,0:0:0:0:
256,192,11708,1,0,0:0:0:0:
256,192,11784,1,8,0:0:0:0:
256,192,11937,1,0,0:0:0:0:
256,192,12090,1,8,0:0:0:0:
256,192,12243,1,8,0:0:0:0:
256,192,12396,1,8,0:0:0:0:
256,192,12550,1,0,0:0:0:0:
256,192,12703,1,8,0:0:0:0:
256,192,12856,1,0,0:0:0:0:
256,192,13009,1,0,0:0:0:0:
256,192,13162,1,8,0:0:0:0:
256,192,13315,1,0,0:0:0:0:
256,192,13621,1,0,0:0:0:0:
256,192,13774,1,8,0:0:0:0:
256,192,13927,1,0,0:0:0:0:
256,192,14080,1,0,0:0:0:0:
256,192,14233,1,12,0:0:0:0:
256,192,14310,1,8,0:0:0:0:
256,192,14386,1,8,0:0:0:0:
256,192,14463,1,8,0:0:0:0:
256,192,14539,1,8,0:0:0:0:
256,192,14616,1,8,0:0:0:0:
256,192,14692,1,0,0:0:0:0:
256,192,14845,1,4,0:0:0:0:
256,192,14998,1,8,0:0:0:0:
256,192,15152,1,0,0:0:0:0:
256,192,15305,1,0,0:0:0:0:
256,192,15458,1,12,0:0:0:0:
256,192,15764,1,4,0:0:0:0:
256,192,16070,1,0,0:0:0:0:
256,192,16223,1,8,0:0:0:0:
256,192,16376,1,0,0:0:0:0:
256,192,16453,1,0,0:0:0:0:
256,192,16529,1,0,0:0:0:0:
256,192,16606,1,0,0:0:0:0:
256,192,16682,1,8,0:0:0:0:
256,192,16835,1,0,0:0:0:0:
256,192,17141,1,0,0:0:0:0:
256,192,17294,1,12,0:0:0:0:
256,192,17447,1,0,0:0:0:0:
256,192,17601,1,0,0:0:0:0:
256,192,17754,1,12,0:0:0:0:
256,192,17907,1,0,0:0:0:0:
256,192,18060,1,12,0:0:0:0:
256,192,18213,1,0,0:0:0:0:
256,192,18366,1,8,0:0:0:0:
256,192,18519,1,0,0:0:0:0:
256,192,18672,1,8,0:0:0:0:
256,192,18825,1,0,0:0:0:0:
256,192,18978,1,0,0:0:0:0:
256,192,19055,1,0,0:0:0:0:
256,192,19131,1,8,0:0:0:0:
256,192,19284,1,0,0:0:0:0:
256,192,19437,1,8,0:0:0:0:
256,192,19590,1,8,0:0:0:0:
256,192,19743,1,4,0:0:0:0:
256,192,20050,1,0,0:0:0:0:
256,192,20203,1,0,0:0:0:0:
256,192,20356,1,8,0:0:0:0:
256,192,20407,1,8,0:0:0:0:
256,192,20458,1,8,0:0:0:0:
256,192,20509,1,8,0:0:0:0:
256,192,20662,1,0,0:0:0:0:
256,192,20968,1,0,0:0:0:0:
256,192,21121,1,8,0:0:0:0:
256,192,21274,1,0,0:0:0:0:
256,192,21427,1,0,0:0:0:0:
256,192,21504,1,0,0:0:0:0:
256,192,21580,1,8,0:0:0:0:
256,192,21733,1,0,0:0:0:0:
256,192,21886,1,8,0:0:0:0:
256,192,22039,1,8,0:0:0:0:
256,192,22192,1,8,0:0:0:0:
256,192,22346,1,0,0:0:0:0:
256,192,22499,1,8,0:0:0:0:
256,192,22652,1,0,0:0:0:0:
256,192,22805,1,0,0:0:0:0:
256,192,22958,1,8,0:0:0:0:
256,192,23111,1,0,0:0:0:0:
256,192,23417,1,0,0:0:0:0:
256,192,23570,1,8,0:0:0:0:
256,192,23723,1,0,0:0:0:0:
256,192,23876,1,0,0:0:0:0:
256,192,24029,1,12,0:0:0:0:
256,192,24106,1,8,0:0:0:0:
256,192,24182,1,8,0:0:0:0:
256,192,24259,1,8,0:0:0:0:
256,192,24335,1,8,0:0:0:0:
256,192,24412,1,8,0:0:0:0:
256,192,24488,1,0,0:0:0:0:
256,192,24641,1,4,0:0:0:0:
256,192,24794,1,8,0:0:0:0:
256,192,24948,1,0,0:0:0:0:
256,192,25101,1,0,0:0:0:0:
256,192,25177,1,0,0:0:0:0:
256,192,25254,1,12,0:0:0:0:
256,192,25560,1,4,0:0:0:0:
256,192,25866,1,0,0:0:0:0:
256,192,26019,1,8,0:0:0:0:
256,192,26172,1,0,0:0:0:0:
256,192,26249,1,0,0:0:0:0:
256,192,26325,1,0,0:0:0:0:
256,192,26402,1,0,0:0:0:0:
256,192,26478,1,8,0:0:0:0:
256,192,26631,1,0,0:0:0:0:
256,192,26784,1,8,0:0:0:0:
256,192,26835,1,8,0:0:0:0:
256,192,26886,1,8,0:0:0:0:
256,192,26937,1,0,0:0:0:0:
256,192,27090,1,12,0:0:0:0:
256,192,27243,1,0,0:0:0:0:
256,192,27397,1,0,0:0:0:0:
256,192,27550,1,12,0:0:0:0:
256,192,27703,1,0,0:0:0:0:
256,192,27856,1,12,0:0:0:0:
256,192,28009,1,0,0:0:0:0:
256,192,28162,1,8,0:0:0:0:
256,192,28315,1,0,0:0:0:0:
256,192,28468,1,8,0:0:0:0:
256,192,28621,1,0,0:0:0:0:
256,192,28774,1,0,0:0:0:0:
256,192,28851,1,0,0:0:0:0:
256,192,28927,1,8,0:0:0:0:
256,192,29080,1,0,0:0:0:0:
256,192,29233,1,8,0:0:0:0:
256,192,29386,1,8,0:0:0:0:
256,192,29539,1,4,0:0:0:0:
256,192,29641,1,0,0:0:0:0:
256,192,29743,1,0,0:0:0:0:
256,192,29846,1,0,0:0:0:0:
256,192,29922,1,0,0:0:0:0:
256,192,29999,1,0,0:0:0:0:
256,192,30075,1,0,0:0:0:0:
256,192,30152,1,8,0:0:0:0:
256,192,30203,1,8,0:0:0:0:
256,192,30254,1,8,0:0:0:0:
256,192,30305,1,8,0:0:0:0:
256,192,30458,1,0,0:0:0:0:
256,192,30509,1,0,0:0:0:0:
256,192,30560,1,0,0:0:0:0:
256,192,30764,1,0,0:0:0:0:
256,192,30917,1,8,0:0:0:0:
256,192,31070,1,0,0:0:0:0:
256,192,31223,1,0,0:0:0:0:
256,192,31300,1,0,0:0:0:0:
256,192,31376,1,8,0:0:0:0:
256,192,31427,1,8,0:0:0:0:
256,192,31478,1,8,0:0:0:0:
256,192,31529,1,0,0:0:0:0:
256,192,31606,1,0,0:0:0:0:
256,192,31682,1,8,0:0:0:0:
256,192,31835,1,0,0:0:0:0:
256,192,31912,1,0,0:0:0:0:
256,192,31988,1,8,0:0:0:0:
256,192,32142,1,0,0:0:0:0:
256,192,32295,1,8,0:0:0:0:
256,192,32448,1,0,0:0:0:0:
256,192,32498,1,8,0:0:0:0:
256,192,32550,1,0,0:0:0:0:
256,192,32601,1,0,0:0:0:0:
256,192,32754,1,8,0:0:0:0:
256,192,32907,1,0,0:0:0:0:
256,192,33060,1,8,0:0:0:0:
256,192,33111,1,0,0:0:0:0:
256,192,33162,1,0,0:0:0:0:
256,192,33213,1,0,0:0:0:0:
256,192,33366,1,8,0:0:0:0:
256,192,33519,1,0,0:0:0:0:
256,192,33672,1,0,0:0:0:0:
256,192,33825,1,12,0:0:0:0:
256,192,33902,1,8,0:0:0:0:
256,192,33978,1,8,0:0:0:0:
256,192,34055,1,8,0:0:0:0:
256,192,34131,1,8,0:0:0:0:
256,192,34208,1,8,0:0:0:0:
256,192,34284,1,0,0:0:0:0:
256,192,34437,1,4,0:0:0:0:
256,192,34590,1,8,0:0:0:0:
256,192,34744,1,0,0:0:0:0:
256,192,34897,1,0,0:0:0:0:
256,192,34973,1,0,0:0:0:0:
256,192,35050,1,12,0:0:0:0:
256,192,35356,1,4,0:0:0:0:
256,192,35662,1,0,0:0:0:0:
256,192,35815,1,8,0:0:0:0:
256,192,35968,1,0,0:0:0:0:
256,192,36045,1,0,0:0:0:0:
256,192,36121,1,0,0:0:0:0:
256,192,36198,1,0,0:0:0:0:
256,192,36274,1,8,0:0:0:0:
256,192,36427,1,0,0:0:0:0:
256,192,36580,1,8,0:0:0:0:
256,192,36631,1,8,0:0:0:0:
256,192,36682,1,8,0:0:0:0:
256,192,36733,1,0,0:0:0:0:
256,192,36886,1,12,0:0:0:0:
256,192,37039,1,0,0:0:0:0:
256,192,37193,1,0,0:0:0:0:
256,192,37346,1,12,0:0:0:0:
256,192,37499,1,0,0:0:0:0:
256,192,37652,1,12,0:0:0:0:
256,192,37805,1,0,0:0:0:0:
256,192,37958,1,8,0:0:0:0:
256,192,38111,1,0,0:0:0:0:
256,192,38264,1,8,0:0:0:0:
256,192,38417,1,0,0:0:0:0:
256,192,38570,1,0,0:0:0:0:
256,192,38647,1,0,0:0:0:0:
256,192,38723,1,8,0:0:0:0:
256,192,38876,1,0,0:0:0:0:
256,192,39029,1,8,0:0:0:0:
256,192,39182,1,8,0:0:0:0:
256,192,39335,1,4,0:0:0:0:
256,192,39437,1,0,0:0:0:0:
256,192,39539,1,0,0:0:0:0:
256,192,39642,1,0,0:0:0:0:
256,192,39718,1,0,0:0:0:0:
256,192,39795,1,0,0:0:0:0:
256,192,39871,1,0,0:0:0:0:
256,192,39948,1,8,0:0:0:0:
256,192,39999,1,8,0:0:0:0:
256,192,40050,1,8,0:0:0:0:
256,192,40101,1,8,0:0:0:0:
256,192,40254,1,0,0:0:0:0:
256,192,40305,1,0,0:0:0:0:
256,192,40356,1,0,0:0:0:0:
256,192,40560,1,0,0:0:0:0:
256,192,40713,1,8,0:0:0:0:
256,192,40866,1,0,0:0:0:0:
256,192,41019,1,0,0:0:0:0:
256,192,41096,1,0,0:0:0:0:
256,192,41172,1,8,0:0:0:0:
256,192,41325,1,0,0:0:0:0:
256,192,41478,1,8,0:0:0:0:
256,192,41529,1,8,0:0:0:0:
256,192,41580,1,8,0:0:0:0:
256,192,41631,1,0,0:0:0:0:
256,192,41708,1,0,0:0:0:0:
256,192,41784,1,8,0:0:0:0:
256,192,41937,1,0,0:0:0:0:
256,192,42091,1,8,0:0:0:0:
256,192,42244,1,0,0:0:0:0:
256,192,42294,1,8,0:0:0:0:
256,192,42346,1,0,0:0:0:0:
256,192,42397,1,0,0:0:0:0:
256,192,42550,1,8,0:0:0:0:
256,192,42703,1,0,0:0:0:0:
256,192,42856,1,8,0:0:0:0:
256,192,42907,1,0,0:0:0:0:
256,192,42958,1,0,0:0:0:0:
256,192,43009,1,0,0:0:0:0:
256,192,43162,1,8,0:0:0:0:
256,192,43315,1,0,0:0:0:0:
256,192,43468,1,0,0:0:0:0:
256,192,43621,1,12,0:0:0:0:
256,192,43698,1,8,0:0:0:0:
256,192,43774,1,8,0:0:0:0:
256,192,43851,1,8,0:0:0:0:
256,192,43927,1,8,0:0:0:0:
256,192,44004,1,8,0:0:0:0:
256,192,44080,1,0,0:0:0:0:
256,192,44233,1,4,0:0:0:0:
256,192,44386,1,0,0:0:0:0:
256,192,44437,1,0,0:0:0:0:
256,192,44488,1,0,0:0:0:0:
256,192,44540,1,8,0:0:0:0:
256,192,44693,1,0,0:0:0:0:
256,192,44846,1,12,0:0:0:0:
256,192,45152,1,4,0:0:0:0:
256,192,45305,1,8,0:0:0:0:
256,192,45356,1,0,0:0:0:0:
256,192,45407,1,0,0:0:0:0:
256,192,45458,1,0,0:0:0:0:
256,192,45611,1,8,0:0:0:0:
256,192,45662,1,8,0:0:0:0:
256,192,45713,1,8,0:0:0:0:
256,192,45764,1,0,0:0:0:0:
256,192,45841,1,0,0:0:0:0:
256,192,45917,1,0,0:0:0:0:
256,192,45994,1,0,0:0:0:0:
256,192,46070,1,8,0:0:0:0:
256,192,46223,1,8,0:0:0:0:
256,192,46274,1,0,0:0:0:0:
256,192,46325,1,0,0:0:0:0:
256,192,46376,1,8,0:0:0:0:
256,192,46427,1,0,0:0:0:0:
256,192,46478,1,0,0:0:0:0:
256,192,46529,1,8,0:0:0:0:
256,192,46606,1,0,0:0:0:0:
256,192,46682,1,12,0:0:0:0:
256,192,46836,1,0,0:0:0:0:
256,192,46912,1,0,0:0:0:0:
256,192,46989,1,0,0:0:0:0:
256,192,47142,1,12,0:0:0:0:
256,192,47295,1,0,0:0:0:0:
256,192,47448,1,12,0:0:0:0:
256,192,47601,1,0,0:0:0:0:
256,192,47754,1,8,0:0:0:0:
256,192,47805,1,8,0:0:0:0:
256,192,47856,1,8,0:0:0:0:
256,192,47907,1,0,0:0:0:0:
256,192,47983,1,0,0:0:0:0:
256,192,48060,1,8,0:0:0:0:
256,192,48213,1,0,0:0:0:0:
256,192,48366,1,0,0:0:0:0:
256,192,48443,1,0,0:0:0:0:
256,192,48519,1,8,0:0:0:0:
256,192,48672,1,0,0:0:0:0:
256,192,48748,1,0,0:0:0:0:
256,192,48825,1,8,0:0:0:0:
256,192,48876,1,0,0:0:0:0:
256,192,48927,1,0,0:0:0:0:
256,192,48978,1,8,0:0:0:0:
256,192,49029,1,8,0:0:0:0:
256,192,49080,1,8,0:0:0:0:
256,192,49131,1,4,0:0:0:0:
256,192,49438,1,0,0:0:0:0:
256,192,49591,1,0,0:0:0:0:
256,192,49744,1,8,0:0:0:0:
256,192,49795,1,8,0:0:0:0:
256,192,49846,1,8,0:0:0:0:
256,192,49897,1,8,0:0:0:0:
256,192,50050,1,0,0:0:0:0:
256,192,50356,1,0,0:0:0:0:
256,192,50509,1,8,0:0:0:0:
256,192,50560,1,8,0:0:0:0:
256,192,50611,1,8,0:0:0:0:
256,192,50662,1,0,0:0:0:0:
256,192,50815,1,0,0:0:0:0:
256,192,50892,1,0,0:0:0:0:
256,192,50968,1,8,0:0:0:0:
256,192,51006,1,8,0:0:0:0:
256,192,51121,1,0,0:0:0:0:
256,192,51159,1,0,0:0:0:0:
256,192,51274,1,8,0:0:0:0:
256,192,51312,1,8,0:0:0:0:
256,192,51427,1,8,0:0:0:0:
256,192,51465,1,8,0:0:0:0:
256,192,51580,1,8,0:0:0:0:
256,192,51631,1,8,0:0:0:0:
256,192,51682,1,8,0:0:0:0:
256,192,51734,1,0,0:0:0:0:
256,192,51810,1,0,0:0:0:0:
256,192,51887,1,8,0:0:0:0:
256,192,51937,1,8,0:0:0:0:
256,192,51988,1,8,0:0:0:0:
256,192,52040,1,0,0:0:0:0:
256,192,52116,1,0,0:0:0:0:
256,192,52192,1,8,0:0:0:0:
256,192,52231,1,0,0:0:0:0:
256,192,52269,1,0,0:0:0:0:
256,192,52307,1,8,0:0:0:0:
256,192,52345,1,0,0:0:0:0:
256,192,52422,1,8,0:0:0:0:
256,192,52499,1,0,0:0:0:0:
256,192,52652,1,8,0:0:0:0:
256,192,52728,1,8,0:0:0:0:
256,192,52805,1,0,0:0:0:0:
256,192,52856,1,0,0:0:0:0:
256,192,52907,1,0,0:0:0:0:
256,192,52958,1,8,0:0:0:0:
256,192,53111,1,0,0:0:0:0:
256,192,53264,1,8,0:0:0:0:
256,192,53315,1,0,0:0:0:0:
256,192,53366,1,0,0:0:0:0:
256,192,53417,1,12,0:0:0:0:
256,192,53494,1,8,0:0:0:0:
256,192,53570,1,8,0:0:0:0:
256,192,53647,1,8,0:0:0:0:
256,192,53723,1,8,0:0:0:0:
256,192,53800,1,8,0:0:0:0:
256,192,53876,1,0,0:0:0:0:
256,192,54029,1,4,0:0:0:0:
256,192,54182,1,8,0:0:0:0:
256,192,54336,1,0,0:0:0:0:
256,192,54489,1,0,0:0:0:0:
256,192,54642,1,12,0:0:0:0:
256,192,54948,1,4,0:0:0:0:
256,192,55254,1,0,0:0:0:0:
256,192,55407,1,8,0:0:0:0:
256,192,55560,1,0,0:0:0:0:
256,192,55637,1,0,0:0:0:0:
256,192,55713,1,0,0:0:0:0:
256,192,55790,1,0,0:0:0:0:
256,192,55866,1,8,0:0:0:0:
256,192,56019,1,0,0:0:0:0:
256,192,56325,1,0,0:0:0:0:
256,192,56478,1,12,0:0:0:0:
256,192,56631,1,0,0:0:0:0:
256,192,56785,1,0,0:0:0:0:
256,192,56938,1,12,0:0:0:0:
256,192,57091,1,0,0:0:0:0:
256,192,57244,1,12,0:0:0:0:
256,192,57397,1,0,0:0:0:0:
256,192,57550,1,8,0:0:0:0:
256,192,57703,1,0,0:0:0:0:
256,192,57856,1,8,0:0:0:0:
256,192,58009,1,0,0:0:0:0:
256,192,58162,1,0,0:0:0:0:
256,192,58239,1,0,0:0:0:0:
256,192,58315,1,8,0:0:0:0:
256,192,58468,1,0,0:0:0:0:
256,192,58621,1,8,0:0:0:0:
256,192,58774,1,8,0:0:0:0:
256,192,58927,1,4,0:0:0:0:
256,192,59234,1,8,0:0:0:0:
256,192,59284,1,0,0:0:0:0:
256,192,59335,1,0,0:0:0:0:
256,192,59387,1,8,0:0:0:0:
256,192,59463,1,0,0:0:0:0:
256,192,59540,1,8,0:0:0:0:
256,192,59591,1,8,0:0:0:0:
256,192,59642,1,8,0:0:0:0:
256,192,59693,1,0,0:0:0:0:
256,192,59769,1,0,0:0:0:0:
256,192,59846,1,8,0:0:0:0:
256,192,59884,1,8,0:0:0:0:
256,192,59922,1,0,0:0:0:0:
256,192,59998,1,8,0:0:0:0:
256,192,60037,1,8,0:0:0:0:
256,192,60075,1,0,0:0:0:0:
256,192,60152,1,8,0:0:0:0:
256,192,60203,1,0,0:0:0:0:
256,192,60254,1,0,0:0:0:0:
256,192,60305,1,8,0:0:0:0:
256,192,60381,1,8,0:0:0:0:
256,192,60458,1,8,0:0:0:0:
256,192,60509,1,0,0:0:0:0:
256,192,60560,1,0,0:0:0:0:
256,192,60611,1,8,0:0:0:0:
256,192,60688,1,0,0:0:0:0:
256,192,60764,1,8,0:0:0:0:
256,192,60802,1,8,0:0:0:0:
256,192,60840,1,8,0:0:0:0:
256,192,60879,1,8,0:0:0:0:
256,192,60917,1,0,0:0:0:0:
256,192,60993,1,0,0:0:0:0:
256,192,61070,1,8,0:0:0:0:
256,192,61121,1,0,0:0:0:0:
256,192,61172,1,0,0:0:0:0:
256,192,61223,1,8,0:0:0:0:
256,192,61300,1,8,0:0:0:0:
256,192,61376,1,0,0:0:0:0:
256,192,61530,1,0,0:0:0:0:
256,192,61606,1,0,0:0:0:0:
256,192,61683,1,8,0:0:0:0:
256,192,61733,1,8,0:0:0:0:
256,192,61784,1,8,0:0:0:0:
256,192,61836,1,0,0:0:0:0:
256,192,61912,1,8,0:0:0:0:
256,192,61989,1,0,0:0:0:0:
256,192,62039,1,0,0:0:0:0:
256,192,62090,1,0,0:0:0:0:
256,192,62142,1,8,0:0:0:0:
256,192,62180,1,8,0:0:0:0:
256,192,62218,1,8,0:0:0:0:
256,192,62256,1,8,0:0:0:0:
256,192,62295,1,0,0:0:0:0:
256,192,62447,1,8,0:0:0:0:
256,192,62524,1,8,0:0:0:0:
256,192,62601,1,0,0:0:0:0:
256,192,62652,1,0,0:0:0:0:
256,192,62703,1,0,0:0:0:0:
256,192,62754,1,8,0:0:0:0:
256,192,62830,1,8,0:0:0:0:
256,192,62907,1,0,0:0:0:0:
256,192,62945,1,0,0:0:0:0:
256,192,63060,1,0,0:0:0:0:
256,192,63098,1,0,0:0:0:0:
256,192,63213,1,12,0:0:0:0:
256,192,63290,1,8,0:0:0:0:
256,192,63366,1,8,0:0:0:0:
256,192,63443,1,8,0:0:0:0:
256,192,63519,1,8,0:0:0:0:
256,192,63596,1,8,0:0:0:0:
256,192,63672,1,0,0:0:0:0:
256,192,63825,1,4,0:0:0:0:
256,192,63978,1,0,0:0:0:0:
256,192,64029,1,0,0:0:0:0:
256,192,64080,1,0,0:0:0:0:
256,192,64132,1,8,0:0:0:0:
256,192,64285,1,0,0:0:0:0:
256,192,64438,1,12,0:0:0:0:
256,192,64744,1,4,0:0:0:0:
256,192,64897,1,8,0:0:0:0:
256,192,64948,1,0,0:0:0:0:
256,192,64999,1,0,0:0:0:0:
256,192,65050,1,0,0:0:0:0:
256,192,65203,1,8,0:0:0:0:
256,192,65254,1,8,0:0:0:0:
256,192,65305,1,8,0:0:0:0:
256,192,65356,1,0,0:0:0:0:
256,192,65433,1,0,0:0:0:0:
256,192,65509,1,0,0:0:0:0:
256,192,65586,1,0,0:0:0:0:
256,192,65662,1,8,0:0:0:0:
256,192,65815,1,8,0:0:0:0:
256,192,65866,1,0,0:0:0:0:
256,192,65917,1,0,0:0:0:0:
256,192,65968,1,8,0:0:0:0:
256,192,66019,1,0,0:0:0:0:
256,192,66070,1,0,0:0:0:0:
256,192,66121,1,8,0:0:0:0:
256,192,66198,1,0,0:0:0:0:
256,192,66274,1,12,0:0:0:0:
256,192,66428,1,0,0:0:0:0:
256,192,66504,1,0,0:0:0:0:
256,192,66581,1,0,0:0:0:0:
256,192,66734,1,12,0:0:0:0:
256,192,66887,1,0,0:0:0:0:
256,192,67040,1,12,0:0:0:0:
256,192,67193,1,0,0:0:0:0:
256,192,67346,1,8,0:0:0:0:
256,192,67397,1,8,0:0:0:0:
256,192,67448,1,8,0:0:0:0:
256,192,67499,1,0,0:0:0:0:
256,192,67575,1,0,0:0:0:0:
256,192,67652,1,8,0:0:0:0:
256,192,67805,1,0,0:0:0:0:
256,192,67958,1,0,0:0:0:0:
256,192,68035,1,0,0:0:0:0:
256,192,68111,1,8,0:0:0:0:
256,192,68149,1,8,0:0:0:0:
256,192,68264,1,0,0:0:0:0:
256,192,68340,1,0,0:0:0:0:
256,192,68417,1,8,0:0:0:0:
256,192,68468,1,0,0:0:0:0:
256,192,68519,1,0,0:0:0:0:
256,192,68570,1,8,0:0:0:0:
256,192,68621,1,8,0:0:0:0:
256,192,68672,1,8,0:0:0:0:
256,192,68723,1,4,0:0:0:0:
256,192,69030,1,0,0:0:0:0:
256,192,69183,1,0,0:0:0:0:
256,192,69336,1,8,0:0:0:0:
256,192,69387,1,8,0:0:0:0:
256,192,69438,1,8,0:0:0:0:
256,192,69489,1,8,0:0:0:0:
256,192,69642,1,0,0:0:0:0:
256,192,69948,1,0,0:0:0:0:
256,192,70101,1,8,0:0:0:0:
256,192,70152,1,8,0:0:0:0:
256,192,70203,1,8,0:0:0:0:
256,192,70254,1,0,0:0:0:0:
256,192,70407,1,0,0:0:0:0:
256,192,70484,1,0,0:0:0:0:
256,192,70560,1,8,0:0:0:0:
256,192,70598,1,8,0:0:0:0:
256,192,70713,1,0,0:0:0:0:
256,192,70751,1,0,0:0:0:0:
256,192,70866,1,8,0:0:0:0:
256,192,70904,1,8,0:0:0:0:
256,192,71019,1,8,0:0:0:0:
256,192,71057,1,8,0:0:0:0:
256,192,71172,1,8,0:0:0:0:
256,192,71223,1,8,0:0:0:0:
256,192,71274,1,8,0:0:0:0:
256,192,71326,1,0,0:0:0:0:
256,192,71402,1,0,0:0:0:0:
256,192,71479,1,8,0:0:0:0:
256,192,71529,1,8,0:0:0:0:
256,192,71580,1,8,0:0:0:0:
256,192,71632,1,0,0:0:0:0:
256,192,71708,1,0,0:0:0:0:
256,192,71784,1,8,0:0:0:0:
256,192,71823,1,0,0:0:0:0:
256,192,71861,1,0,0:0:0:0:
256,192,71899,1,8,0:0:0:0:
256,192,71937,1,0,0:0:0:0:
256,192,72014,1,8,0:0:0:0:
256,192,72091,1,0,0:0:0:0:
256,192,72244,1,8,0:0:0:0:
256,192,72320,1,8,0:0:0:0:
256,192,72397,1,0,0:0:0:0:
256,192,72448,1,0,0:0:0:0:
256,192,72499,1,0,0:0:0:0:
256,192,72550,1,8,0:0:0:0:
256,192,72703,1,0,0:0:0:0:
256,192,72856,1,8,0:0:0:0:
256,192,72907,1,0,0:0:0:0:
256,192,72958,1,0,0:0:0:0:
256,192,73009,1,12,0:0:0:0:
256,192,73086,1,8,0:0:0:0:
256,192,73162,1,8,0:0:0:0:
256,192,73239,1,8,0:0:0:0:
256,192,73315,1,8,0:0:0:0:
256,192,73392,1,8,0:0:0:0:
256,192,73468,1,0,0:0:0:0:
256,192,73621,1,4,0:0:0:0:
256,192,73774,1,0,0:0:0:0:
256,192,73825,1,0,0:0:0:0:
256,192,73876,1,0,0:0:0:0:
256,192,73928,1,8,0:0:0:0:
256,192,74081,1,0,0:0:0:0:
256,192,74234,1,12,0:0:0:0:
256,192,74540,1,4,0:0:0:0:
256,192,74693,1,8,0:0:0:0:
256,192,74744,1,0,0:0:0:0:
256,192,74795,1,0,0:0:0:0:
256,192,74846,1,0,0:0:0:0:
256,192,74999,1,8,0:0:0:0:
256,192,75050,1,8,0:0:0:0:
256,192,75101,1,8,0:0:0:0:
256,192,75152,1,0,0:0:0:0:
256,192,75229,1,0,0:0:0:0:
256,192,75305,1,0,0:0:0:0:
256,192,75382,1,0,0:0:0:0:
256,192,75458,1,8,0:0:0:0:
256,192,75611,1,8,0:0:0:0:
256,192,75662,1,0,0:0:0:0:
256,192,75713,1,0,0:0:0:0:
256,192,75764,1,8,0:0:0:0:
256,192,75815,1,0,0:0:0:0:
256,192,75866,1,0,0:0:0:0:
256,192,75917,1,8,0:0:0:0:
256,192,75994,1,0,0:0:0:0:
256,192,76070,1,12,0:0:0:0:
256,192,76224,1,0,0:0:0:0:
256,192,76300,1,0,0:0:0:0:
256,192,76377,1,0,0:0:0:0:
256,192,76530,1,12,0:0:0:0:
256,192,76683,1,0,0:0:0:0:
256,192,76836,1,12,0:0:0:0:
256,192,76989,1,0,0:0:0:0:
256,192,77142,1,8,0:0:0:0:
256,192,77193,1,8,0:0:0:0:
256,192,77244,1,8,0:0:0:0:
256,192,77295,1,0,0:0:0:0:
256,192,77371,1,0,0:0:0:0:
256,192,77448,1,8,0:0:0:0:
256,192,77601,1,0,0:0:0:0:
256,192,77754,1,0,0:0:0:0:
256,192,77831,1,0,0:0:0:0:
256,192,77907,1,8,0:0:0:0:
256,192,77945,1,8,0:0:0:0:
256,192,78060,1,0,0:0:0:0:
256,192,78136,1,0,0:0:0:0:
256,192,78213,1,8,0:0:0:0:
256,192,78264,1,0,0:0:0:0:
256,192,78315,1,0,0:0:0:0:
256,192,78366,1,8,0:0:0:0:
256,192,78417,1,8,0:0:0:0:
256,192,78468,1,8,0:0:0:0:
256,192,78519,1,4,0:0:0:0:
256,192,78825,1,8,0:0:0:0:
256,192,78875,1,0,0:0:0:0:
256,192,78926,1,0,0:0:0:0:
256,192,78978,1,8,0:0:0:0:
256,192,79054,1,0,0:0:0:0:
256,192,79131,1,8,0:0:0:0:
256,192,79182,1,8,0:0:0:0:
256,192,79233,1,8,0:0:0:0:
256,192,79284,1,0,0:0:0:0:
256,192,79360,1,0,0:0:0:0:
256,192,79437,1,8,0:0:0:0:
256,192,79475,1,8,0:0:0:0:
256,192,79513,1,0,0:0:0:0:
256,192,79589,1,8,0:0:0:0:
256,192,79628,1,8,0:0:0:0:
256,192,79666,1,0,0:0:0:0:
256,192,79743,1,8,0:0:0:0:
256,192,79794,1,0,0:0:0:0:
256,192,79845,1,0,0:0:0:0:
256,192,79896,1,8,0:0:0:0:
256,192,79972,1,8,0:0:0:0:
256,192,80049,1,8,0:0:0:0:
256,192,80100,1,0,0:0:0:0:
256,192,80151,1,0,0:0:0:0:
256,192,80202,1,8,0:0:0:0:
256,192,80279,1,0,0:0:0:0:
256,192,80355,1,8,0:0:0:0:
256,192,80393,1,8,0:0:0:0:
256,192,80431,1,8,0:0:0:0:
256,192,80470,1,8,0:0:0:0:
256,192,80508,1,0,0:0:0:0:
256,192,80584,1,0,0:0:0:0:
256,192,80661,1,8,0:0:0:0:
256,192,80712,1,0,0:0:0:0:
256,192,80763,1,0,0:0:0:0:
256,192,80814,1,8,0:0:0:0:
256,192,80891,1,8,0:0:0:0:
256,192,80967,1,0,0:0:0:0:
256,192,81121,1,0,0:0:0:0:
256,192,81197,1,0,0:0:0:0:
256,192,81274,1,8,0:0:0:0:
256,192,81324,1,8,0:0:0:0:
256,192,81375,1,8,0:0:0:0:
256,192,81427,1,0,0:0:0:0:
256,192,81503,1,8,0:0:0:0:
256,192,81580,1,0,0:0:0:0:
256,192,81630,1,0,0:0:0:0:
256,192,81681,1,0,0:0:0:0:
256,192,81733,1,8,0:0:0:0:
256,192,81771,1,8,0:0:0:0:
256,192,81809,1,8,0:0:0:0:
256,192,81847,1,8,0:0:0:0:
256,192,81886,1,0,0:0:0:0:
256,192,82038,1,8,0:0:0:0:
256,192,82115,1,8,0:0:0:0:
256,192,82192,1,0,0:0:0:0:
256,192,82243,1,0,0:0:0:0:
256,192,82294,1,0,0:0:0:0:
256,192,82345,1,8,0:0:0:0:
256,192,82421,1,8,0:0:0:0:
256,192,82498,1,0,0:0:0:0:
256,192,82536,1,0,0:0:0:0:
256,192,82651,1,0,0:0:0:0:
256,192,82689,1,0,0:0:0:0:
256,192,82804,1,12,0:0:0:0:
256,192,82881,1,8,0:0:0:0:
256,192,82957,1,8,0:0:0:0:
256,192,83034,1,8,0:0:0:0:
256,192,83110,1,8,0:0:0:0:
256,192,83187,1,8,0:0:0:0:
256,192,83263,1,0,0:0:0:0:
256,192,83417,1,4,0:0:0:0:
256,192,83621,1,8,0:0:0:0:
256,192,83825,1,0,0:0:0:0:
256,192,84029,1,8,0:0:0:0:
256,192,84233,1,8,0:0:0:0:
256,192,84437,1,0,0:0:0:0:
256,192,84641,1,0,0:0:0:0:
256,192,84845,1,8,0:0:0:0:
256,192,85050,1,8,0:0:0:0:
256,192,85254,1,8,0:0:0:0:
256,192,85458,1,0,0:0:0:0:
256,192,85661,1,8,0:0:0:0:
256,192,85712,1,8,0:0:0:0:
256,192,85763,1,8,0:0:0:0:
256,192,85814,1,8,0:0:0:0:
256,192,85866,1,0,0:0:0:0:
256,192,86070,1,8,0:0:0:0:
256,192,86274,1,0,0:0:0:0:
256,192,86478,1,8,0:0:0:0:
256,192,86682,1,0,0:0:0:0:
256,192,86886,1,8,0:0:0:0:
256,192,87090,1,0,0:0:0:0:
256,192,87294,1,8,0:0:0:0:
256,192,87498,1,8,0:0:0:0:
256,192,87703,1,0,0:0:0:0:
256,192,87770,1,0,0:0:0:0:
256,192,87838,1,0,0:0:0:0:
256,192,87907,1,0,0:0:0:0:
256,192,88111,1,0,0:0:0:0:
256,192,88162,1,0,0:0:0:0:
256,192,88213,1,0,0:0:0:0:
256,192,88264,1,0,0:0:0:0:
256,192,88316,1,8,0:0:0:0:
256,192,88519,1,8,0:0:0:0:
256,192,88723,1,0,0:0:0:0:
256,192,88927,1,8,0:0:0:0:
256,192,89029,1,8,0:0:0:0:
256,192,89131,1,0,0:0:0:0:
256,192,89335,1,8,0:0:0:0:
256,192,89539,1,0,0:0:0:0:
256,192,89743,1,8,0:0:0:0:
256,192,89947,1,0,0:0:0:0:
256,192,90152,1,8,0:0:0:0:
256,192,90219,1,8,0:0:0:0:
256,192,90287,1,8,0:0:0:0:
256,192,90356,1,0,0:0:0:0:
256,192,90560,1,8,0:0:0:0:
256,192,90610,1,0,0:0:0:0:
256,192,90661,1,0,0:0:0:0:
256,192,90712,1,8,0:0:0:0:
256,192,90764,1,0,0:0:0:0:
224,192,90788,1,0,0:0:0:0:
256,192,90917,1,0,0:0:0:0:
256,192,91070,1,8,0:0:0:0:
256,192,91223,1,0,0:0:0:0:
256,192,91681,1,0,0:0:0:0:
224,192,91706,1,0,0:0:0:0:
256,192,91835,1,8,0:0:0:0:
256,192,91987,1,0,0:0:0:0:
224,192,92012,1,0,0:0:0:0:
256,192,92141,1,8,0:0:0:0:
256,192,92293,1,0,0:0:0:0:
224,192,92318,1,0,0:0:0:0:
256,192,92447,1,0,0:0:0:0:
256,192,92601,1,8,0:0:0:0:
256,192,92754,1,0,0:0:0:0:
256,192,93060,1,8,0:0:0:0:
256,192,93211,1,0,0:0:0:0:
224,192,93236,1,0,0:0:0:0:
256,192,93366,1,0,0:0:0:0:
256,192,93519,1,8,0:0:0:0:
256,192,93672,1,0,0:0:0:0:
256,192,93978,1,8,0:0:0:0:
256,192,94130,1,0,0:0:0:0:
224,192,94155,1,0,0:0:0:0:
256,192,94284,1,8,0:0:0:0:
256,192,94437,1,8,0:0:0:0:
256,192,94589,1,0,0:0:0:0:
224,192,94614,1,0,0:0:0:0:
256,192,94742,1,0,0:0:0:0:
224,192,94767,1,0,0:0:0:0:
256,192,95050,1,8,0:0:0:0:
256,192,95203,1,0,0:0:0:0:
256,192,95356,1,0,0:0:0:0:
256,192,95509,1,8,0:0:0:0:
256,192,95662,1,0,0:0:0:0:
224,192,95687,1,0,0:0:0:0:
256,192,95815,1,0,0:0:0:0:
256,192,95968,1,8,0:0:0:0:
256,192,96120,1,0,0:0:0:0:
256,192,96580,1,0,0:0:0:0:
224,192,96605,1,0,0:0:0:0:
256,192,96733,1,8,0:0:0:0:
256,192,96886,1,0,0:0:0:0:
224,192,96911,1,0,0:0:0:0:
256,192,97039,1,8,0:0:0:0:
256,192,97192,1,0,0:0:0:0:
224,192,97217,1,0,0:0:0:0:
256,192,97345,1,0,0:0:0:0:
256,192,97498,1,8,0:0:0:0:
256,192,97652,1,0,0:0:0:0:
256,192,97805,1,8,0:0:0:0:
256,192,97856,1,8,0:0:0:0:
256,192,97907,1,8,0:0:0:0:
256,192,97958,1,8,0:0:0:0:
256,192,98111,1,0,0:0:0:0:
224,192,98136,1,0,0:0:0:0:
256,192,98264,1,0,0:0:0:0:
256,192,98417,1,8,0:0:0:0:
256,192,98570,1,0,0:0:0:0:
256,192,98876,1,8,0:0:0:0:
256,192,99029,1,0,0:0:0:0:
224,192,99054,1,0,0:0:0:0:
256,192,99182,1,8,0:0:0:0:
256,192,99335,1,8,0:0:0:0:
256,192,99488,1,0,0:0:0:0:
224,192,99513,1,0,0:0:0:0:
256,192,99641,1,0,0:0:0:0:
224,192,99666,1,0,0:0:0:0:
256,192,99794,1,8,0:0:0:0:
256,192,99947,1,8,0:0:0:0:
256,192,100101,1,0,0:0:0:0:
256,192,100254,1,8,0:0:0:0:
256,192,100305,1,8,0:0:0:0:
256,192,100356,1,8,0:0:0:0:
256,192,100407,1,8,0:0:0:0:
256,192,100444,1,8,0:0:0:0:
256,192,100482,1,8,0:0:0:0:
256,192,100520,1,8,0:0:0:0:
256,192,100560,1,4,0:0:0:0:
