osu file format v14

[General]
AudioFilename: audio.mp3
AudioLeadIn: 0
PreviewTime: 216816
Countdown: 0
SampleSet: Soft
StackLeniency: 0.7
Mode: 0
LetterboxInBreaks: 0
WidescreenStoryboard: 0

[Editor]
Bookmarks: 138369,269720,373504
DistanceSpacing: 1.6
BeatDivisor: 3
GridSize: 4
TimelineZoom: 0.4

[Metadata]
Title:voice
TitleUnicode:voice
Artist:Koharu Meu
ArtistUnicode:小春めう
Creator:Garden
Version:serenity
Source:
Tags:narcissu luminous world solfa
BeatmapID:1850357
BeatmapSetID:885312

[Difficulty]
HPDrainRate:4
CircleSize:4.5
OverallDifficulty:5
ApproachRate:6
SliderMultiplier:1.5
SliderTickRate:1

[Events]
//Background and Video events
0,0,"ew.jpg",0,0
//Break Periods
//Storyboard Layer 0 (Background)
//Storyboard Layer 1 (Fail)
//Storyboard Layer 2 (Pass)
//Storyboard Layer 3 (Foreground)
//Storyboard Sound Samples

[TimingPoints]
19992,810.810810810811,4,2,1,25,1,0
22964,-100,4,2,1,10,0,0
23235,-100,4,2,1,25,0,0
29451,-100,4,2,1,10,0,0
29721,-166.666666666667,4,2,1,25,0,0
32964,-100,4,2,1,25,0,0
57289,-166.666666666667,4,2,1,25,0,0
60532,810.810810810811,4,2,1,25,1,0
86477,-100,4,2,1,40,0,0
96207,-125,4,2,1,40,0,0
98910,-100,4,2,1,40,0,0
109180,-166.666666666667,4,2,1,40,0,0
110802,-100,4,2,1,40,0,0
122153,-125,4,2,1,40,0,0
124856,-100,4,2,1,40,0,0
138369,-100,4,2,1,30,0,0
164315,-100,4,2,1,25,0,0
188640,-166.666666666667,4,2,1,25,0,0
191883,810.810810810811,4,2,1,35,1,0
217828,-100,4,2,1,40,0,0
227558,-125,4,2,1,40,0,0
230261,-100,4,2,1,40,0,0
240531,-166.666666666667,4,2,1,40,0,0
242153,-100,4,2,1,40,0,0
253504,-125,4,2,1,40,0,0
256207,-100,4,2,1,40,0,0
270531,-100,4,2,1,25,0,0
295666,-100,4,2,1,30,0,0
300531,-133.333333333333,4,2,1,30,0,0
301342,-100,4,2,1,30,0,0
307008,-133.333333333333,4,2,1,30,0,0
307828,-100,4,2,1,30,0,0
318369,-166.666666666667,4,2,1,30,0,0
320801,-166.666666666667,4,2,1,30,0,0
321612,-100,4,2,1,40,0,0
375126,-100,4,2,1,25,0,0
392964,860.95566078347,4,2,1,25,1,0
395546,944.88188976378,4,2,1,25,1,0
396490,967.741935483871,4,2,1,25,1,0
397457,1071.42857142857,4,2,1,25,1,0
398528,1200,4,2,1,25,1,0
398528,-125,4,2,2,25,0,0
398777,-125,4,2,1,5,0,0
400928,-125,4,2,1,25,0,0
401177,-125,4,2,1,5,0,0

[Colours]
Combo1 : 255,198,170
Combo2 : 172,172,255
Combo3 : 185,217,255
Combo4 : 251,185,194

[HitObjects]
73,267,19991,6,0,P|70:243|64:219,2,50,2|2|0,0:0|0:0|0:0,0:0:0:0:
131,326,20802,1,2,0:0:0:0:
131,326,21073,2,0,P|163:317|204:312,1,50,2|0,0:0|0:0,0:0:0:0:
283,270,21613,2,0,P|259:265|235:259,1,50,2|0,0:0|0:0,0:0:0:0:
296,370,22154,2,0,P|355:321|428:330,1,150,2|0,0:0|0:0,0:0:0:0:
512,329,23235,5,2,0:0:0:0:
512,329,23505,2,0,P|498:362|494:382,1,50,2|0,0:0|0:0,0:0:0:0:
440,255,24046,1,2,0:0:0:0:
440,255,24316,2,0,P|433:230|422:208,1,50,2|0,0:0|0:0,0:0:0:0:
504,67,24856,2,0,P|457:122|384:124,1,150,2|0,0:0|0:0,0:0:0:0:
324,72,25937,2,0,P|328:47|336:23,1,50,2|0,0:0|0:0,0:0:0:0:
242,161,26478,6,0,P|218:168|193:172,2,50,2|2|0,0:0|0:0|0:0,0:0:0:0:
316,201,27289,1,2,0:0:0:0:
316,201,27559,2,0,P|349:207|383:210,1,50,2|0,0:0|0:0,0:0:0:0:
242,161,28100,2,0,P|234:137|231:112,1,50,2|0,0:0|0:0,0:0:0:0:
153,0,28640,2,0,P|160:72|109:123,1,150,2|0,0:0|0:0,0:0:0:0:
109,123,29721,6,0,P|64:117|19:115,2,89.9999972534181,2|2|2,0:0|0:0|0:0,0:0:0:0:
109,123,32964,5,2,0:0:0:0:
185,75,34586,1,2,0:0:0:0:
185,75,35397,2,0,P|188:50|193:25,2,50,2|2|0,0:0|0:0|0:0,0:0:0:0:
247,125,36208,5,2,0:0:0:0:
247,125,37019,2,0,P|296:117|346:113,1,100,2|0,0:0|0:0,0:0:0:0:
381,28,37829,2,0,P|433:78|507:79,1,150,2|2,0:0|0:0,0:0:0:0:
417,158,38910,2,0,P|406:180|399:204,1,50,2|0,0:0|0:0,0:0:0:0:
456,261,39451,6,0,P|482:257|507:257,2,50,2|0|0,0:0|0:0|0:0,0:0:0:0:
405,324,40262,2,0,P|356:324|319:291,1,100,2|0,0:0|0:0,0:0:0:0:
248,195,41073,2,0,P|244:244|239:294,1,100,2|0,0:0|0:0,0:0:0:0:
228,372,41883,1,2,0:0:0:0:
38,278,42694,5,2,0:0:0:0:
38,278,44316,2,0,P|89:328|161:319,1,150,2|2,0:0|0:0,0:0:0:0:
248,195,45937,5,2,0:0:0:0:
248,195,47559,2,0,P|177:207|120:156,1,150,2|2,0:0|0:0,0:0:0:0:
51,121,48640,2,0,P|27:128|2:133,1,50,2|0,0:0|0:0,0:0:0:0:
97,54,49181,1,2,0:0:0:0:
97,54,49992,6,0,P|152:61|209:66,1,100,2|0,0:0|0:0,0:0:0:0:
259,117,50802,2,0,P|336:119|382:67,1,150,2|2,0:0|0:0,0:0:0:0:
468,58,51883,2,0,P|461:82|457:106,1,50
407,192,52424,6,0,P|431:186|456:184,2,50,2|2|0,0:0|0:0|0:0,0:0:0:0:
353,249,53235,2,0,P|302:242|248:232,1,100,2|0,0:0|0:0,0:0:0:0:
157,205,54046,2,0,P|114:228|109:276,1,100,2|0,0:0|0:0,0:0:0:0:
179,379,54856,2,0,P|184:329|188:279,1,100,2|0,0:0|0:0,0:0:0:0:
157,205,55667,5,2,0:0:0:0:
109,276,56478,1,2,0:0:0:0:
94,133,57289,2,0,P|156:194|243:187,1,179.999994506836,2|2,0:0|0:0,0:0:0:0:
81,39,60532,6,0,L|31:46,1,50,2|0,0:0|0:0,0:0:0:0:
152,78,61072,2,0,L|201:70,1,50,0|2,0:0|0:0,0:0:0:0:
352,280,62153,6,0,P|339:301|336:326,2,50,2|0|0,0:0|0:0|0:0,0:0:0:0:
411,229,62964,1,2,0:0:0:0:
431,39,63775,6,0,L|480:46,1,50,2|0,0:0|0:0,0:0:0:0:
360,78,64315,2,0,L|310:70,1,50,0|2,0:0|0:0,0:0:0:0:
160,280,65396,6,0,P|172:301|175:326,2,50,2|0|0,0:0|0:0|0:0,0:0:0:0:
101,229,66207,1,2,0:0:0:0:
101,229,66477,2,0,P|70:234|48:235,1,50
157,163,67018,6,0,P|168:142|177:106,1,50,2|0,0:0|0:0,0:0:0:0:
116,62,67559,2,0,P|106:38|101:14,1,50,0|2,0:0|0:0,0:0:0:0:
376,117,68640,6,0,L|429:112,2,50,2|0|0,0:0|0:0|0:0,0:0:0:0:
300,125,69450,1,2,0:0:0:0:
410,369,70261,6,0,P|405:345|396:322,1,50,2|0,0:0|0:0,0:0:0:0:
336,267,70802,2,0,P|343:243|355:221,1,50,0|2,0:0|0:0,0:0:0:0:
136,267,71883,6,0,L|85:274,2,50,2|0|0,0:0|0:0|0:0,0:0:0:0:
212,259,72694,1,2,0:0:0:0:
212,259,72964,2,0,P|223:285|228:309,1,50
321,216,73504,6,0,P|296:209|274:198,1,50,2|0,0:0|0:0,0:0:0:0:
215,146,74045,1,0,0:0:0:0:
215,146,74315,2,0,P|258:86|258:12,1,150,2|2,0:0|0:0,0:0:0:0:
258,12,75396,2,0,P|234:16|209:19,1,50
345,43,75937,1,2,0:0:0:0:
345,43,76748,6,0,P|336:75|336:92,1,50,2|0,0:0|0:0,0:0:0:0:
413,121,77288,1,0,0:0:0:0:
413,121,77559,2,0,P|470:167|458:246,1,150,2|2,0:0|0:0,0:0:0:0:
463,237,78640,2,0,L|406:230,1,50
298,271,79180,1,2,0:0:0:0:
298,271,79450,2,0,L|356:278,1,50
428,367,79991,6,0,P|415:337|415:314,2,50,2|0|0,0:0|0:0|0:0,0:0:0:0:
495,323,80802,1,2,0:0:0:0:
224,371,81613,5,2,0:0:0:0:
224,371,81883,2,0,L|169:365,1,50
110,322,82423,1,2,0:0:0:0:
110,322,83234,6,0,L|116:261,1,50,2|0,0:0|0:0,0:0:0:0:
81,199,83775,1,0,0:0:0:0:
81,199,84045,2,0,P|138:245|217:238,1,150,2|2,0:0|0:0,0:0:0:0:
322,193,85126,2,0,L|273:187,1,50
222,127,85667,2,0,P|234:81|243:21,1,100,2|0,0:0|0:0,0:0:0:0:
160,57,86477,6,0,P|212:111|300:96,1,150,6|0,0:0|0:0,0:0:0:0:
355,54,87559,2,0,P|350:29|348:4,1,50,2|0,0:0|0:0,0:0:0:0:
509,108,88099,2,0,P|436:105|386:158,1,150,2|2,0:0|0:0,0:0:0:0:
313,210,89180,2,0,P|318:241|321:269,1,50
404,304,89721,6,0,P|459:274|513:285,2,100,2|2|2,0:0|0:0|0:0,0:0:0:0:
328,346,91072,1,0,0:0:0:0:
328,346,91342,2,0,B|249:361|265:286|168:326,1,150,2|2,0:0|0:0,0:0:0:0:
186,319,92694,5,0,0:0:0:0:
101,337,92964,2,0,P|91:360|85:384,1,50,2|0,0:0|0:0,0:0:0:0:
0,195,93504,2,0,P|53:245|126:249,1,150,2|0,0:0|0:0,0:0:0:0:
198,196,94586,2,0,P|191:146|187:96,1,100,2|0,0:0|0:0,0:0:0:0:
244,24,95396,1,0,0:0:0:0:
244,24,95937,5,0,0:0:0:0:
377,90,96207,2,0,P|318:84|271:120,3,120,2|0|2|2,0:0|0:0|0:0|0:0,0:0:0:0:
269,205,98910,2,0,P|299:200|328:199,1,50
409,212,99450,6,0,P|444:245|445:294,1,100,2|0,0:0|0:0,0:0:0:0:
352,334,100261,1,2,0:0:0:0:
352,334,100532,2,0,P|355:309|360:284,1,50,2|0,0:0|0:0,0:0:0:0:
453,137,101072,2,0,P|397:185|325:178,1,150,2|2,0:0|0:0,0:0:0:0:
325,178,102423,5,0,0:0:0:0:
253,141,102694,2,0,P|259:103|265:38,1,100,2|0,0:0|0:0,0:0:0:0:
115,0,103504,1,2,0:0:0:0:
115,0,103775,2,0,P|109:24|106:49,1,50,2|0,0:0|0:0,0:0:0:0:
180,91,104315,2,0,P|107:77|44:116,1,150,2|2,0:0|0:0,0:0:0:0:
0,202,105396,2,0,P|27:198|63:196,1,50
132,229,105937,6,0,P|157:270|151:319,1,100,2|0,0:0|0:0,0:0:0:0:
268,384,106748,2,0,P|242:341|249:293,1,100,2|0,0:0|0:0,0:0:0:0:
301,226,107559,1,2,0:0:0:0:
301,226,108099,1,0,0:0:0:0:
146,144,108369,2,0,P|195:152|244:159,1,100,2|0,0:0|0:0,0:0:0:0:
301,226,109180,6,0,P|383:245|446:178,1,179.999994506836,2|2,0:0|0:0,0:0:0:0:
444,182,111613,1,2,0:0:0:0:
501,123,111883,2,0,L|497:71,1,50
429,198,112423,6,0,P|421:289|471:328,1,150,6|2,0:0|0:0,0:0:0:0:
373,370,113504,2,0,L|309:364,1,50
258,310,114045,2,0,P|196:322|108:335,1,150,2|2,0:0|0:0,0:0:0:0:
27,336,115126,2,0,P|19:359|16:384,1,50
0,243,115667,5,2,0:0:0:0:
0,243,116207,1,2,0:0:0:0:
0,243,116748,2,0,P|24:251|58:255,1,50,2|0,0:0|0:0,0:0:0:0:
112,191,117288,2,0,P|167:143|239:150,1,150,2|2,0:0|0:0,0:0:0:0:
239,150,118640,5,0,0:0:0:0:
303,213,118910,2,0,P|296:237|292:261,1,50,2|0,0:0|0:0,0:0:0:0:
364,315,119450,2,0,P|436:322|491:274,1,150,2|0,0:0|0:0,0:0:0:0:
492,176,120532,2,0,P|452:206|407:228,1,100,2|0,0:0|0:0,0:0:0:0:
440,100,121342,1,2,0:0:0:0:
440,100,121883,5,0,0:0:0:0:
381,28,122153,2,0,P|348:76|356:134,3,120,2|0|2|2,0:0|0:0|0:0|0:0,0:0:0:0:
488,112,124856,2,0,L|440:100,1,50
283,16,125396,6,0,P|225:32|172:41,1,100,2|0,0:0|0:0,0:0:0:0:
88,112,126207,1,2,0:0:0:0:
88,112,126477,2,0,P|97:84|103:56,1,50,2|0,0:0|0:0,0:0:0:0:
241,109,127018,2,0,P|284:159|280:196,1,100,2|0,0:0|0:0,0:0:0:0:
209,237,127829,2,0,P|159:234|109:227,1,100,2|0,0:0|0:0,0:0:0:0:
289,363,128640,6,0,P|354:370|416:297,3,150,2|2|2|2,0:0|0:0|0:0|0:0,0:0:0:0:
211,322,131342,2,0,P|204:339|196:369,1,50
254,240,131883,6,0,P|197:286|124:279,1,150,2|2,0:0|0:0,0:0:0:0:
124,279,133234,1,0,0:0:0:0:
25,345,133504,2,0,P|36:296|42:246,1,100,2|0,0:0|0:0,0:0:0:0:
0,126,134315,2,0,P|35:159|84:160,1,100,2|0,0:0|0:0,0:0:0:0:
158,97,135126,6,0,L|151:46,2,50,2|0|0,0:0|0:0|0:0,0:0:0:0:
170,184,135937,1,2,0:0:0:0:
170,184,136748,6,0,L|238:173,2,50,2|0|0,0:0|0:0|0:0,0:0:0:0:
113,246,137559,1,2,0:0:0:0:
113,246,137829,2,0,P|101:272|98:297,1,50
187,384,138369,6,0,P|184:361|173:335,1,50,6|0,0:0|0:0,0:0:0:0:
225,276,138910,1,0,0:0:0:0:
286,325,139180,2,0,P|316:335|349:340,1,50,2|0,0:0|0:0,0:0:0:0:
395,288,139721,1,0,0:0:0:0:
395,288,139991,2,0,P|425:280|456:279,2,50,2|0|0,0:0|0:0|0:0,0:0:0:0:
343,229,140802,1,2,0:0:0:0:
343,229,141613,5,2,0:0:0:0:
397,173,141883,2,0,P|389:149|373:130,1,50,2|0,0:0|0:0,0:0:0:0:
337,8,142423,1,2,0:0:0:0:
309,83,142694,2,0,P|290:99|267:108,1,50,2|0,0:0|0:0,0:0:0:0:
191,81,143234,6,0,L|202:26,2,50,2|0|0,0:0|0:0|0:0,0:0:0:0:
123,125,144045,1,2,0:0:0:0:
123,125,144315,2,0,L|110:194,1,50
72,292,144856,5,2,0:0:0:0:
140,252,145126,2,0,P|168:248|200:248,1,50
264,276,145667,2,0,P|280:300|292:328,2,50,2|2|0,0:0|0:0|0:0,0:0:0:0:
368,212,146478,2,0,P|356:240|352:272,2,50,2|0|0,0:0|0:0|0:0,0:0:0:0:
432,260,147288,1,2,0:0:0:0:
432,260,148100,5,2,0:0:0:0:
492,208,148370,2,0,P|492:180|499:158,1,50,2|0,0:0|0:0,0:0:0:0:
436,108,148911,1,2,0:0:0:0:
436,108,149181,2,0,P|429:83|418:61,1,50,2|0,0:0|0:0,0:0:0:0:
282,19,149721,2,0,P|283:90|348:120,1,150,2|0,0:0|0:0,0:0:0:0:
308,196,150802,2,0,L|304:246,1,50,2|0,0:0|0:0,0:0:0:0:
208,136,151343,6,0,P|180:152|160:168,2,50,6|2|0,0:0|0:0|0:0,0:0:0:0:
112,100,152154,1,2,0:0:0:0:
112,100,152424,2,0,P|89:127|76:156,1,50,2|0,0:0|0:0,0:0:0:0:
136,240,152964,1,2,0:0:0:0:
136,240,153234,2,0,P|145:263|149:287,1,50
32,324,153775,1,2,0:0:0:0:
32,324,154586,6,0,L|40:268,1,50,2|0,0:0|0:0,0:0:0:0:
52,196,155127,1,0,0:0:0:0:
52,196,155397,2,0,P|48:171|40:136,1,50,2|0,0:0|0:0,0:0:0:0:
124,84,155938,1,0,0:0:0:0:
124,84,156208,2,0,P|128:56|144:16,2,50,2|0|0,0:0|0:0|0:0,0:0:0:0:
188,132,157018,2,0,P|216:136|256:152,2,50,2|0|0,0:0|0:0|0:0,0:0:0:0:
50,196,157829,5,2,0:0:0:0:
121,232,158099,2,0,P|149:229|184:221,1,50,2|0,0:0|0:0,0:0:0:0:
235,271,158640,1,2,0:0:0:0:
235,271,158911,2,0,P|230:306|231:338,1,50,2|0,0:0|0:0,0:0:0:0:
319,282,159450,2,0,P|317:257|313:232,1,50,2|0,0:0|0:0,0:0:0:0:
236,142,159992,2,0,P|321:137|351:80,1,150,2|0,0:0|0:0,0:0:0:0:
428,48,161073,5,2,0:0:0:0:
428,48,161343,2,0,L|435:108,1,50,2|0,0:0|0:0,0:0:0:0:
491,155,161884,1,2,0:0:0:0:
491,155,162154,2,0,L|483:236,1,50,2|0,0:0|0:0,0:0:0:0:
476,284,162694,1,2,0:0:0:0:
412,236,163504,1,2,0:0:0:0:
486,204,164315,5,2,0:0:0:0:
240,296,165937,1,2,0:0:0:0:
240,296,166748,2,0,P|237:271|232:246,2,50,2|2|0,0:0|0:0|0:0,0:0:0:0:
160,284,167559,5,2,0:0:0:0:
160,284,168370,2,0,P|140:240|96:204,1,100,2|0,0:0|0:0,0:0:0:0:
28,124,169180,2,0,P|112:124|180:84,1,150,2|2,0:0|0:0,0:0:0:0:
232,44,170261,2,0,P|256:32|288:28,1,50,2|0,0:0|0:0,0:0:0:0:
393,77,170802,6,0,P|368:77|344:72,2,50,2|0|0,0:0|0:0|0:0,0:0:0:0:
472,60,171613,2,0,P|480:132|492:160,1,100,2|0,0:0|0:0,0:0:0:0:
392,164,172424,2,0,P|392:213|383:263,1,100,2|0,0:0|0:0,0:0:0:0:
332,324,173234,1,2,0:0:0:0:
120,320,174045,5,2,0:0:0:0:
120,320,175667,2,0,P|171:270|243:279,1,150,2|2,0:0|0:0,0:0:0:0:
424,184,177288,5,2,0:0:0:0:
424,184,178910,2,0,P|344:180|276:148,1,150,2|2,0:0|0:0,0:0:0:0:
220,100,179991,2,0,P|196:107|171:112,1,50,2|0,0:0|0:0,0:0:0:0:
84,100,180532,1,2,0:0:0:0:
84,100,181343,6,0,P|96:152|80:224,1,100,2|0,0:0|0:0,0:0:0:0:
4,236,182153,2,0,P|81:234|127:286,1,150,2|2,0:0|0:0,0:0:0:0:
204,256,183234,2,0,P|208:292|208:316,1,50
296,316,183775,6,0,P|320:322|345:324,2,50,2|2|0,0:0|0:0|0:0,0:0:0:0:
332,240,184586,2,0,P|315:195|315:139,1,100,2|0,0:0|0:0,0:0:0:0:
416,84,185397,2,0,P|424:136|388:184,1,100,2|0,0:0|0:0,0:0:0:0:
336,64,186207,2,0,P|286:59|236:55,1,100,2|0,0:0|0:0,0:0:0:0:
156,48,187018,5,2,0:0:0:0:
260,132,187829,1,2,0:0:0:0:
16,148,188640,2,0,P|101:128|176:173,1,179.999994506836,2|2,0:0|0:0,0:0:0:0:
176,173,191072,1,2,0:0:0:0:
304,64,191883,6,0,L|300:120,1,50,6|0,0:0|0:0,0:0:0:0:
387,54,192423,2,0,L|384:104,1,50,0|2,0:0|0:0,0:0:0:0:
492,188,193504,6,0,P|463:178|432:180,2,50,2|0|0,0:0|0:0|0:0,0:0:0:0:
452,260,194315,1,2,0:0:0:0:
285,253,195126,6,0,L|280:204,1,50,2|0,0:0|0:0,0:0:0:0:
204,284,195666,2,0,L|200:234,1,50,0|2,0:0|0:0,0:0:0:0:
268,64,196747,6,0,P|274:39|275:14,2,50,2|0|0,0:0|0:0|0:0,0:0:0:0:
199,106,197558,1,2,0:0:0:0:
199,106,197828,2,0,L|135:110,1,50
240,176,198369,6,0,P|248:204|256:248,1,50,2|0,0:0|0:0,0:0:0:0:
188,284,198910,2,0,P|180:312|176:336,1,50,0|2,0:0|0:0,0:0:0:0:
408,268,199991,6,0,L|404:212,2,50,2|0|0,0:0|0:0|0:0,0:0:0:0:
412,348,200801,1,2,0:0:0:0:
472,168,201612,6,0,L|480:116,1,50,2|0,0:0|0:0,0:0:0:0:
396,100,202153,2,0,L|400:40,1,50,0|2,0:0|0:0,0:0:0:0:
132,96,203234,6,0,L|72:85,2,50,2|0|0,0:0|0:0|0:0,0:0:0:0:
208,88,204045,1,2,0:0:0:0:
208,88,204315,2,0,P|219:114|224:138,1,50
332,212,204855,6,0,P|307:205|285:194,1,50,6|0,0:0|0:0,0:0:0:0:
200,216,205396,1,0,0:0:0:0:
200,216,205666,2,0,P|157:276|157:350,1,150,2|2,0:0|0:0,0:0:0:0:
72,336,206747,2,0,L|68:284,1,50
60,208,207288,1,2,0:0:0:0:
104,28,208099,6,0,L|94:76,1,50,2|0,0:0|0:0,0:0:0:0:
168,120,208639,1,0,0:0:0:0:
168,120,208910,2,0,P|232:112|304:156,1,150,2|2,0:0|0:0,0:0:0:0:
399,225,209991,2,0,P|388:203|380:180,1,50
476,120,210531,1,2,0:0:0:0:
476,120,210801,2,0,P|469:155|448:192,1,50
396,96,211342,6,0,L|392:40,2,50,2|0|0,0:0|0:0|0:0,0:0:0:0:
320,128,212153,1,2,0:0:0:0:
124,56,212964,5,2,0:0:0:0:
124,56,213234,2,0,L|179:62,1,50
252,72,213774,1,2,0:0:0:0:
40,48,214585,6,0,L|35:97,1,50,2|0,0:0|0:0,0:0:0:0:
28,176,215126,1,0,0:0:0:0:
28,176,215396,2,0,P|85:222|164:215,1,150,2|2,0:0|0:0,0:0:0:0:
240,300,216477,2,0,L|191:294,1,50
284,232,217018,2,0,P|330:220|388:232,1,100,2|0,0:0|0:0,0:0:0:0:
496,152,217828,6,0,P|423:154|373:101,1,150,6|0,0:0|0:0,0:0:0:0:
292,96,218910,2,0,L|224:88,1,50,2|0,0:0|0:0,0:0:0:0:
132,16,219450,2,0,P|160:84|120:180,1,150,2|2,0:0|0:0,0:0:0:0:
60,168,220531,2,0,L|48:236,1,50
105,294,221072,6,0,L|5:303,2,100,2|2|2,0:0|0:0|0:0,0:0:0:0:
160,224,222423,1,0,0:0:0:0:
160,224,222693,2,0,B|216:284|297:251,1,150,2|2,0:0|0:0,0:0:0:0:
297,250,224045,5,0,0:0:0:0:
372,276,224315,2,0,P|382:299|388:323,1,50,2|0,0:0|0:0,0:0:0:0:
332,180,224855,2,0,P|344:96|412:40,1,150,2|0,0:0|0:0,0:0:0:0:
304,96,225937,2,0,P|252:112|196:108,1,100,2|0,0:0|0:0,0:0:0:0:
132,88,226747,1,2,0:0:0:0:
132,88,227288,5,0,0:0:0:0:
80,232,227558,2,0,P|86:173|50:126,3,120,2|2|2|2,0:0|0:0|0:0|0:0,0:0:0:0:
164,160,230261,2,0,L|172:232,1,50
184,288,230801,6,0,L|288:272,1,100,6|0,0:0|0:0,0:0:0:0:
384,320,231612,1,2,0:0:0:0:
384,320,231883,2,0,P|388:295|391:270,1,50,2|0,0:0|0:0,0:0:0:0:
288,184,232423,2,0,P|360:190|415:142,1,150,2|2,0:0|0:0,0:0:0:0:
415,141,233774,5,0,0:0:0:0:
348,8,234045,2,0,P|343:57|336:107,1,100,2|0,0:0|0:0,0:0:0:0:
208,220,234855,1,2,0:0:0:0:
208,220,235126,2,0,P|204:196|200:168,1,50,2|0,0:0|0:0,0:0:0:0:
248,80,235666,2,0,P|175:66|112:120,1,150,2|2,0:0|0:0,0:0:0:0:
4,148,236747,2,0,P|33:155|60:178,1,50
52,248,237288,6,0,L|52:355,1,100,2|0,0:0|0:0,0:0:0:0:
188,376,238099,2,0,L|184:268,1,100,2|0,0:0|0:0,0:0:0:0:
244,220,238910,1,2,0:0:0:0:
244,220,239450,1,0,0:0:0:0:
401,213,239720,2,0,P|364:245|315:255,1,100,2|0,0:0|0:0,0:0:0:0:
328,168,240531,6,0,P|424:128|484:184,1,179.999994506836,2|2,0:0|0:0,0:0:0:0:
476,168,242964,1,2,0:0:0:0:
400,96,243234,2,0,L|396:44,1,50
328,168,243774,6,0,P|280:208|168:196,1,150,6|2,0:0|0:0,0:0:0:0:
132,164,244855,2,0,L|68:158,1,50
32,96,245396,2,0,P|44:158|57:246,1,150,2|2,0:0|0:0,0:0:0:0:
12,308,246477,2,0,P|4:331|1:356,1,50
136,268,247018,5,2,0:0:0:0:
136,268,247558,1,2,0:0:0:0:
136,268,248099,2,0,L|204:264,1,50,2|0,0:0|0:0,0:0:0:0:
292,324,248639,2,0,P|280:240|328:180,1,150,2|2,0:0|0:0,0:0:0:0:
314,189,249991,5,0,0:0:0:0:
416,256,250261,2,0,P|388:268|356:272,1,50,2|0,0:0|0:0,0:0:0:0:
424,176,250801,2,0,L|436:20,1,150,2|0,0:0|0:0,0:0:0:0:
323,89,251883,2,0,L|311:209,1,100,2|0,0:0|0:0,0:0:0:0:
208,204,252693,1,2,0:0:0:0:
208,204,253234,5,0,0:0:0:0:
200,120,253504,2,0,L|192:-8,3,120,2|2|2|2,0:0|0:0|0:0|0:0,0:0:0:0:
112,32,256207,2,0,L|104:92,1,50
32,112,256747,6,0,P|4:160|16:220,1,100,6|0,0:0|0:0,0:0:0:0:
68,256,257558,1,2,0:0:0:0:
68,256,257828,2,0,P|96:248|124:248,1,50,2|0,0:0|0:0,0:0:0:0:
240,200,258369,2,0,P|191:191|135:139,1,100,2|0,0:0|0:0,0:0:0:0:
320,180,259180,2,0,P|317:230|284:272,1,100,2|0,0:0|0:0,0:0:0:0:
408,152,259991,6,0,P|412:244|464:312,3,150,2|2|2|2,0:0|0:0|0:0|0:0,0:0:0:0:
336,288,262693,2,0,P|340:318|340:344,1,50
256,320,263234,6,0,P|199:274|126:281,1,150,2|2,0:0|0:0,0:0:0:0:
126,280,264585,1,0,0:0:0:0:
25,345,264855,2,0,P|40:300|36:244,1,100,2|0,0:0|0:0,0:0:0:0:
132,171,265666,2,0,P|82:171|43:141,1,100,2|0,0:0|0:0,0:0:0:0:
188,116,266477,6,0,L|188:60,2,50,2|0|0,0:0|0:0|0:0,0:0:0:0:
248,168,267288,1,2,0:0:0:0:
248,168,268099,6,0,L|240:228,2,50,2|0|0,0:0|0:0|0:0,0:0:0:0:
344,96,268910,1,2,0:0:0:0:
344,96,269180,2,0,L|356:20,1,50
445,143,269720,5,6,0:0:0:0:
445,143,270531,1,2,0:0:0:0:
445,143,271342,2,0,L|454:244,1,100,2|0,0:0|0:0,0:0:0:0:
404,303,272153,2,0,P|360:278|311:277,1,100,2|0,0:0|0:0,0:0:0:0:
193,311,272964,6,0,L|185:360,2,50,2|0|0,0:0|0:0|0:0,0:0:0:0:
266,345,273774,1,2,0:0:0:0:
49,245,274585,6,0,L|41:294,2,50,2|0|0,0:0|0:0|0:0,0:0:0:0:
114,199,275396,2,0,P|140:198|170:182,2,50,2|0|0,0:0|0:0|0:0,0:0:0:0:
56,141,276207,6,0,L|45:36,1,100,2|0,0:0|0:0,0:0:0:0:
128,0,277018,2,0,L|138:99,1,100,2|0,0:0|0:0,0:0:0:0:
216,135,277828,1,2,0:0:0:0:
216,135,278099,2,0,P|248:127|279:108,1,50
317,61,278639,2,0,P|362:82|410:93,1,100,2|0,0:0|0:0,0:0:0:0:
464,153,279450,6,0,P|489:144|512:142,2,50,2|0|0,0:0|0:0|0:0,0:0:0:0:
400,197,280261,2,0,L|393:296,1,100,2|0,0:0|0:0,0:0:0:0:
324,335,281072,2,0,L|328:384,2,50,2|0|0,0:0|0:0|0:0,0:0:0:0:
259,286,281883,1,2,0:0:0:0:
259,286,282153,2,0,P|229:291|206:306,1,50
102,383,282693,6,0,P|126:340|128:291,1,100,2|0,0:0|0:0,0:0:0:0:
99,218,283504,1,2,0:0:0:0:
99,218,284315,6,0,L|0:210,1,100,2|0,0:0|0:0,0:0:0:0:
152,158,285126,1,2,0:0:0:0:
152,158,285937,6,0,P|166:136|169:107,1,50,2|0,0:0|0:0,0:0:0:0:
136,45,286477,1,0,0:0:0:0:
136,45,286747,1,2,0:0:0:0:
318,144,287558,6,0,L|386:135,1,50,2|0,0:0|0:0,0:0:0:0:
448,127,288099,1,0,0:0:0:0:
448,127,288369,2,0,P|456:108|457:70,2,50,2|0|0,0:0|0:0|0:0,0:0:0:0:
421,204,289180,5,2,0:0:0:0:
421,204,289450,2,0,P|434:231|435:260,1,50
408,326,289991,1,2,0:0:0:0:
142,292,290801,5,2,0:0:0:0:
142,292,291072,2,0,L|203:285,1,50
257,243,291612,1,2,0:0:0:0:
257,243,292423,6,0,L|249:184,1,50,2|0,0:0|0:0,0:0:0:0:
290,120,292964,1,0,0:0:0:0:
290,120,293234,2,0,P|246:158|148:160,1,150,2|2,0:0|0:0,0:0:0:0:
157,163,294315,2,0,L|165:103,1,50
63,29,294855,1,2,0:0:0:0:
62,28,295126,2,0,P|79:45|103:54,1,50,2|0,0:0|0:0,0:0:0:0:
231,66,295666,6,0,P|286:58|346:51,1,100,6|0,0:0|0:0,0:0:0:0:
404,17,296477,1,2,0:0:0:0:
404,17,297018,1,2,0:0:0:0:
473,62,297288,2,0,P|449:105|447:155,1,100,2|0,0:0|0:0,0:0:0:0:
389,275,298099,2,0,P|386:225|363:181,1,100,2|0,0:0|0:0,0:0:0:0:
299,130,298910,5,2,0:0:0:0:
447,155,299720,1,2,0:0:0:0:
291,211,300531,2,0,P|242:212|178:181,1,112.500004291535,2|2,0:0|0:0,0:0:0:0:
94,274,301612,2,0,P|116:264|141:261,1,50
19,234,302153,6,0,P|51:190|58:126,1,100,2|0,0:0|0:0,0:0:0:0:
16,81,302964,1,2,0:0:0:0:
16,81,303504,1,2,0:0:0:0:
77,20,303774,2,0,P|123:26|179:32,1,100,2|0,0:0|0:0,0:0:0:0:
231,93,304585,2,0,P|275:64|319:70,1,100,2|0,0:0|0:0,0:0:0:0:
387,113,305396,5,2,0:0:0:0:
387,113,306207,1,2,0:0:0:0:
387,113,307018,2,0,L|377:229,1,112.500004291535,2|2,0:0|0:0,0:0:0:0:
437,283,308099,2,0,L|502:269,1,50
371,335,308639,6,0,P|329:308|275:312,1,100,6|0,0:0|0:0,0:0:0:0:
213,355,309450,1,2,0:0:0:0:
213,355,309991,1,2,0:0:0:0:
119,285,310261,2,0,P|126:335|132:384,1,100,2|2,0:0|0:0,0:0:0:0:
33,269,311072,1,2,0:0:0:0:
33,269,311612,1,2,0:0:0:0:
91,206,311883,6,0,P|152:249|229:248,1,150,2|2,0:0|0:0,0:0:0:0:
225,249,313234,1,0,0:0:0:0:
293,202,313504,2,0,L|285:96,1,100,2|0,0:0|0:0,0:0:0:0:
374,31,314315,1,2,0:0:0:0:
374,31,314585,2,0,L|366:100,1,50,2|0,0:0|0:0,0:0:0:0:
231,41,315126,6,0,B|144:27|176:94|92:74,1,150,2|0,0:0|0:0,0:0:0:0:
92,74,316207,2,0,L|105:-5,1,50,2|0,0:0|0:0,0:0:0:0:
21,125,316747,2,0,P|61:187|60:261,1,150,2|2,0:0|0:0,0:0:0:0:
60,261,317828,2,0,L|0:255,1,50
126,325,318369,6,0,P|204:343|280:279,1,179.999994506836,2|2,0:0|0:0,0:0:0:0:
277,284,320801,2,0,L|268:366,1,59.9999981689454,2|0,0:0|0:0,0:0:0:0:
448,279,321612,6,0,P|399:279|358:252,1,100,6|0,0:0|0:0,0:0:0:0:
363,111,322423,1,2,0:0:0:0:
309,179,322693,2,0,P|285:186|260:189,1,50
189,139,323234,2,0,L|195:82,2,50,2|0|0,0:0|0:0|0:0,0:0:0:0:
116,186,324045,1,2,0:0:0:0:
52,127,324315,2,0,P|28:119|3:116,1,50
105,53,324855,5,2,0:0:0:0:
105,53,325396,1,2,0:0:0:0:
105,53,325937,2,0,P|98:36|98:-4,1,50,2|0,0:0|0:0,0:0:0:0:
194,89,326477,1,2,0:0:0:0:
194,89,326747,2,0,L|264:81,1,50
312,28,327288,2,0,P|358:45|408:49,1,100,2|0,0:0|0:0,0:0:0:0:
408,49,328099,6,0,L|401:-9,1,50,2|0,0:0|0:0,0:0:0:0:
497,126,328639,2,0,P|422:128|356:162,1,150,2|0,0:0|0:0,0:0:0:0:
295,226,329720,1,2,0:0:0:0:
295,226,329991,2,0,P|303:249|309:273,1,50
377,384,330531,2,0,P|381:334|398:287,1,100,2|0,0:0|0:0,0:0:0:0:
287,355,331342,5,2,0:0:0:0:
287,355,331612,2,0,P|256:353|232:347,1,50,2|0,0:0|0:0,0:0:0:0:
180,289,332153,1,2,0:0:0:0:
180,289,332423,2,0,P|157:298|132:302,1,50,2|0,0:0|0:0,0:0:0:0:
50,280,332964,6,0,L|43:329,2,50,2|0|0,0:0|0:0|0:0,0:0:0:0:
14,203,333774,1,2,0:0:0:0:
14,203,334045,2,0,L|21:153,1,50
139,45,334585,6,0,P|107:82|104:132,1,100,6|0,0:0|0:0,0:0:0:0:
187,170,335396,1,2,0:0:0:0:
187,170,335666,2,0,P|215:167|238:155,1,50
330,87,336207,2,0,L|279:84,2,50,2|0|0,0:0|0:0|0:0,0:0:0:0:
408,49,337018,2,0,P|417:98|397:143,1,100,2|0,0:0|0:0,0:0:0:0:
326,192,337828,6,0,L|317:308,1,100,2|0,0:0|0:0,0:0:0:0:
444,384,338639,1,2,0:0:0:0:
509,325,338910,2,0,L|513:275,1,50
444,384,339450,2,0,P|413:360|340:365,1,100,2|0,0:0|0:0,0:0:0:0:
315,290,340261,1,2,0:0:0:0:
315,290,340531,2,0,P|285:301|245:300,1,50
140,384,341072,6,0,P|179:321|180:247,1,150,2|2,0:0|0:0,0:0:0:0:
180,247,342423,1,0,0:0:0:0:
7,302,342693,2,0,L|109:294,1,100,2|0,0:0|0:0,0:0:0:0:
252,201,343504,2,0,P|214:169|165:164,1,100,2|0,0:0|0:0,0:0:0:0:
84,62,344315,5,2,0:0:0:0:
84,62,344585,2,0,P|94:91|98:126,1,50
180,71,345126,2,0,P|253:83|329:81,1,150,2|2,0:0|0:0,0:0:0:0:
440,21,346207,2,0,P|415:17|391:19,1,50
417,106,346747,1,2,0:0:0:0:
417,106,347018,2,0,P|428:128|433:152,1,50
337,267,347558,6,0,L|349:146,1,100,6|0,0:0|0:0,0:0:0:0:
424,255,348369,1,2,0:0:0:0:
424,255,348639,2,0,L|417:322,1,50
358,366,349180,2,0,P|334:375|310:376,2,50,2|0|0,0:0|0:0|0:0,0:0:0:0:
270,250,349991,1,2,0:0:0:0:
238,331,350261,2,0,P|213:329|190:320,1,50
125,202,350801,5,2,0:0:0:0:
125,202,351342,1,2,0:0:0:0:
125,202,351883,2,0,L|131:261,1,50,2|0,0:0|0:0,0:0:0:0:
67,372,352423,1,2,0:0:0:0:
33,293,352693,2,0,P|34:268|42:244,1,50
147,128,353234,2,0,P|107:156|57:157,1,100,2|0,0:0|0:0,0:0:0:0:
183,48,354045,6,0,P|203:62|219:81,1,50,2|0,0:0|0:0,0:0:0:0:
319,60,354585,2,0,P|292:137|278:216,1,150,2|0,0:0|0:0,0:0:0:0:
349,263,355666,1,2,0:0:0:0:
349,263,355937,2,0,L|408:255,1,50,2|0,0:0|0:0,0:0:0:0:
303,340,356477,2,0,P|254:342|210:320,1,100,2|0,0:0|0:0,0:0:0:0:
349,263,357288,5,2,0:0:0:0:
349,263,357558,2,0,L|408:255,1,50,2|0,0:0|0:0,0:0:0:0:
398,171,358099,1,2,0:0:0:0:
398,171,358369,2,0,L|457:163,1,50,2|0,0:0|0:0,0:0:0:0:
454,78,358910,1,2,0:0:0:0:
454,78,359180,2,0,L|513:70,1,50,2|0,0:0|0:0,0:0:0:0:
289,52,359720,1,2,0:0:0:0:
358,0,359991,2,0,P|370:22|375:47,1,50,2|0,0:0|0:0,0:0:0:0:
176,159,360531,6,0,P|219:136|269:137,1,100,6|0,0:0|0:0,0:0:0:0:
390,220,361342,1,2,0:0:0:0:
465,175,361612,2,0,L|470:110,1,50,2|0,0:0|0:0,0:0:0:0:
390,219,362153,2,0,P|356:285|369:358,1,150,2|2,0:0|0:0,0:0:0:0:
368,357,363504,1,0,0:0:0:0:
448,301,363774,6,0,P|373:291|300:276,1,150,2|2,0:0|0:0,0:0:0:0:
300,276,365126,1,0,0:0:0:0:
231,337,365396,2,0,P|161:348|97:302,1,150,2|2,0:0|0:0,0:0:0:0:
99,304,366477,2,0,L|89:371,1,50
184,260,367018,5,2,0:0:0:0:
184,260,367288,2,0,L|194:195,1,50
114,170,367828,2,0,P|98:123|106:74,1,100,2|0,0:0|0:0,0:0:0:0:
10,13,368639,2,0,P|17:61|1:108,1,100,2|0,0:0|0:0,0:0:0:0:
105,74,369450,2,0,L|219:63,1,100,2|0,0:0|0:0,0:0:0:0:
308,10,370261,5,2,0:0:0:0:
308,9,370531,2,0,P|295:31|290:54,1,50,2|0,0:0|0:0,0:0:0:0:
212,113,371072,5,2,0:0:0:0:
212,113,371342,2,0,P|204:89|204:64,1,50,2|0,0:0|0:0,0:0:0:0:
146,174,371883,5,2,0:0:0:0:
145,173,372153,2,0,P|158:194|175:211,1,50,2|0,0:0|0:0,0:0:0:0:
188,310,372693,5,2,0:0:0:0:
188,310,372964,2,0,P|163:304|141:292,1,50,2|0,0:0|0:0,0:0:0:0:
260,252,373504,5,6,0:0:0:0:
424,312,375126,1,2,0:0:0:0:
424,312,375937,2,0,P|428:287|431:262,2,50,2|2|0,0:0|0:0|0:0,0:0:0:0:
344,328,376747,5,2,0:0:0:0:
500,208,377558,2,0,P|457:182|407:175,1,100,2|0,0:0|0:0,0:0:0:0:
312,240,378369,2,0,P|329:168|297:102,1,150,2|2,0:0|0:0,0:0:0:0:
216,92,379450,2,0,L|152:84,1,50,2|0,0:0|0:0,0:0:0:0:
104,136,379991,6,0,L|54:139,2,50,2|0|0,0:0|0:0|0:0,0:0:0:0:
156,196,380801,2,0,P|164:248|144:308,1,100,2|0,0:0|0:0,0:0:0:0:
248,252,381612,2,0,P|256:316|284:356,1,100,2|0,0:0|0:0,0:0:0:0:
352,348,382423,1,2,0:0:0:0:
472,172,383234,5,2,0:0:0:0:
472,172,384855,2,0,P|408:200|316:188,1,150,2|2,0:0|0:0,0:0:0:0:
312,52,386477,5,2,0:0:0:0:
312,52,388099,2,0,P|240:40|156:72,1,150,2|2,0:0|0:0,0:0:0:0:
52,128,389180,2,0,L|2:123,1,50,2|0,0:0|0:0,0:0:0:0:
132,140,389720,1,2,0:0:0:0:
132,140,390531,6,0,P|128:196|144:248,1,100,2|0,0:0|0:0,0:0:0:0:
96,304,391342,2,0,P|172:308|219:254,1,150,2|2,0:0|0:0,0:0:0:0:
296,248,392423,2,0,P|312:228|344:212,1,50
364,288,392964,6,0,L|429:292,2,50,2|2|0,0:0|0:0|0:0,0:0:0:0:
416,212,393824,2,0,P|420:164|400:108,1,100,2|0,0:0|0:0,0:0:0:0:
456,64,394685,2,0,P|404:68|348:52,1,100,2|0,0:0|0:0,0:0:0:0:
296,112,395546,2,0,P|244:112|193:131,1,100,2|0,0:0|0:0,0:0:0:0:
116,84,396490,5,2,0:0:0:0:
264,204,397457,1,2,0:0:0:0:
264,204,398528,6,0,B|335:159|327:58|256:47|216:78|215:116|215:116|161:96|108:122|100:254|223:200|211:258|227:157|306:231|303:251|315:288|301:325,1,600,4|0,0:0|0:0,0:0:0:0:
