osu file format v14

[General]
AudioFilename: audio.mp3
AudioLeadIn: 0
PreviewTime: 46717
Countdown: 0
SampleSet: Soft
StackLeniency: 0.7
Mode: 0
LetterboxInBreaks: 0
WidescreenStoryboard: 0

[Editor]
Bookmarks: 13803,24774,35746,46717,57689,68660,79631,90517
DistanceSpacing: 1.6
BeatDivisor: 4
GridSize: 4
TimelineZoom: 1.4

[Metadata]
Title:Memory
TitleUnicode:メモリー
Artist:Koharu Meu
ArtistUnicode:小春めう
Creator:Gust
Version:Insane
Source:夜巡る、ボクらの迷子教室
Tags:Yoru Meguru, Bokura no Maigo Kyoushitsu galgame visual novel yf_bmp Fish Rose Houshou Hari Bellicose Misure iBell erisu momoyo rock pop japanese eroge video game vn
BeatmapID:3236365
BeatmapSetID:1584395

[Difficulty]
HPDrainRate:7
CircleSize:5
OverallDifficulty:7
ApproachRate:8
SliderMultiplier:1.4
SliderTickRate:1

[Events]
//Background and Video events
0,0,"bg0.jpg",0,0
//Break Periods
//Storyboard Layer 0 (Background)
//Storyboard Layer 1 (Fail)
//Storyboard Layer 2 (Pass)
//Storyboard Layer 3 (Foreground)
//Storyboard Layer 4 (Overlay)
//Storyboard Sound Samples

[TimingPoints]
89,342.857142857143,4,3,1,40,1,0
2831,-166.666666666667,4,3,1,40,0,0
13803,-100,4,3,1,60,0,0
15003,-125,4,3,1,60,0,0
17231,-100,4,3,1,60,0,0
19289,-125,4,3,1,60,0,0
19974,-100,4,3,1,60,0,0
20660,-125,4,3,1,60,0,0
21689,-100,4,3,1,60,0,0
35746,-86.9565217391304,4,3,1,40,0,0
35831,-86.9565217391304,4,3,1,70,0,0
45003,-86.9565217391304,4,3,1,80,0,0
46717,-80,4,2,10,80,0,1
46889,-80,4,3,1,80,0,1
57689,-80,4,2,10,80,0,1
57774,-80,4,3,1,80,0,1
68660,-80,4,2,10,80,0,1
68831,-80,4,3,1,80,0,1
74146,-80,4,2,10,80,0,1
74231,-80,4,3,1,80,0,1
76889,-80,4,3,1,40,0,1
76974,-80,4,3,1,80,0,1
79631,-86.9565217391304,4,2,10,80,0,0
79717,-86.9565217391304,4,3,1,80,0,0
82374,-86.9565217391304,4,2,10,80,0,0
82460,-86.9565217391304,4,3,1,80,0,0
85117,-86.9565217391304,4,3,1,40,0,0
85203,-86.9565217391304,4,3,1,80,0,0
87860,-86.9565217391304,4,2,10,80,0,0
87946,-86.9565217391304,4,3,1,80,0,0
90089,-86.9565217391304,4,3,1,50,0,0
90431,-86.9565217391304,4,2,10,80,0,0
91289,-86.9565217391304,4,2,10,70,0,0
91974,-86.9565217391304,4,2,10,60,0,0
92660,-86.9565217391304,4,2,10,50,0,0
93346,-86.9565217391304,4,2,10,40,0,0
94031,-86.9565217391304,4,2,10,30,0,0
94717,-86.9565217391304,4,2,10,20,0,0
95403,-86.9565217391304,4,2,10,10,0,0
96089,-86.9565217391304,4,2,10,5,0,0

[Colours]
Combo1 : 255,255,106
Combo2 : 9,75,253
Combo3 : 219,0,109
Combo4 : 0,255,255
Combo5 : 255,136,17

[HitObjects]
256,192,89,12,0,2660,0:0:0:0:
128,194,2831,5,2,0:0:0:0:
64,212,3002,1,0,0:0:0:0:
81,146,3174,1,2,0:0:0:0:
128,194,3346,2,0,L|120:286,1,83.9999974365235,2|0,0:0|0:0,0:0:0:0:
40,348,3860,5,0,0:0:0:0:
40,348,4031,2,0,L|104:336,1,41.9999987182618,2|0,0:0|0:0,0:0:0:0:
188,272,4374,1,0,0:0:0:0:
252,292,4546,1,2,0:0:0:0:
296,372,4717,5,0,0:0:0:0:
279,374,4889,1,0,0:0:0:0:
349,311,5060,1,0,0:0:0:0:
332,313,5231,2,0,L|336:256,1,41.9999987182618,2|0,0:0|0:0,0:0:0:0:
251,113,5574,6,0,P|247:165|279:201,1,83.9999974365235,2|0,0:0|0:0,0:0:0:0:
331,205,6089,2,0,L|372:196,1,41.9999987182618,2|0,0:0|0:0,0:0:0:0:
223,309,6431,2,0,L|264:300,1,41.9999987182618,2|0,0:0|0:0,0:0:0:0:
151,373,6774,6,0,L|158:289,1,83.9999974365235,2|0,0:0|0:0,0:0:0:0:
103,189,7289,1,2,0:0:0:0:
79,257,7459,5,0,0:0:0:0:
96,255,7631,1,0,0:0:0:0:
191,201,7803,1,0,0:0:0:0:
208,199,7974,2,0,L|204:142,1,41.9999987182618,2|0,0:0|0:0,0:0:0:0:
280,48,8317,6,0,P|284:100|252:136,1,83.9999974365235,2|0,0:0|0:0,0:0:0:0:
160,104,8831,2,0,L|118:109,1,41.9999987182618,2|0,0:0|0:0,0:0:0:0:
249,193,9174,2,0,L|207:198,1,41.9999987182618
137,260,9517,6,0,L|144:176,1,83.9999974365235,2|0,0:0|0:0,0:0:0:0:
69,191,10031,1,2,0:0:0:0:
151,106,10203,5,0,0:0:0:0:
216,122,10374,1,0,0:0:0:0:
151,106,10546,1,0,0:0:0:0:
198,58,10717,2,0,L|193:0,1,41.9999987182618,2|0,0:0|0:0,0:0:0:0:
95,31,11060,5,2,0:0:0:0:
331,0,11403,1,0,0:0:0:0:
316,68,11574,2,0,L|357:63,1,41.9999987182618,2|0,0:0|0:0,0:0:0:0:
470,134,11917,2,0,L|511:129,1,41.9999987182618
401,194,12260,6,0,L|408:101,1,83.9999974365235,2|0,0:0|0:0,0:0:0:0:
247,128,12774,1,0,0:0:0:0:
247,128,12946,2,0,L|254:35,1,83.9999974365235,2|0,0:0|0:0,0:0:0:0:
93,62,13460,5,2,0:0:0:0:
93,62,13631,1,0,0:0:0:0:
40,181,13803,2,0,P|104:156|108:126,1,105,6|0,0:3|0:0,0:0:0:0:
125,139,14146,2,0,L|201:148,1,70,6|0,0:0|0:0,0:0:0:0:
271,235,14489,2,0,L|340:243,1,70,6|0,0:0|0:0,0:0:0:0:
467,140,14831,5,6,0:0:0:0:
398,164,15003,2,0,P|373:213|390:265,1,112,2|0,0:0|0:0,0:0:0:0:
512,309,15517,1,6,0:0:0:0:
442,222,15689,1,0,0:0:0:0:
420,331,15860,2,0,B|381:343|381:343|310:309,1,112,6|4,0:0|0:0,0:0:0:0:
152,384,16374,5,2,0:0:0:0:
256,356,16546,2,0,L|239:238,1,112,6|4,0:0|0:0,0:0:0:0:
224,124,17060,5,0,0:0:0:0:
294,98,17231,2,0,L|281:166,1,70,6|0,0:0|0:0,0:0:0:0:
358,266,17574,2,0,L|371:198,1,70,4|2,0:0|0:0,0:0:0:0:
478,80,17917,6,0,P|421:109|448:166,1,140,6|4,0:0|0:0,0:0:0:0:
478,230,18431,1,2,0:0:0:0:
413,258,18603,1,6,0:0:0:0:
395,256,18688,1,0,0:0:0:0:
378,254,18774,1,0,0:0:0:0:
284,189,18946,5,4,0:0:0:0:
173,209,19118,1,2,0:0:0:0:
88,135,19289,2,0,P|85:68|124:40,1,112,6|4,0:0|0:0,0:0:0:0:
194,113,19803,5,2,0:0:0:0:
262,2,19974,2,0,L|248:89,1,70,6|0,0:0|0:0,0:0:0:0:
318,132,20317,2,0,L|306:201,1,70,4|2,0:0|0:0,0:0:0:0:
221,258,20660,6,0,P|258:297|248:350,1,112,6|4,0:0|0:0,0:0:0:0:
184,384,21174,1,2,0:0:0:0:
330,344,21346,1,6,0:0:0:0:
330,344,21689,5,6,0:0:0:0:
416,371,21860,1,0,0:0:0:0:
485,269,22031,1,6,0:0:0:0:
482,286,22116,1,0,0:0:0:0:
480,303,22202,1,0,0:0:0:0:
315,254,22374,5,6,0:0:0:0:
245,312,22546,2,0,L|233:381,1,70,2|4,0:0|0:0,0:0:0:0:
161,182,22889,2,0,L|149:251,1,70,2|4,0:0|0:0,0:0:0:0:
19,199,23231,5,2,0:0:0:0:
77,52,23403,2,0,B|66:121|66:121|86:156,1,105,6|0,0:0|0:0,0:0:0:0:
95,163,23746,1,6,0:0:0:0:
228,204,23917,1,0,0:0:0:0:
324,104,24089,5,6,0:0:0:0:
396,80,24260,1,2,0:0:0:0:
396,80,24346,1,0,0:0:0:0:
396,80,24431,1,4,0:0:0:0:
496,104,24603,5,2,0:0:0:0:
456,32,24774,2,0,P|424:8|368:4,1,70,6|0,0:0|0:0,0:0:0:0:
408,156,25117,2,0,P|444:140|476:93,1,70,6|2,0:0|0:0,0:0:0:0:
325,51,25460,2,0,P|319:86|328:119,1,70,6|0,0:0|0:0,0:0:0:0:
448,232,25803,5,4,0:0:0:0:
388,292,25974,2,0,L|296:284,1,70,2|4,0:0|0:0,0:0:0:0:
200,384,26317,5,0,0:0:0:0:
276,348,26489,1,6,0:0:0:0:
292,268,26660,1,0,0:0:0:0:
240,204,26831,1,6,0:0:0:0:
240,204,27174,6,0,P|192:192|184:256,1,105,6|0,0:0|0:0,0:0:0:0:
176,248,27517,2,0,L|96:256,1,70,6|0,0:0|0:0,0:0:0:0:
24,228,27860,1,6,0:0:0:0:
42,312,28031,1,0,0:0:0:0:
240,318,28203,5,6,0:0:0:0:
168,362,28374,1,2,0:0:0:0:
249,330,28546,1,6,0:0:0:0:
177,374,28717,1,0,0:0:0:0:
298,253,28889,5,6,0:0:0:0:
298,162,29060,1,0,0:0:0:0:
385,134,29231,1,6,0:0:0:0:
438,208,29402,1,0,0:0:0:0:
385,282,29574,1,6,0:0:0:0:
379,265,29659,1,0,0:0:0:0:
374,248,29745,1,0,0:0:0:0:
326,99,29917,5,4,0:0:0:0:
374,30,30089,1,2,0:0:0:0:
250,8,30260,2,0,L|263:137,1,105,6|0,0:0|0:0,0:0:0:0:
263,133,30603,1,4,0:0:0:0:
189,238,30774,6,0,P|154:241|122:229,1,70,2|4,0:0|0:0,0:0:0:0:
155,105,31117,2,0,L|164:198,1,70,2|4,0:0|0:0,0:0:0:0:
43,362,31460,5,2,0:0:0:0:
43,362,31631,2,0,L|53:271,1,70,6|0,0:0|0:0,0:0:0:0:
147,311,31974,2,0,L|157:220,1,70,4|2,0:0|0:0,0:0:0:0:
251,260,32317,2,0,L|264:145,1,105,6|0,0:0|0:0,0:0:0:0:
267,138,32660,5,6,0:0:0:0:
136,74,32831,1,0,0:0:0:0:
132,158,33003,2,0,P|171:152|196:129,1,70,6|0,0:0|0:0,0:0:0:0:
300,25,33346,1,6,0:0:0:0:
223,0,33517,2,0,L|235:86,1,70,2|4,0:0|0:0,0:0:0:0:
328,156,33860,1,2,0:0:0:0:
442,119,34031,1,6,0:0:0:0:
442,119,34374,5,6,0:0:0:0:
348,93,34546,1,2,0:0:0:0:
324,0,34717,1,4,0:0:0:0:
348,93,34889,1,2,0:0:0:0:
279,162,35060,1,6,0:0:0:0:
279,162,35146,1,0,0:0:0:0:
279,162,35231,1,0,0:0:0:0:
348,93,35403,5,6,0:0:0:0:
256,20,35574,1,0,0:0:0:0:
152,90,35746,2,0,P|95:75|124:9,1,120.750002303124,6|0,0:2|0:0,0:0:0:0:
110,14,36089,2,0,L|29:5,1,80.5000015354157,6|2,0:0|0:0,0:0:0:0:
0,172,36431,2,0,L|87:163,1,80.5000015354157,6|0,0:0|0:0,0:0:0:0:
208,174,36774,5,14,0:0:0:0:
127,111,36946,2,0,P|104:165|118:223,1,120.750002303124,2|0,0:0|0:0,0:0:0:0:
130,235,37289,1,2,0:0:0:0:
64,320,37460,5,6,0:0:0:0:
160,344,37631,1,0,0:0:0:0:
64,320,37803,1,6,0:0:0:0:
208,268,37974,5,8,0:0:0:0:
320,376,38146,5,4,0:0:0:0:
400,356,38317,1,10,0:0:0:0:
320,376,38489,2,0,P|276:368|290:297,1,120.750002303124,6|0,0:0|0:0,0:0:0:0:
289,292,38831,2,0,L|275:205,1,80.5000015354157,6|0,0:0|0:0,0:0:0:0:
428,164,39174,5,6,0:0:0:0:
440,80,39346,1,10,0:0:0:0:
440,80,39431,1,8,0:0:0:0:
440,80,39517,1,14,0:0:0:0:
428,164,39689,2,0,P|475:175|468:239,1,120.750002303124,10|0,0:0|0:0,0:0:0:0:
454,246,40031,1,2,0:0:0:0:
344,200,40203,1,6,0:0:0:0:
312,120,40374,1,2,0:0:0:0:
259,188,40546,1,4,0:0:0:0:
166,238,40717,5,8,0:0:0:0:
164,230,40889,1,12,0:0:0:0:
78,157,41060,1,2,0:0:0:0:
76,149,41231,6,0,P|59:192|74:240,1,80.5000015354157,6|0,0:0|0:0,0:0:0:0:
25,347,41574,1,14,0:0:0:0:
96,303,41746,2,0,L|193:313,1,80.5000015354157,2|4,0:0|0:0,0:0:0:0:
380,160,42089,1,2,0:0:0:0:
362,157,42174,1,0,0:0:0:0:
345,155,42260,1,4,0:0:0:0:
472,130,42431,5,10,0:0:0:0:
438,39,42603,2,0,P|395:68|376:102,1,80.5000015354157,6|0,0:0|0:0,0:0:0:0:
256,240,42946,2,0,L|239:138,1,80.5000015354157,6|0,0:0|0:0,0:0:0:0:
184,24,43289,5,6,0:0:0:0:
152,164,43460,1,8,0:0:0:0:
104,108,43631,5,4,0:0:0:0:
220,132,43803,1,10,0:0:0:0:
320,60,43974,2,0,P|356:112|344:180,1,120.750002303124,6|0,0:0|0:0,0:0:0:0:
332,180,44317,2,0,L|444:192,1,80.5000015354157,6|0,0:0|0:0,0:0:0:0:
196,304,44660,1,6,0:0:0:0:
115,312,44831,1,0,0:0:0:0:
284,244,45003,5,8,0:2:0:0:
320,368,45174,1,2,0:0:0:0:
320,368,45260,1,0,0:0:0:0:
320,368,45346,5,2,0:0:0:0:
236,360,45517,1,0,0:0:0:0:
284,244,45689,5,8,0:2:0:0:
190,285,45860,1,2,0:0:0:0:
184,144,46031,5,2,0:0:0:0:
110,242,46202,1,8,0:2:0:0:
40,88,46374,5,0,0:0:0:0:
21,234,46545,1,10,0:2:0:0:
128,64,46717,6,0,P|92:12|48:-8,1,87.5,2|0,0:0|0:0,0:0:0:0:
0,156,47060,2,0,P|36:208|80:228,1,87.5,6|0,0:0|0:0,0:0:0:0:
184,108,47403,2,0,B|216:88|216:88|324:108,1,131.25,6|0,0:0|0:0,0:0:0:0:
333,112,47746,1,6,0:0:0:0:
447,232,47917,38,0,L|438:129,1,87.5,10|4,0:0|0:0,0:0:0:0:
355,29,48260,1,2,0:0:0:0:
490,73,48432,1,10,0:0:0:0:
355,116,48603,1,0,0:0:0:0:
439,2,48775,1,6,0:0:0:0:
62,60,49118,37,8,0:2:0:0:
62,60,49288,1,2,0:0:0:0:
62,60,49460,1,6,0:0:0:0:
146,174,49631,1,0,0:0:0:0:
11,131,49802,1,10,0:2:0:0:
146,87,49973,1,0,0:0:0:0:
61,202,50146,2,0,L|68:289,1,87.5,6|0,0:0|0:0,0:0:0:0:
68,289,50403,1,0,0:0:0:0:
68,289,50489,1,2,0:0:0:0:
109,366,50660,6,0,P|169:358|150:309,1,131.25,10|0,0:2|0:0,0:0:0:0:
133,307,51003,1,0,0:0:0:0:
298,255,51174,2,0,L|194:244,1,87.5,10|0,0:2|0:0,0:0:0:0:
17,122,51518,1,6,0:0:0:0:
104,112,51689,1,10,0:2:0:0:
104,112,51774,1,0,0:0:0:0:
104,112,51860,1,4,0:0:0:0:
69,192,52031,5,10,0:2:0:0:
56,64,52203,1,6,0:0:0:0:
184,51,52374,1,0,0:0:0:0:
197,179,52546,2,0,P|205:229|270:213,1,131.25,10|0,0:2|0:0,0:0:0:0:
285,218,52889,1,6,0:0:0:0:
456,269,53060,1,0,0:0:0:0:
376,306,53231,5,6,0:0:0:0:
416,152,53403,1,10,0:2:0:0:
416,152,53488,1,0,0:0:0:0:
416,152,53574,2,0,L|436:64,1,87.5,4|0,0:0|0:0,0:0:0:0:
285,201,53917,2,0,L|305:113,1,87.5,10|0,0:2|0:2,0:2:0:0:
132,85,54260,2,0,L|152:-3,1,87.5,6|0,0:0|0:0,0:0:0:0:
70,159,54603,5,10,0:2:0:0:
190,133,54774,1,0,0:0:0:0:
272,225,54946,1,6,0:0:0:0:
234,341,55117,1,2,0:0:0:0:
115,367,55288,1,8,0:2:0:0:
33,275,55460,2,0,L|138:252,1,87.5,2|4,0:0|0:0,0:0:0:0:
284,291,55803,5,0,0:0:0:0:
177,213,55974,1,6,0:0:0:0:
284,149,56146,2,0,B|294:185|294:185|269:290,1,131.25,10|0,0:2|0:0,0:0:0:0:
284,291,56489,5,0,0:0:0:0:
452,333,56660,1,10,0:2:0:0:
378,373,56831,2,0,L|368:271,1,87.5,2|4,0:0|0:0,0:0:0:0:
488,125,57174,1,10,0:2:0:0:
455,123,57259,1,0,0:0:0:0:
429,104,57345,1,2,0:0:0:0:
418,74,57431,1,0,0:0:0:0:
425,42,57516,1,8,0:2:0:0:
425,42,57603,1,0,0:0:0:0:
425,42,57689,6,0,B|403:22|403:22|302:46,1,131.25,2|0,0:0|0:0,0:0:0:0:
275,108,58031,2,0,L|171:132,1,87.5,10|0,0:2|0:0,0:0:0:0:
59,49,58374,1,6,0:0:0:0:
130,174,58546,1,2,0:0:0:0:
130,174,58631,1,0,0:0:0:0:
130,174,58717,1,4,0:0:0:0:
1,230,58889,6,0,P|26:169|64:155,1,87.5,10|0,0:2|0:0,0:0:0:0:
201,202,59231,1,2,0:0:0:0:
70,221,59403,1,4,0:0:0:0:
119,98,59574,1,2,0:0:0:0:
146,284,59746,6,0,B|168:304|168:304|269:280,1,131.25,2|0,0:0|0:0,0:0:0:0:
292,274,60089,1,8,0:2:0:0:
445,306,60260,1,2,0:0:0:0:
353,238,60431,5,6,0:0:0:0:
309,343,60603,1,0,0:0:0:0:
160,193,60774,1,10,0:2:0:0:
192,312,60946,1,2,0:0:0:0:
46,237,61117,6,0,P|16:174|34:106,1,131.25,6|0,0:0|0:0,0:0:0:0:
48,99,61460,1,6,0:0:0:0:
149,124,61631,1,10,0:2:0:0:
495,2,61974,5,2,0:0:0:0:
393,29,62145,1,10,0:2:0:0:
362,129,62317,1,0,0:0:0:0:
431,208,62489,1,6,0:0:0:0:
498,110,62660,5,8,0:2:0:0:
465,114,62745,1,0,0:0:0:0:
433,119,62831,1,8,0:2:0:0:
239,51,63003,1,10,0:2:0:0:
271,46,63089,1,8,0:2:0:0:
303,41,63174,6,0,P|360:62|384:101,1,87.5,6|0,0:0|0:0,0:0:0:0:
209,168,63517,2,0,P|198:108|220:67,1,87.5,10|0,0:2|0:0,0:0:0:0:
367,186,63860,2,0,P|320:224|274:226,1,87.5,6|2,0:0|0:0,0:0:0:0:
139,325,64203,5,4,0:0:0:0:
221,384,64374,2,0,B|246:356|246:356|227:250,1,131.25,10|0,0:2|0:0,0:0:0:0:
223,242,64717,1,2,0:0:0:0:
103,148,64889,2,0,L|118:234,1,87.5,10|0,0:2|0:0,0:0:0:0:
26,282,65231,1,6,0:0:0:0:
497,152,65574,5,8,0:2:0:0:
395,180,65746,1,2,0:0:0:0:
412,76,65917,1,6,0:0:0:0:
310,104,66089,1,0,0:0:0:0:
327,0,66260,1,10,0:2:0:0:
225,28,66431,2,0,L|125:18,1,87.5,2|4,0:0|0:0,0:0:0:0:
338,148,66774,2,0,L|238:138,1,87.5,2|0,0:0|0:0,0:0:0:0:
130,277,67117,2,0,L|-17:267,1,131.25,10|0,0:2|0:0,0:0:0:0:
12,281,67460,5,0,0:0:0:0:
168,368,67631,1,8,0:2:0:0:
64,372,67802,5,2,0:0:0:0:
216,272,67974,1,6,0:0:0:0:
110,131,68146,1,0,0:0:0:0:
262,31,68317,1,10,0:2:0:0:
275,66,68402,1,0,0:0:0:0:
304,90,68488,1,8,0:2:0:0:
342,96,68574,1,8,0:2:0:0:
377,82,68660,5,2,0:0:0:0:
503,175,68831,2,0,P|478:211|438:228,1,87.5,2|8,0:0|0:2,0:0:0:0:
294,63,69174,2,0,P|333:11|396:0,1,131.25,2|0,0:0|0:0,0:0:0:0:
456,35,69517,6,0,L|442:133,1,87.5,2|4,0:0|0:0,0:0:0:0:
161,242,69860,2,0,B|143:203|143:203|155:115,1,131.25,10|0,0:2|0:0,0:0:0:0:
220,86,70203,2,0,L|232:0,1,87.5,2|8,0:0|0:2,0:0:0:0:
356,248,70546,1,2,0:0:0:0:
368,162,70717,1,6,0:0:0:0:
272,228,70889,5,2,0:0:0:0:
250,231,70974,1,0,0:0:0:0:
228,234,71060,1,10,0:2:0:0:
72,144,71231,1,0,0:0:0:0:
94,141,71317,1,0,0:0:0:0:
116,138,71402,5,6,0:0:0:0:
192,96,71574,2,0,P|172:48|140:24,1,87.5,2|8,0:0|0:2,0:0:0:0:
384,192,71917,2,0,P|336:224|328:312,1,131.25,2|0,0:0|0:0,0:0:0:0:
252,296,72260,2,0,L|268:392,1,87.5,2|4,0:0|0:0,0:0:0:0:
35,217,72603,2,0,L|51:313,1,87.5,10|4,0:2|0:0,0:0:0:0:
282,150,72946,6,0,B|300:111|300:111|288:23,1,131.25,2|0,0:0|0:0,0:0:0:0:
285,1,73289,1,2,0:0:0:0:
154,49,73460,1,6,0:0:0:0:
202,180,73631,1,0,0:0:0:0:
333,132,73803,2,0,L|397:141,1,43.75,10|0,0:2|0:0,0:0:0:0:
464,192,73974,1,4,0:0:0:0:
420,197,74059,1,0,0:0:0:0:
377,203,74146,6,0,P|392:272|344:312,1,131.25,2|0,0:0|0:0,0:0:0:0:
284,296,74489,2,0,L|296:384,1,87.5,8|0,0:2|0:0,0:0:0:0:
120,238,74831,2,0,L|108:151,1,87.5,4|0,0:0|0:0,0:0:0:0:
8,100,75174,5,4,0:0:0:0:
122,0,75346,1,8,0:2:0:0:
122,0,75431,1,0,0:0:0:0:
122,0,75517,2,0,B|152:25|152:25|165:115,1,131.25,4|0,0:0|0:0,0:0:0:0:
225,152,75860,5,8,0:2:0:0:
126,276,76031,1,0,0:0:0:0:
152,281,76116,1,0,0:0:0:0:
178,273,76202,1,4,0:0:0:0:
197,254,76288,1,0,0:0:0:0:
206,229,76373,1,0,0:0:0:0:
362,255,76546,5,8,0:2:0:0:
230,321,76717,1,0,0:0:0:0:
237,145,76889,2,0,P|283:81|356:95,1,131.25,6|0,0:2|0:0,0:0:0:0:
392,108,77231,2,0,B|409:80|409:80|398:15,1,87.5,10|0,0:2|0:0,0:0:0:0:
309,149,77574,5,6,0:0:0:0:
336,0,77746,1,2,0:0:0:0:
382,174,77917,5,4,0:0:0:0:
289,60,78089,1,10,0:2:0:0:
256,204,78260,5,0,0:0:0:0:
220,24,78431,2,0,P|184:80|176:124,1,87.5,2|8,0:0|0:2,0:0:0:0:
76,148,78774,2,0,P|90:213|115:249,1,87.5,2|4,0:0|0:0,0:0:0:0:
61,337,79117,2,0,P|117:373|161:381,1,87.5,2|8,0:0|0:2,0:0:0:0:
206,359,79374,1,0,0:0:0:0:
236,339,79459,1,4,0:0:0:0:
254,308,79545,1,4,0:0:0:0:
256,271,79631,5,2,0:0:0:0:
496,344,79974,5,10,0:2:0:0:
420,372,80146,1,0,0:0:0:0:
498,335,80317,5,4,0:0:0:0:
386,295,80489,1,0,0:0:0:0:
507,326,80660,5,0,0:0:0:0:
431,222,80831,1,10,0:2:0:0:
477,111,81003,5,4,0:0:0:0:
405,147,81174,1,2,0:0:0:0:
405,147,81260,1,0,0:0:0:0:
405,147,81346,1,8,0:2:0:0:
269,59,81517,1,2,0:0:0:0:
341,95,81688,1,4,0:0:0:0:
341,95,81774,1,8,0:2:0:0:
341,95,81860,1,8,0:2:0:0:
497,7,82031,2,0,L|401:55,1,80.5000015354157,10|0,0:2|0:0,0:0:0:0:
256,288,82374,6,0,L|348:244,1,80.5000015354157,2|0,0:0|0:0,0:0:0:0:
168,192,82717,2,0,L|225:107,1,80.5000015354157,8|0,0:2|0:0,0:0:0:0:
43,152,83060,2,0,L|50:50,1,80.5000015354157,6|0,0:0|0:0,0:0:0:0:
0,0,83403,1,4,0:0:0:0:
140,68,83574,1,10,0:2:0:0:
92,0,83746,5,6,0:0:0:0:
143,82,83917,1,2,0:0:0:0:
129,177,84089,1,8,0:2:0:0:
48,229,84260,1,2,0:0:0:0:
100,310,84431,1,2,0:0:0:0:
181,258,84603,1,0,0:0:0:0:
59,157,84774,5,10,0:2:0:0:
207,102,84946,1,2,0:0:0:0:
85,1,85117,2,0,P|36:25|43:100,1,120.750002303124,6|0,0:2|0:0,0:0:0:0:
91,120,85460,2,0,L|81:209,1,80.5000015354157,10|0,0:2|0:0,0:0:0:0:
255,192,85803,2,0,L|201:264,1,80.5000015354157,4|0,0:0|0:0,0:0:0:0:
357,338,86146,2,0,L|274:373,1,80.5000015354157,0|8,0:0|0:2,0:0:0:0:
169,341,86489,5,6,0:0:0:0:
262,365,86660,1,0,0:0:0:0:
255,192,86831,1,10,0:2:0:0:
324,260,87002,1,2,0:0:0:0:
404,106,87174,1,6,0:0:0:0:
410,128,87260,1,10,0:2:0:0:
416,151,87346,1,0,0:0:0:0:
422,174,87431,1,0,0:0:0:0:
428,196,87517,1,10,0:2:0:0:
501,302,87689,5,4,0:0:0:0:
324,260,87860,2,0,P|289:229|317:149,1,120.750002303124,2|0,0:0|0:0,0:0:0:0:
356,122,88203,2,0,L|341:34,1,80.5000015354157,10|0,0:2|0:0,0:0:0:0:
492,137,88546,5,6,0:0:0:0:
410,189,88717,1,0,0:0:0:0:
299,161,88889,1,4,0:0:0:0:
217,61,89060,1,10,0:2:0:0:
69,109,89231,1,6,0:0:0:0:
217,158,89403,1,2,0:0:0:0:
125,31,89574,1,8,0:2:0:0:
125,188,89746,1,8,0:2:0:0:
217,61,89917,5,10,0:2:0:0:
240,62,90002,1,8,0:2:0:0:
263,63,90088,1,4,0:0:0:0:
287,64,90174,1,4,0:0:0:0:
310,65,90259,1,4,0:0:0:0:
334,67,90345,1,4,0:0:0:0:
357,68,90431,5,2,0:0:0:0:
256,192,90517,12,2,96089,0:2:0:0:
