osu file format v14

[General]
AudioFilename: audio.mp3
AudioLeadIn: 0
PreviewTime: 24190
Countdown: 0
SampleSet: Soft
StackLeniency: 0.7
Mode: 0
LetterboxInBreaks: 0
WidescreenStoryboard: 1

[Editor]
Bookmarks: 42876
DistanceSpacing: 1.6
BeatDivisor: 4
GridSize: 32
TimelineZoom: 1.9

[Metadata]
Title:Suu Sentimental (TV Size)
TitleUnicode:数センチメンタル (TV Size)
Artist:Kohana Lam
ArtistUnicode:こはならむ
Creator:Azu
Version:hard
Source:僕の心のヤバイやつ
Tags:Boku no Kokoro no Yabai Yatsu The Dangers in My Heart ending ed short length version japanese pop anime j-pop jpop Xexyz Mayu Sakuma Azunyan- Ayana
BeatmapID:4149534
BeatmapSetID:1995918

[Difficulty]
HPDrainRate:5
CircleSize:3
OverallDifficulty:6
ApproachRate:6
SliderMultiplier:1.4
SliderTickRate:1

[Events]
//Background and Video events
0,0,"yamada.jpg",0,0
Video,-282,"ed.mp4"
//Break Periods
2,39009,39792
//Storyboard Layer 0 (Background)
//Storyboard Layer 1 (Fail)
//Storyboard Layer 2 (Pass)
//Storyboard Layer 3 (Foreground)
//Storyboard Layer 4 (Overlay)
//Storyboard Sound Samples

[TimingPoints]
165,508.474576271186,4,2,1,60,1,0
8300,-133.333333333333,4,2,1,60,0,0
24571,-100,4,2,1,60,0,0
42876,-90.9090909090909,4,2,1,75,0,1
58893,-111.111111111111,4,2,1,75,0,1
59656,-90.9090909090909,4,2,1,75,0,1
75419,-90.9090909090909,4,2,1,60,0,0
77453,-90.9090909090909,4,2,1,75,0,1
83554,-125,4,2,1,75,0,0
85842,-200,4,2,1,50,0,0

[Colours]
Combo1 : 255,174,255
Combo2 : 255,217,179
Combo3 : 255,210,233
Combo4 : 255,189,157

[HitObjects]
73,207,8046,5,0,0:0:0:0:
73,207,8300,2,0,L|52:281,1,52.5000020027161,4|0,0:3|0:0,0:0:0:0:
93,334,8809,2,0,P|137:354|199:358,1,105.000004005432,2|0,0:0|0:0,0:0:0:0:
292,267,9826,1,2,0:0:0:0:
292,267,10080,2,0,L|417:294,1,105.000004005432,2|0,0:0|0:0,0:0:0:0:
483,312,10842,1,2,0:0:0:0:
483,312,11097,2,0,P|502:257|490:202,1,105.000004005432,2|0,0:0|0:0,0:0:0:0:
407,106,12114,1,2,0:0:0:0:
407,106,12368,6,0,L|304:83,1,105.000004005432,4|0,0:3|0:0,0:0:0:0:
230,44,13131,2,0,L|178:55,1,52.5000020027161,2|0,0:0|0:0,0:0:0:0:
128,123,13639,2,0,L|76:134,1,52.5000020027161,2|0,0:0|0:0,0:0:0:0:
0,89,14148,2,0,P|0:174|22:200,1,105.000004005432,2|0,0:0|0:0,0:0:0:0:
76,249,14910,1,0,0:0:0:0:
76,249,15164,1,2,0:0:0:0:
221,178,15673,6,0,L|210:126,2,52.5000020027161,2|0|0,0:0|0:0|0:0,0:0:0:0:
287,229,16436,2,0,P|333:244|409:238,1,105.000004005432,4|2,0:3|0:0,0:0:0:0:
470,206,17198,1,0,0:0:0:0:
470,206,17453,2,0,P|485:160|479:84,1,105.000004005432,2|0,0:0|0:0,0:0:0:0:
422,36,18215,2,0,P|376:21|300:27,1,105.000004005432,2|0,0:0|0:0,0:0:0:0:
257,86,18978,1,2,0:0:0:0:
257,86,19232,1,2,0:0:0:0:
113,50,19741,2,0,L|97:-7,2,52.5000020027161,2|0|0,0:0|0:0|0:0,0:0:0:0:
87,133,20503,6,0,L|119:248,1,105.000004005432,4|0,0:3|0:0,0:0:0:0:
160,311,21266,2,0,L|219:326,1,52.5000020027161,2|0,0:0|0:0,0:0:0:0:
284,271,21775,2,0,P|330:248|397:254,1,105.000004005432,2|2,0:0|0:0,0:0:0:0:
472,272,22537,1,0,0:0:0:0:
472,272,22792,2,0,P|489:221|485:210,1,52.5000020027161
463,143,23300,2,0,L|395:124,1,52.5000020027161,2|0,0:0|3:0,0:0:0:0:
331,108,23809,1,8,0:0:0:0:
331,108,24063,1,8,3:0:0:0:
265,172,24317,1,2,0:0:0:0:
191,140,24571,6,0,L|112:126,1,70,4|2,0:3|0:0,0:0:0:0:
94,157,24953,2,0,L|15:143,1,70,2|0,0:0|0:0,0:0:0:0:
5,110,25334,2,0,P|4:76|25:36,1,70,2|8,0:0|0:0,0:0:0:0:
175,0,26351,1,8,0:1:0:0:
232,65,26605,6,0,L|300:77,1,70,4|2,0:3|0:0,0:0:0:0:
336,54,26987,2,0,P|368:91|374:131,1,70,10|0,0:1|0:0,0:0:0:0:
367,148,27368,2,0,L|354:216,1,70,8|8,0:1|0:0,0:0:0:0:
340,301,27876,1,2,0:0:0:0:
340,301,28131,1,2,0:0:0:0:
257,260,28385,1,8,0:1:0:0:
230,344,28639,6,0,L|144:357,1,70,4|2,0:3|0:0,0:0:0:0:
116,358,29020,2,0,B|103:334|103:334|112:283,1,70,2|0,0:0|0:0,0:0:0:0:
118,252,29402,2,0,L|131:166,1,70,8|8,0:1|0:0,0:0:0:0:
146,96,29910,1,0,0:0:0:0:
284,228,30419,5,8,0:1:0:0:
284,228,30546,1,8,0:1:0:0:
284,228,30673,2,0,L|361:215,1,70,4|0,0:3|0:0,0:0:0:0:
396,210,31054,2,0,P|441:178|448:154,1,70,8|0,0:1|0:0,0:0:0:0:
442,126,31436,2,0,L|429:49,1,70,8|8,0:1|0:0,0:0:0:0:
290,0,32198,1,8,0:0:0:0:
311,149,32707,5,6,0:0:0:0:
256,192,33215,12,2,38809,0:0:0:0:
256,192,40842,12,0,42368,0:0:0:0:
418,108,42876,6,0,L|399:197,1,77.0000023498536,4|0,0:0|0:0,0:0:0:0:
383,269,43385,1,8,0:1:0:0:
294,255,43639,2,0,B|209:241|226:292|137:279,1,154.000004699707,10|0,0:1|0:0,0:0:0:0:
75,216,44402,1,2,0:0:0:0:
16,295,44656,6,0,P|-16:221|14:132,1,154.000004699707,10|8,0:1|0:1,0:0:0:0:
41,66,45419,1,0,0:0:0:0:
135,107,45673,1,8,0:1:0:0:
135,107,45800,1,8,0:1:0:0:
135,107,45927,2,0,L|218:88,1,77.0000023498536,10|2,0:0|0:0,0:0:0:0:
280,33,46436,1,2,0:0:0:0:
357,81,46690,1,2,0:0:0:0:
437,19,46944,6,0,B|458:67|458:67|436:171,1,154.000004699707,4|0,0:3|0:0,0:0:0:0:
415,261,47707,2,0,P|371:287|254:288,1,154.000004699707,10|0,0:1|0:0,0:0:0:0:
184,247,48470,1,2,0:0:0:0:
126,333,48724,2,0,P|90:285|99:172,1,154.000004699707,10|8,0:1|0:1,0:0:0:0:
138,106,49487,1,0,0:0:0:0:
227,157,49741,5,10,0:1:0:0:
227,157,49868,1,8,0:1:0:0:
227,157,49995,2,0,L|315:173,1,77.0000023498536,8|10,0:0|0:1,0:0:0:0:
396,193,50503,1,10,0:0:0:0:
396,193,50631,1,8,0:0:0:0:
396,193,50758,1,8,0:3:0:0:
486,206,51012,6,0,P|503:122|471:52,1,154.000004699707,4|8,0:0|0:1,0:0:0:0:
393,19,51775,2,0,B|308:6|333:53|226:34,1,154.000004699707,10|0,0:1|0:0,0:0:0:0:
141,0,52537,1,2,0:0:0:0:
90,89,52792,6,0,L|79:175,1,77.0000023498536,10|0,0:1|0:1,0:0:0:0:
99,262,53300,2,0,P|143:292|169:298,1,77.0000023498536,8|0,0:1|0:1,0:0:0:0:
260,255,53809,1,8,0:1:0:0:
260,255,53936,1,8,0:1:0:0:
260,255,54063,1,10,0:0:0:0:
317,183,54317,1,2,0:0:0:0:
407,200,54571,1,2,0:0:0:0:
436,287,54825,1,2,0:0:0:0:
373,354,55080,1,4,0:0:0:0:
205,382,55588,5,2,0:0:0:0:
108,384,55842,2,0,P|77:330|89:206,1,154.000004699707,4|0,0:3|0:0,0:0:0:0:
123,155,56605,1,2,0:0:0:0:
197,220,56859,6,0,L|351:243,1,154.000004699707,10|8,0:1|0:1,0:0:0:0:
439,202,57622,1,0,0:0:0:0:
449,104,57876,1,8,0:1:0:0:
449,104,58003,1,8,0:1:0:0:
449,104,58131,1,8,0:0:0:0:
370,47,58385,1,8,0:1:0:0:
282,87,58639,1,8,0:0:0:0:
282,87,58766,1,8,0:0:0:0:
282,87,58893,2,0,P|207:120|158:112,1,125.999996154785,8|0,0:3|0:0,0:0:0:0:
92,35,59656,6,0,P|54:80|47:123,1,77.0000023498536,4|2,0:0|0:0,0:0:0:0:
27,186,60164,2,0,L|49:273,1,77.0000023498536,8|0,0:0|0:0,0:0:0:0:
104,333,60673,1,10,0:1:0:0:
169,252,60927,2,0,L|263:264,1,77.0000023498536,2|8,0:0|0:1,0:0:0:0:
303,337,61436,2,0,L|397:349,1,77.0000023498536,0|8,0:0|0:1,0:0:0:0:
463,304,61945,5,2,0:0:0:0:
512,220,62198,1,10,0:0:0:0:
505,126,62453,1,2,0:0:0:0:
442,52,62707,2,0,L|365:42,1,77.0000023498536,10|2,0:1|0:0,0:0:0:0:
299,122,63215,6,0,P|251:172|158:190,1,154.000004699707,4|8,0:3|0:1,0:0:0:0:
63,198,63978,2,0,L|9:27,1,154.000004699707,2|0,0:0|0:0,0:0:0:0:
103,0,64741,1,10,0:1:0:0:
166,80,64995,2,0,P|236:51|321:36,1,154.000004699707,2|0,0:0|0:0,0:0:0:0:
396,17,65758,5,8,0:1:0:0:
440,93,66012,1,2,0:0:0:0:
383,158,66266,1,10,0:0:0:0:
302,122,66521,1,2,0:0:0:0:
243,187,66775,1,8,0:0:0:0:
243,187,66902,1,8,0:0:0:0:
243,187,67029,1,8,0:3:0:0:
286,263,67283,6,0,B|390:287|390:287|428:342,1,154.000004699707,4|8,0:0|0:1,0:0:0:0:
342,380,68046,2,0,L|266:362,1,77.0000023498536,2|8,0:0|0:1,0:0:0:0:
200,295,68554,2,0,L|124:277,1,77.0000023498536,2|8,0:0|0:1,0:0:0:0:
37,334,69063,2,0,P|-1:236|25:174,1,154.000004699707,2|0,0:0|0:0,0:0:0:0:
58,104,69826,1,8,0:1:0:0:
149,160,70080,5,2,0:0:0:0:
149,160,70207,1,2,0:0:0:0:
149,160,70334,1,8,0:0:0:0:
181,71,70588,1,2,0:0:0:0:
262,21,70842,1,10,0:1:0:0:
356,32,71096,1,2,0:0:0:0:
423,98,71351,6,0,L|392:268,1,154.000004699707,4|8,0:3|0:1,0:0:0:0:
364,337,72114,2,0,B|285:346|296:301|204:324,1,154.000004699707,4|2,0:3|0:0,0:0:0:0:
117,364,72876,1,10,0:1:0:0:
68,281,73131,2,0,P|42:213|96:140,1,154.000004699707,2|0,0:0|0:0,0:0:0:0:
147,76,73893,5,8,0:1:0:0:
221,138,74148,1,2,0:0:0:0:
221,138,74275,1,2,0:0:0:0:
221,138,74402,1,8,0:0:0:0:
314,104,74656,1,2,0:0:0:0:
388,167,74910,1,10,0:0:0:0:
480,134,75164,1,2,0:0:0:0:
469,165,77453,5,6,0:0:0:0:
469,165,77707,2,0,L|448:72,1,77.0000023498536,2|10,0:0|0:1,0:0:0:0:
422,0,78215,1,10,0:1:0:0:
343,48,78470,2,0,P|288:65|251:61,1,77.0000023498536,10|0,0:0|0:0,0:0:0:0:
231,56,78851,2,0,L|143:37,1,77.0000023498536,2|0,0:0|0:0,0:0:0:0:
113,30,79232,1,10,0:1:0:0:
36,87,79487,5,4,0:3:0:0:
66,177,79741,2,0,L|85:260,1,77.0000023498536,10|2,0:1|0:0,0:0:0:0:
140,330,80249,1,10,0:1:0:0:
210,260,80503,2,0,P|252:241|293:241,1,77.0000023498536,10|0,0:0|0:0,0:0:0:0:
314,249,80885,2,0,L|392:272,1,77.0000023498536,2|0,0:0|0:0,0:0:0:0:
428,284,81266,1,2,0:0:0:0:
512,237,81520,5,6,0:0:0:0:
493,143,81775,2,0,L|419:121,1,77.0000023498536,2|2,0:0|0:0,0:0:0:0:
324,93,82283,1,10,0:1:0:0:
255,163,82537,2,0,P|211:195|174:204,1,77.0000023498536,10|0,0:0|0:0,0:0:0:0:
154,193,82919,2,0,L|80:171,1,77.0000023498536,2|0,0:0|0:0,0:0:0:0:
39,160,83300,1,10,0:1:0:0:
15,66,83554,5,4,0:0:0:0:
256,192,83809,12,2,85842,0:0:0:0:
