osu file format v14

[General]
AudioFilename: audio.mp3
AudioLeadIn: 0
PreviewTime: -1
Countdown: 0
SampleSet: Soft
StackLeniency: 0.7
Mode: 0
LetterboxInBreaks: 0
WidescreenStoryboard: 0

[Editor]
DistanceSpacing: 0.6
BeatDivisor: 2
GridSize: 16
TimelineZoom: 5.199997

[Metadata]
Title:Mushikui Psychedelism
TitleUnicode:ムシクイサイケデリズム
Artist:Kogeinu & Akatin
ArtistUnicode:コゲ犬&赤ティン
Creator:AcidSnow1
Version:prototype wip
Source:じっぷす
Tags:koge inu jips zippusu utaite utattemita utatte mita vocaloid vocaloid2 kagamine rin len nico nico douga niconicodouga niconico nicovideo
BeatmapID:2087433
BeatmapSetID:997957

[Difficulty]
HPDrainRate:7
CircleSize:4
OverallDifficulty:7
ApproachRate:7
SliderMultiplier:1.4
SliderTickRate:2

[Events]
//Background and Video events
0,0,"bg.png",0,0
//Break Periods
//Storyboard Layer 0 (Background)
//Storyboard Layer 1 (Fail)
//Storyboard Layer 2 (Pass)
//Storyboard Layer 3 (Foreground)
//Storyboard Sound Samples

[TimingPoints]
1300,285.714285714286,4,2,0,90,1,0
9871,-100,4,1,0,90,0,0
10442,-100,4,1,0,95,0,1
19585,-100,4,3,0,95,0,1
27585,-400,4,2,0,50,0,0
28728,-133.333333333333,4,2,0,90,0,0
37871,-100,4,2,0,90,0,0
47014,-100,4,2,0,90,0,0
51585,-100,4,1,0,95,0,0
55014,-400,4,2,0,90,0,0
55585,-133.333333333333,4,1,0,95,0,0
56157,-100,4,1,0,100,0,1
74442,-200,4,2,0,90,0,0
83585,-133.333333333333,4,1,0,90,0,0
92728,-100,4,2,0,90,0,0
97300,-100,4,1,0,95,0,0
100728,-400,4,2,0,90,0,0
101300,-133.333333333333,4,2,0,90,0,0
101871,-100,4,1,0,100,0,1
120157,-100,4,2,0,90,0,0
137871,-400,4,2,0,50,0,0
138442,-100,4,2,0,90,0,0
143014,-100,4,2,0,90,0,0
146442,-400,4,2,0,50,0,0
147585,-200,4,2,0,60,0,0
154442,-400,4,2,0,50,0,0
155014,-133.333333333333,4,1,0,95,0,0
155871,-100,4,1,0,100,0,1
173871,-100,4,1,0,90,0,0
191014,-500,4,2,0,10,0,0

[HitObjects]
336,80,1300,5,0,0:0:0:0:
384,112,1442,1,0,0:0:0:0:
384,160,1585,1,0,0:0:0:0:
336,192,1728,1,2,0:0:0:0:
160,112,3585,5,0,0:0:0:0:
112,144,3728,1,0,0:0:0:0:
112,192,3871,1,0,0:0:0:0:
160,224,4014,1,2,0:0:0:0:
352,144,5871,5,0,0:0:0:0:
400,176,6014,1,0,0:0:0:0:
400,224,6157,1,0,0:0:0:0:
352,256,6300,1,2,0:0:0:0:
160,288,8157,5,0,0:0:0:0:
112,256,8300,1,0,0:0:0:0:
112,208,8442,1,0,0:0:0:0:
160,176,8585,1,0,0:0:0:0:
256,192,9871,5,4,0:0:0:0:
256,192,10014,1,4,0:0:0:0:
336,48,10442,6,0,P|416:112|432:192,1,140,0|8,0:0|0:0,0:0:0:0:
432,176,10871,1,0,0:0:0:0:
432,208,11014,2,0,P|400:288|320:304,1,140,0|8,0:0|0:0,0:0:0:0:
224,304,11585,2,0,P|144:304|112:256,1,140,0|8,0:0|0:0,0:0:0:0:
112,208,12014,1,0,0:0:0:0:
112,160,12157,2,0,P|192:80|240:80,1,140,0|8,0:0|0:0,0:0:0:0:
304,112,12728,6,0,L|464:112,1,140,0|8,0:0|0:0,0:0:0:0:
448,160,13157,1,0,0:0:0:0:
448,208,13300,2,0,L|272:208,1,140,0|8,0:0|0:0,0:0:0:0:
272,128,13871,2,2,B|304:224|240:272|128:272|144:192|144:112|78:149|176:336,1,420
256,336,15014,6,0,P|336:336|400:272,1,140,0|8,0:0|0:0,0:0:0:0:
400,256,15442,1,0,0:0:0:0:
400,192,15585,2,0,P|320:176|256:208,1,140,0|8,0:0|0:0,0:0:0:0:
160,208,16157,2,0,P|112:128|128:64,1,140,0|8,0:0|0:0,0:0:0:0:
160,64,16585,1,0,0:0:0:0:
208,64,16728,2,0,P|288:128|288:192,1,140,0|8,0:0|0:0,0:0:0:0:
368,192,17300,6,0,P|432:224|432:304,1,140,0|8,0:0|0:0,0:0:0:0:
384,288,17728,1,0,0:0:0:0:
336,288,17871,2,0,L|192:288,1,140,0|8,0:0|0:0,0:0:0:0:
128,240,18442,2,2,B|80:144|128:96|208:80|256:112|304:160|336:208|352:240|320:256|240:256|224:224|224:192,1,420,2|6,0:0|0:0,0:0:0:0:
160,208,19585,6,0,P|96:144|96:96,1,140,0|8,0:0|0:0,0:0:0:0:
144,80,20014,1,0,0:0:0:0:
192,96,20157,2,0,P|256:64|304:112,1,140,0|8,0:0|0:0,0:0:0:0:
352,176,20728,2,0,P|416:208|416:272,1,140,0|8,0:0|0:0,0:0:0:0:
368,272,21157,1,0,0:0:0:0:
320,272,21300,2,0,P|256:272|256:192,1,140,0|8,0:0|0:0,0:0:0:0:
240,112,21871,6,0,P|176:64|112:80,1,140,0|8,0:0|0:0,0:0:0:0:
96,112,22300,1,0,0:0:0:0:
96,160,22442,2,0,L|96:304,1,140,0|8,0:0|0:0,0:0:0:0:
176,320,23014,2,6,B|416:320|416:320|416:128,1,420,4|4,0:0|0:0,0:0:0:0:
352,64,24157,6,0,B|272:64|272:64|272:144,1,140,0|8,0:0|0:0,0:0:0:0:
272,160,24585,1,0,0:0:0:0:
272,208,24728,2,0,B|272:288|272:288|208:288,1,140,0|8,0:0|0:0,0:0:0:0:
128,256,25300,2,0,B|64:256|64:256|64:176,1,140,0|8,0:0|0:0,0:0:0:0:
64,144,25728,1,0,0:0:0:0:
64,96,25871,2,0,L|208:96,1,140,0|8,0:0|0:0,0:0:0:0:
304,96,26442,6,2,B|368:96|368:96|368:176,1,140
336,208,26871,1,2,0:0:0:0:
368,256,27014,2,2,B|368:320|368:320|288:320,1,140
112,256,28728,6,0,B|80:192|112:64|144:64|160:80,1,210
176,144,29871,2,0,B|176:176|176:208|208:240|336:256,1,210.000008010865
352,256,30585,2,0,L|416:256,2,52.5000020027161
352,208,31014,2,0,B|320:176|288:160|256:176|160:240,3,210.000008010865
112,176,33300,6,0,P|128:80|224:80,1,210.000008010865
256,80,34014,2,0,L|256:160,2,52.5000020027161
288,64,34442,2,0,B|320:80|384:64|432:96|400:224,1,210.000008010865
400,240,35157,2,0,L|464:240,2,52.5000020027161
368,272,35585,6,0,P|320:320|240:320,1,105.000004005432
240,320,36157,2,0,P|176:272|144:208,1,105.000004005432
160,192,36728,2,0,P|176:128|208:128,1,105.000004005432
272,128,37300,1,0,0:0:0:0:
288,144,37442,1,0,0:0:0:0:
304,128,37585,1,4,0:0:0:0:
368,176,37871,6,0,L|448:176,2,70,0|0|8,0:0|0:0|0:0,0:0:0:0:
320,208,38300,1,0,0:0:0:0:
272,240,38442,2,0,L|176:240,2,70,0|0|8,0:0|0:0|0:0,0:0:0:0:
304,288,38871,1,0,0:0:0:0:
352,304,39014,2,2,P|352:240|352:112,2,140
336,272,39728,2,0,L|272:240,2,70,0|8|0,0:0|0:0|0:0,0:0:0:0:
368,272,40157,6,2,P|416:208|368:128,1,140
320,128,40728,2,2,P|192:160|176:208,1,140
192,240,41300,2,2,P|272:304|320:272,1,140
368,240,41871,2,2,B|384:176|368:160|352:96,1,140
272,96,42442,6,0,L|272:176,2,70,0|0|8,0:0|0:0|0:0,0:0:0:0:
224,96,42871,1,0,0:0:0:0:
176,96,43014,2,0,L|176:176,2,70,0|0|8,0:0|0:0|0:0,0:0:0:0:
128,96,43442,1,0,0:0:0:0:
80,128,43585,2,2,P|96:224|160:288,2,140
128,144,44300,2,2,L|208:144,2,70,2|10|2,0:0|0:0|0:0,0:0:0:0:
144,192,44728,6,0,P|160:256|256:304,1,140,0|8,0:0|0:0,0:0:0:0:
256,256,45157,2,0,L|368:224,4,70,0|0|0|0|2,0:0|0:0|0:0|0:0|0:0,0:0:0:0:
256,192,45871,12,4,46728,0:0:0:0:
368,80,47014,6,0,B|480:160|448:208|432:256|368:288,1,210
384,288,47585,2,0,B|304:304|224:288|176:320,1,210
144,288,48157,2,0,B|80:224|80:144|80:80,1,210
112,80,48728,2,0,P|208:64|320:80,1,210
336,96,49300,2,0,P|416:128|448:240,1,210
432,272,49871,2,0,P|336:288|208:272,1,210
208,256,50442,2,0,P|128:192|128:80,1,210
160,80,51014,2,0,B|240:80|304:80|352:144,1,210
368,176,51585,6,0,P|352:256|240:320,1,210
256,192,52157,12,0,53300,0:0:0:0:
112,128,53585,5,0,0:0:0:0:
160,160,53728,1,0,0:0:0:0:
208,176,53871,2,2,L|320:176,2,70
160,224,54300,2,2,L|80:224,2,70,2|10|2,0:0|0:0|0:0,0:0:0:0:
208,272,54728,2,2,L|288:272,1,70
320,272,55014,1,4,0:0:0:0:
256,240,55585,5,0,0:0:0:0:
224,128,55728,1,0,0:0:0:0:
304,192,55871,1,0,0:0:0:0:
208,192,56014,1,0,0:0:0:0:
288,128,56157,6,0,P|368:128|384:176,1,140
400,192,56585,2,2,P|384:256|256:288,1,210
192,288,57157,1,0,0:0:0:0:
144,272,57300,2,0,P|80:160|96:144,1,140
80,128,57728,2,2,B|144:80|240:96|288:96,1,210
336,112,58300,1,0,0:0:0:0:
384,192,58585,6,0,L|256:192,3,70
208,192,59300,2,0,L|208:288,1,70
256,272,59585,2,2,P|336:272|368:224,3,140
368,144,60728,6,0,P|256:96|208:128,1,140
240,144,61157,2,0,P|224:224|160:224,1,140
128,224,61585,2,0,P|80:144|112:96,1,140
176,64,62157,1,0,0:0:0:0:
256,96,62442,1,0,0:0:0:0:
256,176,62728,1,0,0:0:0:0:
336,176,63014,2,2,B|416:176|416:176|416:240,5,140,0|0|0|0|0|0,0:0|0:0|0:0|0:0|0:0|0:0,0:0:0:0:
336,256,64728,5,0,0:0:0:0:
288,288,64871,1,0,0:0:0:0:
240,256,65014,1,0,0:0:0:0:
192,288,65157,1,0,0:0:0:0:
144,256,65300,2,2,P|80:192|96:160,1,140
128,128,65728,2,2,P|208:128|224:192,1,140
304,240,66442,2,2,B|384:240|384:240|384:176,1,140
384,144,66871,2,2,B|384:64|384:64|320:64,1,140
240,96,67442,6,0,P|160:96|96:144,1,140
112,160,67871,2,0,L|112:240,2,70
192,192,68442,1,0,0:0:0:0:
224,176,68585,2,2,B|224:80|304:64|320:112|336:192|336:264|224:288,1,350
144,240,69585,1,0,0:0:0:0:
144,208,69728,1,0,0:0:0:0:
256,192,69871,12,0,71585,0:0:0:0:
288,160,72157,5,0,0:0:0:0:
256,208,72300,1,0,0:0:0:0:
224,160,72442,1,0,0:0:0:0:
256,192,72585,12,0,73300,0:0:0:0:
272,128,73585,5,0,0:0:0:0:
192,192,73871,1,0,0:0:0:0:
288,224,74157,1,0,0:0:0:0:
368,160,74442,6,0,P|336:112|256:96,1,140
224,80,75157,2,0,L|192:32,2,35
208,112,75585,2,0,B|160:144|144:192|128:240,1,140,0|2,0:0|0:0,0:0:0:0:
128,256,76300,2,0,L|80:256,2,35
160,288,76728,2,2,P|224:304|256:320,1,70
304,304,77300,2,2,L|368:272,1,70
368,208,77871,2,2,L|368:128,1,70
336,80,78442,2,2,L|256:80,1,70
208,80,79014,6,0,P|160:96|144:128,3,70
144,176,80157,2,0,P|128:240|144:256,2,70
208,160,80871,1,0,0:0:0:0:
208,208,81014,1,2,0:0:0:0:
224,240,81157,1,0,0:0:0:0:
256,240,81300,6,0,P|304:224|320:192,1,70
320,160,81871,2,0,P|304:112|272:112,1,70
224,112,82442,2,0,L|128:112,1,70
128,208,83157,1,0,0:0:0:0:
128,240,83300,1,4,0:0:0:0:
240,240,83585,6,0,L|336:240,3,52.5000020027161,0|0|2|0,0:0|0:0|0:0|0:0,0:0:0:0:
288,192,84157,2,0,L|384:192,3,52.5000020027161,0|0|2|0,0:0|0:0|0:0|0:0,0:0:0:0:
352,160,84728,2,0,L|288:160,3,52.5000020027161,0|0|2|0,0:0|0:0|0:0|0:0,0:0:0:0:
288,128,85300,2,0,L|224:128,3,52.5000020027161,0|0|2|0,0:0|0:0|0:0|0:0,0:0:0:0:
192,128,85871,2,2,P|112:160|96:224,1,157.500006008148
112,240,86442,2,2,P|160:288|256:288,1,157.500006008148
288,288,87014,2,2,P|368:224|352:160,1,157.500006008148
352,160,87585,2,2,B|352:80|320:48|272:64,1,105.000004005432,2|10,0:0|0:0,0:0:0:0:
240,64,88157,6,0,L|160:64,3,52.5000020027161,0|0|8|0,0:0|0:0|0:0|0:0,0:0:0:0:
240,96,88728,2,0,L|176:144,3,52.5000020027161,0|0|8|0,0:0|0:0|0:0|0:0,0:0:0:0:
240,96,89300,2,2,L|240:208,2,105.000004005432
288,96,90014,1,0,0:0:0:0:
304,96,90157,1,8,0:0:0:0:
320,112,90300,1,0,0:0:0:0:
336,144,90442,2,2,P|352:224|336:272,2,105.000004005432
288,176,91157,1,2,0:0:0:0:
272,192,91300,1,2,0:0:0:0:
256,208,91442,1,2,0:0:0:0:
256,192,91585,12,4,92442,0:0:0:0:
128,272,92728,6,0,B|64:192|64:128|80:48,1,210
96,64,93300,2,0,B|208:64|256:80|304:96,1,210
320,96,93871,2,0,B|400:80|416:112|432:160|432:240,1,210
432,256,94442,2,0,B|384:320|320:336|240:336,1,210
208,336,95014,2,0,B|96:304|80:272|80:192,1,210
96,160,95585,2,0,P|128:96|272:64,1,210
288,64,96157,2,0,B|288:160|384:256|208:240,1,210
240,272,96728,2,2,L|192:304,2,46.6666666666667
288,272,97014,2,2,L|336:304,2,46.6666666666667
336,256,97300,6,0,B|368:192|368:160|288:64,1,210
256,192,97871,12,0,99014,0:0:0:0:
256,128,99300,5,0,0:0:0:0:
256,160,99442,1,0,0:0:0:0:
224,192,99585,2,2,L|128:192,2,70
288,192,100014,2,2,L|368:192,2,70,2|10|2,0:0|0:0|0:0,0:0:0:0:
256,224,100442,2,2,L|256:304,1,70
256,320,100728,1,6,0:0:0:0:
224,224,101300,5,0,0:0:0:0:
272,224,101442,1,0,0:0:0:0:
272,176,101585,1,0,0:0:0:0:
224,176,101728,1,0,0:0:0:0:
