osu file format v14

[General]
AudioFilename: audio.mp3
AudioLeadIn: 0
PreviewTime: 40542
Countdown: 0
SampleSet: Normal
StackLeniency: 0.7
Mode: 1
LetterboxInBreaks: 0
WidescreenStoryboard: 0

[Editor]
Bookmarks: 555,21167,36167,41167,58667
DistanceSpacing: 1
BeatDivisor: 6
GridSize: 32
TimelineZoom: 1

[Metadata]
Title:Fukashigi no Carte (TV Size)
TitleUnicode:不可思議のカルテ (TV Size)
Artist:Koga Tomoe (CV: Touyama Nao)
ArtistUnicode:古賀朋絵 (CV: 東山奈央)
Creator:zhu
Version:- Fapu's Muzukashii -
Source:青春ブタ野郎はバニーガール先輩の夢を見ない
Tags:anime japanese faputa Seishun Buta Yarō Yarou wa Yumemiru Shōjo Shoujo no Yume o Minai ao-buta Puberty Syndrome: Abnormal experiences during adolescence due to sensitivity and instability. Rascal Does Not Dream of Bunny Girl Senpai ending arc 1
BeatmapID:1871007
BeatmapSetID:879516

[Difficulty]
HPDrainRate:6
CircleSize:2
OverallDifficulty:4
ApproachRate:10
SliderMultiplier:1.4
SliderTickRate:1

[Events]
//Background and Video events
0,0,"bg.jpg",0,0
//Break Periods
//Storyboard Layer 0 (Background)
//Storyboard Layer 1 (Fail)
//Storyboard Layer 2 (Pass)
//Storyboard Layer 3 (Foreground)
//Storyboard Sound Samples

[TimingPoints]
555,625,4,1,0,50,1,8
1180,625,4,1,0,50,1,0
20450,-83.3333333333333,4,1,0,55,0,0
21167,625,4,1,0,60,1,0
21167,-83.3333333333333,4,1,0,60,0,0
40542,-81.3008130081301,4,1,0,60,0,0
40750,-79.3650793650794,4,1,0,60,0,0
40958,-78.125,4,1,0,60,0,0
41167,-76.9230769230769,4,1,0,70,0,1
58667,-76.9230769230769,4,1,0,65,0,0

[Colours]
Combo1 : 128,64,64
Combo2 : 192,192,192
SliderTrackOverride : 30,30,30
SliderBorder : 255,200,200

[HitObjects]
256,192,555,5,0,0:0:0:0:
256,192,763,1,8,0:0:0:0:
256,192,1180,1,8,0:0:0:0:
256,192,1805,1,0,0:0:0:0:
256,192,2013,1,8,0:0:0:0:
256,192,2430,1,8,0:0:0:0:
256,192,3055,1,0,0:0:0:0:
256,192,3263,1,8,0:0:0:0:
256,192,3680,1,0,0:0:0:0:
256,192,4305,1,8,0:0:0:0:
256,192,5555,1,0,0:0:0:0:
256,192,5763,1,8,0:0:0:0:
256,192,6180,1,8,0:0:0:0:
256,192,6805,1,0,0:0:0:0:
256,192,7013,1,8,0:0:0:0:
256,192,7430,1,8,0:0:0:0:
256,192,8055,1,8,0:0:0:0:
256,192,8680,1,0,0:0:0:0:
256,192,10555,1,0,0:0:0:0:
256,192,10763,1,8,0:0:0:0:
256,192,11180,1,0,0:0:0:0:
256,192,11805,1,8,0:0:0:0:
256,192,12430,1,0,0:0:0:0:
256,192,13055,1,8,0:0:0:0:
256,192,13680,1,8,0:0:0:0:
256,192,14305,1,0,0:0:0:0:
256,192,14930,1,8,0:0:0:0:
256,192,15555,1,0,0:0:0:0:
256,192,15763,1,8,0:0:0:0:
256,192,16180,1,8,0:0:0:0:
256,192,16805,1,0,0:0:0:0:
256,192,17013,1,8,0:0:0:0:
256,192,17430,1,0,0:0:0:0:
256,192,18055,1,0,0:0:0:0:
256,192,18680,1,8,0:0:0:0:
256,192,20555,1,0,0:0:0:0:
256,192,20867,1,0,0:0:0:0:
256,192,21167,1,12,0:0:0:0:
256,192,21792,1,8,0:0:0:0:
256,192,22104,1,0,0:0:0:0:
256,192,22417,1,0,0:0:0:0:
256,192,23042,1,8,0:0:0:0:
256,192,23667,1,0,0:0:0:0:
256,192,24292,1,8,0:0:0:0:
256,192,24604,1,0,0:0:0:0:
256,192,24917,1,8,0:0:0:0:
256,192,25542,1,0,0:0:0:0:
256,192,25854,1,8,0:0:0:0:
256,192,26167,1,0,0:0:0:0:
256,192,26792,1,8,0:0:0:0:
256,192,27417,1,8,0:0:0:0:
256,192,27729,1,0,0:0:0:0:
256,192,28042,1,8,0:0:0:0:
256,192,28354,1,8,0:0:0:0:
256,192,28667,1,0,0:0:0:0:
256,192,29292,1,8,0:0:0:0:
256,192,29604,1,0,0:0:0:0:
256,192,29917,1,0,0:0:0:0:
256,192,30542,1,8,0:0:0:0:
256,192,31167,1,8,0:0:0:0:
256,192,31792,1,0,0:0:0:0:
256,192,32104,1,8,0:0:0:0:
256,192,32417,1,0,0:0:0:0:
256,192,33042,1,8,0:0:0:0:
256,192,33667,1,0,0:0:0:0:
256,192,34292,1,0,0:0:0:0:
256,192,34604,1,8,0:0:0:0:
256,192,34917,1,8,0:0:0:0:
256,192,35542,1,0,0:0:0:0:
256,192,35854,1,8,0:0:0:0:
256,192,36167,1,0,0:0:0:0:
256,192,36792,1,0,0:0:0:0:
256,192,37104,1,0,0:0:0:0:
256,192,37417,1,8,0:0:0:0:
256,192,38042,1,8,0:0:0:0:
256,192,38354,1,0,0:0:0:0:
256,192,38667,1,8,0:0:0:0:
256,192,39292,1,8,0:0:0:0:
256,192,39604,1,8,0:0:0:0:
256,192,39812,1,0,0:0:0:0:
256,192,39917,1,0,0:0:0:0:
256,192,40229,1,8,0:0:0:0:
256,192,40542,1,0,0:0:0:0:
256,192,40750,1,8,0:0:0:0:
256,192,40958,1,0,0:0:0:0:
256,192,41167,1,12,0:0:0:0:
256,192,41479,1,0,0:0:0:0:
256,192,41792,1,8,0:0:0:0:
256,192,42000,1,8,0:0:0:0:
256,192,42208,1,0,0:0:0:0:
256,192,42417,1,8,0:0:0:0:
256,192,42729,1,0,0:0:0:0:
256,192,43042,1,8,0:0:0:0:
256,192,43250,1,8,0:0:0:0:
256,192,43458,1,8,0:0:0:0:
256,192,43667,1,0,0:0:0:0:
256,192,43979,1,0,0:0:0:0:
256,192,44292,1,8,0:0:0:0:
256,192,44917,1,0,0:0:0:0:
256,192,45125,1,8,0:0:0:0:
256,192,45229,1,8,0:0:0:0:
256,192,45542,1,0,0:0:0:0:
256,192,45750,1,8,0:0:0:0:
256,192,45958,1,0,0:0:0:0:
256,192,46167,1,8,0:0:0:0:
256,192,46479,1,0,0:0:0:0:
256,192,46792,1,8,0:0:0:0:
256,192,47000,1,8,0:0:0:0:
256,192,47208,1,0,0:0:0:0:
256,192,47417,1,8,0:0:0:0:
256,192,47729,1,0,0:0:0:0:
256,192,48042,1,8,0:0:0:0:
256,192,48667,1,0,0:0:0:0:
256,192,48875,1,8,0:0:0:0:
256,192,48979,1,8,0:0:0:0:
256,192,49292,1,8,0:0:0:0:
256,192,49917,1,0,0:0:0:0:
256,192,50125,1,8,0:0:0:0:
256,192,50229,1,8,0:0:0:0:
256,192,50542,1,8,0:0:0:0:
256,192,50750,1,0,0:0:0:0:
256,192,50958,1,0,0:0:0:0:
256,192,51167,1,8,0:0:0:0:
256,192,51792,1,8,0:0:0:0:
256,192,52104,1,8,0:0:0:0:
256,192,52417,1,0,0:0:0:0:
256,192,53042,1,8,0:0:0:0:
256,192,53354,1,0,0:0:0:0:
256,192,53667,1,8,0:0:0:0:
256,192,54292,1,8,0:0:0:0:
256,192,54604,1,0,0:0:0:0:
256,192,54917,1,8,0:0:0:0:
256,192,55229,1,0,0:0:0:0:
256,192,55542,1,0,0:0:0:0:
256,192,55750,1,8,0:0:0:0:
256,192,55958,1,0,0:0:0:0:
256,192,56167,1,8,0:0:0:0:
256,192,56479,1,0,0:0:0:0:
256,192,56792,1,8,0:0:0:0:
256,192,57000,1,8,0:0:0:0:
256,192,57208,1,0,0:0:0:0:
256,192,57417,1,0,0:0:0:0:
256,192,57729,1,8,0:0:0:0:
256,192,58042,1,0,0:0:0:0:
256,192,58667,1,12,0:0:0:0:
