osu file format v14

[General]
AudioFilename: audio.mp3
AudioLeadIn: 0
PreviewTime: 40542
Countdown: 0
SampleSet: Soft
StackLeniency: 0.7
Mode: 0
LetterboxInBreaks: 0
WidescreenStoryboard: 0

[Editor]
Bookmarks: 555,1180,21167,36167,41167,58667
DistanceSpacing: 1.5
BeatDivisor: 6
GridSize: 32
TimelineZoom: 1.4

[Metadata]
Title:Fukashigi no Carte (TV Size)
TitleUnicode:不可思議のカルテ (TV Size)
Artist:Koga Tomoe (CV: Touyama Nao)
ArtistUnicode:古賀朋絵 (CV: 東山奈央)
Creator:zhu
Version:- Ai -
Source:青春ブタ野郎はバニーガール先輩の夢を見ない
Tags:anime japanese faputa Seishun Buta Yarō Yarou wa Yumemiru Shōjo Shoujo no Yume o Minai ao-buta Puberty Syndrome: Abnormal experiences during adolescence due to sensitivity and instability. Rascal Does Not Dream of Bunny Girl Senpai ending arc 1
BeatmapID:1839305
BeatmapSetID:879516

[Difficulty]
HPDrainRate:6
CircleSize:5
OverallDifficulty:7
ApproachRate:8
SliderMultiplier:2
SliderTickRate:1

[Events]
//Background and Video events
0,0,"bg.jpg",0,0
Video,0,"video.avi"
//Break Periods
//Storyboard Layer 0 (Background)
//Storyboard Layer 1 (Fail)
//Storyboard Layer 2 (Pass)
//Storyboard Layer 3 (Foreground)
//Storyboard Sound Samples

[TimingPoints]
555,625,4,2,1,30,1,8
555,-200,4,2,1,30,0,0
1180,625,4,2,1,30,1,0
1180,-200,4,2,1,30,0,0
1596,-200,4,2,1,5,0,0
1805,-200,4,2,1,30,0,0
2846,-200,4,2,1,5,0,0
3055,-200,4,2,1,30,0,0
5555,-200,4,2,1,30,0,0
6596,-200,4,2,1,5,0,0
6805,-200,4,2,1,30,0,0
7846,-200,4,2,1,5,0,0
8055,-200,4,2,1,30,0,0
8471,-200,4,2,1,5,0,0
8680,-400,4,2,1,30,0,0
9930,-400,4,2,1,5,0,0
10555,-200,4,2,1,30,0,0
11700,-200,4,2,1,5,0,0
11805,-200,4,2,1,30,0,0
12325,-200,4,2,1,5,0,0
12430,-200,4,2,1,30,0,0
12950,-200,4,2,1,5,0,0
13055,-200,4,2,1,30,0,0
13575,-200,4,2,1,5,0,0
13680,-200,4,2,1,30,0,0
14200,-200,4,2,1,5,0,0
14305,-200,4,2,1,30,0,0
14825,-200,4,2,1,5,0,0
14930,-200,4,2,1,30,0,0
15450,-200,4,2,1,5,0,0
15555,-200,4,2,1,30,0,0
16596,-200,4,2,1,5,0,0
16805,-200,4,2,1,30,0,0
17846,-200,4,2,1,5,0,0
18055,-200,4,2,1,30,0,0
18471,-200,4,2,1,5,0,0
18680,-400,4,2,1,30,0,0
20346,-200,4,2,1,5,0,0
20450,-200,4,2,1,35,0,0
21167,625,4,2,1,40,1,0
21167,-66.6666666666667,4,2,1,40,0,0
21479,-50,4,2,1,40,0,0
21792,-66.6666666666667,4,2,1,40,0,0
22104,-50,4,2,1,40,0,0
22417,-66.6666666666667,4,2,1,40,0,0
22729,-50,4,2,1,40,0,0
23042,-66.6666666666667,4,2,1,40,0,0
23354,-50,4,2,1,40,0,0
23667,-66.6666666666667,4,2,1,40,0,0
23979,-50,4,2,1,40,0,0
24292,-66.6666666666667,4,2,1,40,0,0
24604,-50,4,2,1,40,0,0
24917,-66.6666666666667,4,2,1,40,0,0
25229,-50,4,2,1,40,0,0
25542,-66.6666666666667,4,2,1,40,0,0
25854,-50,4,2,1,40,0,0
26167,-66.6666666666667,4,2,1,40,0,0
26479,-50,4,2,1,40,0,0
26792,-66.6666666666667,4,2,1,40,0,0
27104,-50,4,2,1,40,0,0
27417,-66.6666666666667,4,2,1,40,0,0
27729,-50,4,2,1,40,0,0
28042,-66.6666666666667,4,2,1,40,0,0
28354,-50,4,2,1,40,0,0
28667,-66.6666666666667,4,2,1,40,0,0
28979,-50,4,2,1,40,0,0
29292,-66.6666666666667,4,2,1,40,0,0
29604,-50,4,2,1,40,0,0
29917,-66.6666666666667,4,2,1,40,0,0
30229,-50,4,2,1,40,0,0
30542,-66.6666666666667,4,2,1,40,0,0
30854,-50,4,2,1,40,0,0
31167,-66.6666666666667,4,2,1,40,0,0
31479,-50,4,2,1,40,0,0
31792,-66.6666666666667,4,2,1,40,0,0
32104,-50,4,2,1,40,0,0
32417,-66.6666666666667,4,2,1,40,0,0
32729,-50,4,2,1,40,0,0
33042,-66.6666666666667,4,2,1,40,0,0
33354,-50,4,2,1,40,0,0
33667,-66.6666666666667,4,2,1,40,0,0
33979,-50,4,2,1,40,0,0
34292,-66.6666666666667,4,2,1,40,0,0
34604,-50,4,2,1,40,0,0
34917,-66.6666666666667,4,2,1,40,0,0
35229,-50,4,2,1,40,0,0
35542,-66.6666666666667,4,2,1,40,0,0
35854,-50,4,2,1,40,0,0
36167,-40,4,2,1,40,0,0
40542,-50,4,2,1,40,0,0
41167,-50,4,2,1,60,0,1
58667,-50,4,2,1,35,0,0

[Colours]
Combo1 : 170,0,0
Combo2 : 128,128,128
SliderTrackOverride : 0,0,0
SliderBorder : 255,50,50

[HitObjects]
201,148,555,6,0,P|188:136|173:131,2,33.3333333333333,2|2|2,0:0|0:0|0:0,0:0:0:0:
155,207,1180,2,0,B|89:196,1,66.6666666666667,2|0,0:0|0:0,0:0:0:0:
188,280,1805,6,0,P|200:291|215:296,2,33.3333333333333,2|2|2,0:0|0:0|0:0,0:0:0:0:
236,220,2430,2,0,B|301:230,1,66.6666666666667,2|0,0:0|0:0,0:0:0:0:
353,294,3055,6,0,L|358:329,2,33.3333333333333,2|2|2,0:0|0:0|0:0,0:0:0:0:
385,220,3680,2,0,P|411:170|401:117,2,100,2|2|0,0:0|0:0|0:0,0:0:0:0:
332,158,5555,6,0,L|303:141,2,33.3333333333333,2|2|2,0:0|0:0|0:0,0:0:0:0:
302,231,6180,2,0,B|281:241|281:241|239:228,1,66.6666666666666,2|0,0:0|0:0,0:0:0:0:
177,181,6805,6,0,L|138:201,2,33.3333333333333,2|2|2,0:0|0:0|0:0,0:0:0:0:
253,152,7430,2,0,B|274:142|274:142|315:154,1,66.6666666666666,2|0,0:0|0:0,0:0:0:0:
378,202,8055,2,0,P|390:178|390:135,1,66.6666666666666,2|0,0:0|0:0,0:0:0:0:
340,85,8680,6,0,L|244:55,1,100,2|0,0:0|0:0,0:0:0:0:
179,89,10555,6,0,P|170:74|169:58,2,33.3333333333333,2|2|2,0:0|0:0|0:0,0:0:0:0:
235,146,11180,2,0,P|256:182|248:222,1,83.3333333333333,2|0,0:0|0:0,0:0:0:0:
220,210,11805,2,0,P|255:230|268:268,1,83.3333333333333,2|0,0:0|0:0,0:0:0:0:
237,272,12430,2,0,P|277:271|308:298,1,83.3333333333333,2|0,0:0|0:0,0:0:0:0:
282,317,13055,2,0,P|317:296|357:304,1,83.3333333333333,2|0,0:0|0:0,0:0:0:0:
387,343,13680,6,0,L|369:261,1,83.3333333333333,2|0,0:0|0:0,0:0:0:0:
352,288,14305,2,0,L|397:218,1,83.3333333333333,2|0,0:0|0:0,0:0:0:0:
366,223,14930,2,0,L|447:205,1,83.3333333333333,2|0,0:0|0:0,0:0:0:0:
478,129,15555,6,0,L|510:122,2,33.3333333333333,2|2|2,0:0|0:0|0:0,0:0:0:0:
402,141,16180,2,0,P|375:121|343:116,1,66.6666666666666,2|0,0:0|0:0,0:0:0:0:
280,156,16805,6,0,L|265:188,2,33.3333333333333,2|2|2,0:0|0:0|0:0,0:0:0:0:
276,82,17430,2,0,P|243:76|217:56,1,66.6666666666666,2|0,0:0|0:0,0:0:0:0:
146,26,18055,2,0,L|130:90,1,66.6666666666666,2|0,0:0|0:0,0:0:0:0:
104,170,18680,6,0,P|52:191|60:136,1,133.333333333333,2|0,0:0|0:0,0:0:0:0:
58,136,20450,5,4,0:3:0:0:
134,299,20555,1,8,0:3:0:0:
134,299,20867,1,4,0:3:0:0:
205,216,21167,6,0,P|254:205|301:226,1,100.000003814697,4|0,0:3|0:0,0:0:0:0:
317,214,21479,2,0,P|257:187|194:202,1,133.333333333333,2|0,0:0|0:0,0:0:0:0:
129,153,21792,2,0,L|183:68,1,100.000003814697,8|0,0:0|0:0,0:0:0:0:
177,42,22104,2,0,L|104:154,1,133.333333333333,2|2,0:0|0:0,0:0:0:0:
117,248,22417,2,0,B|132:274|132:274|200:288,1,100.000003814697,4|2,0:3|0:0,0:0:0:0:
100,255,22729,2,0,B|120:290|120:290|212:310,1,133.333333333333,2|0,0:0|0:0,0:0:0:0:
330,306,23042,2,0,P|326:262|287:280,1,100.000003814697,8|0,0:0|0:0,0:0:0:0:
353,300,23354,2,0,P|332:242|274:258,1,133.333333333333,2|0,0:0|0:0,0:0:0:0:
426,231,23667,6,0,L|446:328,1,100.000003814697,4|0,0:3|0:0,0:0:0:0:
465,344,23979,2,0,L|437:213,1,133.333333333333,2|0,0:0|0:0,0:0:0:0:
406,58,24292,2,0,P|361:79|312:75,1,100.000003814697,8|0,0:0|0:0,0:0:0:0:
297,89,24604,2,0,P|362:93|422:64,1,133.333333333333,2|0,0:0|0:0,0:0:0:0:
251,158,24917,2,0,B|216:121|216:121|213:72,1,100.000003814697,4|0,0:3|0:0,0:0:0:0:
198,68,25229,2,0,B|202:132|202:132|251:183,1,133.333333333333,2|0,0:0|0:0,0:0:0:0:
188,297,25542,2,0,L|286:278,1,100.000003814697,8|0,0:0|0:0,0:0:0:0:
306,293,25854,2,0,L|174:317,1,133.333333333333,2|0,0:0|0:0,0:0:0:0:
70,264,26167,6,0,P|42:297|82:312,1,100.000003814697,4|0,0:3|0:0,0:0:0:0:
76,336,26479,2,0,P|25:308|51:248,1,133.333333333333,2|0,0:0|0:0,0:0:0:0:
140,203,26792,2,0,P|158:156|151:107,1,100.000003814697,8|0,0:0|0:0,0:0:0:0:
166,95,27104,2,0,P|173:161|149:223,1,133.333333333333,2|2,0:0|0:0,0:0:0:0:
274,179,27417,2,0,L|371:157,1,100.000003814697,4|0,0:3|0:0,0:0:0:0:
261,202,27729,2,0,L|391:173,1,133.333333333333,2|0,0:0|0:0,0:0:0:0:
480,66,28042,2,0,P|473:115|491:161,1,100.000003814697,8|0,0:0|0:0,0:0:0:0:
465,53,28354,2,0,P|458:118|482:180,1,133.333333333333,2|0,0:0|0:0,0:0:0:0:
445,284,28667,6,0,P|396:288|361:323,1,100.000003814697,4|0,0:3|0:0,0:0:0:0:
394,355,28979,2,0,P|343:313|278:312,1,133.333333333333,2|0,0:0|0:0,0:0:0:0:
181,317,29292,2,0,L|74:321,1,100.000003814697,8|0,0:0|0:0,0:0:0:0:
123,364,29604,2,0,L|5:301,1,133.333333333333,2|2,0:0|0:0,0:0:0:0:
55,138,29917,2,0,B|99:163|99:163|147:152,1,100.000003814697,4|2,0:3|0:0,0:0:0:0:
220,188,30229,2,0,B|158:167|158:167|123:109,1,133.333333333333,2|0,0:0|0:0,0:0:0:0:
234,43,30542,2,0,P|283:46|326:70,1,100.000003814697,8|0,0:0|0:0,0:0:0:0:
286,95,30854,2,0,P|344:64|410:62,1,133.333333333333,2|0,0:0|0:0,0:0:0:0:
427,183,31167,6,0,L|463:276,1,100.000003814697,4|0,0:3|0:0,0:0:0:0:
381,298,31479,2,0,P|423:247|426:182,1,133.333333333333,2|0,0:0|0:0,0:0:0:0:
293,267,31792,2,0,P|249:244|200:252,1,100.000003814697,8|0,0:0|0:0,0:0:0:0:
268,225,32104,2,0,L|144:273,1,133.333333333333,2|0,0:0|0:0,0:0:0:0:
44,127,32417,2,0,B|65:155|65:155|69:223,1,100.000003814697,4|0,0:3|0:0,0:0:0:0:
53,290,32729,2,0,P|63:225|116:187,1,133.333333333333,2|0,0:0|0:0,0:0:0:0:
198,82,33042,2,0,L|293:111,1,100.000003814697,8|0,0:0|0:0,0:0:0:0:
371,116,33354,2,0,B|342:143|309:121|309:121|277:99|248:120,1,133.333333333333,2|0,0:0|0:0,0:0:0:0:
212,257,33667,6,0,B|262:270|262:270|310:260,1,100.000003814697,4|0,0:3|0:0,0:0:0:0:
381,230,33979,2,0,P|421:273|372:305,1,133.333333333333,2|0,0:0|0:0,0:0:0:0:
164,325,34292,2,0,L|66:302,1,100.000003814697,8|0,0:0|0:0,0:0:0:0:
105,241,34604,2,0,P|139:295|117:356,1,133.333333333333,2|0,0:0|0:0,0:0:0:0:
44,180,34917,2,0,B|56:151|56:151|59:82,1,100.000003814697,4|0,0:3|0:0,0:0:0:0:
138,50,35229,2,0,L|135:116,1,66.6666666666667,2|0,0:0|0:0,0:0:0:0:
153,39,35437,1,8,0:3:0:0:
166,31,35542,2,0,L|163:130,1,100.000003814697,8|0,0:0|0:0,0:0:0:0:
192,218,35854,2,0,P|258:227|320:206,1,133.333333333333,2|0,0:0|0:0,0:0:0:0:
326,127,36167,6,0,P|389:176|379:255,2,166.666666666667,4|2|2,0:3|0:0|0:0,0:0:0:0:
317,305,36792,2,0,B|298:284|293:252|319:205|319:205|262:224,2,166.666666666667,8|2|2,0:0|0:0|0:0,0:0:0:0:
254,143,37417,2,0,B|195:165|195:165|146:146|146:146|97:162,2,166.666666666667,4|2|2,0:3|0:0|0:0,0:0:0:0:
103,250,38042,2,0,P|182:254|222:324,2,166.666666666667,8|2|2,0:0|0:0|0:0,0:0:0:0:
254,143,38667,5,6,0:0:0:0:
379,56,39187,5,8,0:3:0:0:
379,56,39292,1,8,0:3:0:0:
439,95,39604,5,8,0:3:0:0:
352,250,39812,1,8,0:3:0:0:
409,297,40125,5,8,0:3:0:0:
409,297,40230,1,8,0:3:0:0:
379,55,40542,6,0,P|403:34|435:25,1,66.6666666666667,2|0,0:0|0:0,0:0:0:0:
419,168,40750,2,0,P|452:170|481:186,1,66.6666666666667,2|0,0:0|0:0,0:0:0:0:
409,297,40958,2,0,P|430:322|439:353,1,66.6666666666667,2|0,0:0|0:0,0:0:0:0:
251,326,41167,6,0,B|187:350|186:294|116:319,2,133.333333333333,4|2|2,0:3|0:0|0:0,0:0:0:0:
195,66,41792,6,0,L|190:0,1,66.6666666666667,10|0,0:0|0:0,0:0:0:0:
115,120,42000,2,0,L|94:57,1,66.6666666666667,2|0,0:0|0:0,0:0:0:0:
77,232,42208,2,0,L|40:176,1,66.6666666666667,2|0,0:0|0:0,0:0:0:0:
213,195,42417,6,0,P|278:190|337:220,2,133.333333333333,4|2|2,0:3|0:0|0:0,0:0:0:0:
369,308,43042,6,0,L|389:371,1,66.6666666666667,10|0,0:0|0:0,0:0:0:0:
435,236,43250,2,0,L|484:280,1,66.6666666666667,2|0,0:0|0:0,0:0:0:0:
268,299,43458,2,0,L|254:364,1,66.6666666666667,2|0,0:0|0:0,0:0:0:0:
337,220,43667,6,0,L|295:93,2,133.333333333333,4|2|2,0:3|0:0|0:0,0:0:0:0:
221,60,44292,2,0,P|272:20|336:29,2,133.333333333333,8|2|2,0:0|0:0|0:0,0:0:0:0:
296,290,44917,6,0,P|352:290|403:251,1,133.333333333333,4|2,0:3|0:0,0:0:0:0:
296,290,45229,2,0,P|327:281|349:256,1,66.6666666666667,8|2,0:0|0:0,0:0:0:0:
196,277,45542,6,0,P|173:302|159:332,1,66.6666666666667,10|0,0:0|0:0,0:0:0:0:
156,161,45750,2,0,P|145:192|145:226,1,66.6666666666667,2|0,0:0|0:0,0:0:0:0:
74,61,45958,2,0,P|78:94|92:125,1,66.6666666666667,2|0,0:0|0:0,0:0:0:0:
307,51,46167,6,0,L|176:75,2,133.333333333333,4|2|2,0:3|0:0|0:0,0:0:0:0:
446,259,46792,6,0,B|413:267|413:267|391:291,1,66.6666666666667,10|0,0:0|0:0,0:0:0:0:
406,127,47000,2,0,B|429:150|429:150|461:157,1,66.6666666666667,2|0,0:0|0:0,0:0:0:0:
311,231,47208,2,0,B|319:198|319:198|309:167,1,66.6666666666667,2|0,0:0|0:0,0:0:0:0:
176,75,47417,6,0,B|130:59|130:59|49:85,2,133.333333333333,4|2|2,0:3|0:0|0:0,0:0:0:0:
78,287,48042,2,0,P|108:229|91:166,2,133.333333333333,8|2|2,0:0|0:0|0:0,0:0:0:0:
179,156,48667,6,0,L|272:251,1,133.333333333333,4|0,0:3|0:0,0:0:0:0:
299,264,48979,2,0,L|206:169,1,133.333333333333,2|0,0:0|0:0,0:0:0:0:
337,205,49292,2,0,P|306:147|323:84,1,133.333333333333,8|2,0:0|0:0,0:0:0:0:
351,67,49604,2,0,P|318:124|334:188,1,133.333333333333,2|2,0:0|0:0,0:0:0:0:
512,263,49917,6,0,B|423:281|423:281|377:265,1,133.333333333333,4|2,0:3|0:0,0:0:0:0:
512,263,50229,2,0,B|431:238,1,66.6666666666667,2|2,0:0|0:0,0:0:0:0:
432,80,50542,6,0,L|369:102,1,66.6666666666667,10|0,0:0|0:0,0:0:0:0:
281,88,50750,2,0,L|219:111,1,66.6666666666667,2|0,0:0|0:0,0:0:0:0:
132,117,50958,2,0,L|69:139,1,66.6666666666667,0|0,0:0|0:0,0:0:0:0:
222,320,51167,6,0,P|201:258|147:222,2,133.333333333333,4|2|2,0:3|0:0|0:0,0:0:0:0:
201,259,51792,2,0,P|210:194|176:139,2,133.333333333333,8|2|2,0:0|0:0|0:0,0:0:0:0:
209,198,52417,2,0,P|243:143|237:78,2,133.333333333333,4|2|2,0:3|0:0|0:0,0:0:0:0:
243,143,53042,2,0,P|298:107|320:46,2,133.333333333333,8|2|2,0:0|0:0|0:0,0:0:0:0:
118,122,53667,6,0,B|208:117|208:117|242:142,1,133.333333333333,4|2,0:3|0:0,0:0:0:0:
265,346,53979,2,0,B|215:270|215:270|220:228,1,133.333333333333,2|2,0:0|0:0,0:0:0:0:
384,106,54292,2,0,B|344:187|344:187|305:204,2,133.333333333333,8|2|2,0:0|0:0|0:0,0:0:0:0:
413,263,54917,2,0,B|445:174|445:174|484:157,1,133.333333333333,4|2,0:3|0:0,0:0:0:0:
413,263,55229,2,0,B|380:204,1,66.6666666666667,8|2,0:0|0:0,0:0:0:0:
223,51,55542,6,0,P|196:72|165:82,1,66.6666666666667,10|0,0:0|0:0,0:0:0:0:
55,151,55750,2,0,P|81:171|112:181,1,66.6666666666667,2|0,0:0|0:0,0:0:0:0:
213,261,55958,2,0,P|186:281|155:291,1,66.6666666666667,2|0,0:0|0:0,0:0:0:0:
301,206,56167,6,0,L|321:337,2,133.333333333333,4|2|2,0:3|0:0|0:0,0:0:0:0:
170,157,56792,2,0,P|196:98|159:47,2,133.333333333333,8|2|2,0:0|0:0|0:0,0:0:0:0:
203,282,57417,2,0,B|148:248|148:248|81:266,2,133.333333333333,4|2|2,0:3|0:0|0:0,0:0:0:0:
281,121,58042,2,0,B|343:92|350:152|408:120,2,133.333333333333,8|2|2,0:0|0:0|0:0,0:0:0:0:
136,334,58667,5,4,0:0:0:0:
