osu file format v14

[General]
AudioFilename: audio.mp3
AudioLeadIn: 0
PreviewTime: 40542
Countdown: 0
SampleSet: Soft
StackLeniency: 0.7
Mode: 0
LetterboxInBreaks: 0
WidescreenStoryboard: 0

[Editor]
Bookmarks: 26479,28667,36167
DistanceSpacing: 1.5
BeatDivisor: 6
GridSize: 32
TimelineZoom: 1.3

[Metadata]
Title:Fukashigi no Carte (TV Size)
TitleUnicode:不可思議のカルテ (TV Size)
Artist:Koga Tomoe (CV: Touyama Nao)
ArtistUnicode:古賀朋絵 (CV: 東山奈央)
Creator:I love Emilia
Version:Koga Tomoe
Source:青春ブタ野郎はバニーガール先輩の夢を見ない
Tags:anime japanese Seishun Buta Yarō Yarou wa Yumemiru Shōjo Shoujo no Yume o Minai ao-buta Puberty Syndrome: Abnormal experiences during adolescence due to sensitivity and instability. Rascal Does Not Dream of Bunny Girl Senpai ending arc 1
BeatmapID:1892242
BeatmapSetID:906775

[Difficulty]
HPDrainRate:5
CircleSize:5
OverallDifficulty:7.4
ApproachRate:8.4
SliderMultiplier:1.4
SliderTickRate:1

[Events]
//Background and Video events
0,0,"735106.jpg",0,0
//Break Periods
//Storyboard Layer 0 (Background)
//Storyboard Layer 1 (Fail)
//Storyboard Layer 2 (Pass)
//Storyboard Layer 3 (Foreground)
//Storyboard Sound Samples

[TimingPoints]
555,625,4,2,1,30,1,8
1180,625,4,2,1,30,1,0
4305,-166.666666666667,4,2,1,30,0,0
5555,-100,4,2,1,30,0,0
8055,-125,4,2,1,30,0,0
8680,-166.666666666667,4,2,1,30,0,0
11180,-100,4,2,1,30,0,0
11805,-100,4,2,1,40,0,0
12430,-100,4,2,1,30,0,0
13055,-100,4,2,1,40,0,0
17430,-125,4,2,1,35,0,0
18055,-166.666666666667,4,2,1,30,0,0
18680,-250,4,2,1,30,0,0
20450,-250,4,3,1,40,0,0
20867,-100,4,3,1,40,0,0
21167,625,4,2,1,40,1,0
21167,-58.8235294117647,4,2,1,40,0,0
21479,-41.6666666666667,4,2,1,40,0,0
21792,-58.8235294117647,4,2,1,40,0,0
22104,-41.6666666666667,4,2,1,40,0,0
22417,-58.8235294117647,4,2,1,40,0,0
22729,-41.6666666666667,4,2,1,40,0,0
23042,-58.8235294117647,4,2,1,40,0,0
23354,-41.6666666666667,4,2,1,40,0,0
23667,-58.8235294117647,4,2,1,40,0,0
23979,-41.6666666666667,4,2,1,40,0,0
24292,-58.8235294117647,4,2,1,40,0,0
24604,-41.6666666666667,4,2,1,40,0,0
24917,-58.8235294117647,4,2,1,40,0,0
25229,-41.6666666666667,4,2,1,40,0,0
25542,-58.8235294117647,4,2,1,40,0,0
25854,-41.6666666666667,4,2,1,40,0,0
26167,-58.8235294117647,4,2,1,40,0,0
26479,-50,4,2,1,40,0,0
27417,-41.6666666666667,4,2,1,40,0,0
27729,-50,4,2,1,40,0,0
28354,-100,4,2,1,40,0,0
28667,-58.8235294117647,4,2,1,40,0,0
28979,-41.6666666666667,4,2,1,40,0,0
29292,-58.8235294117647,4,2,1,40,0,0
29604,-41.6666666666667,4,2,1,40,0,0
29917,-58.8235294117647,4,2,1,40,0,0
30229,-41.6666666666667,4,2,1,40,0,0
30542,-58.8235294117647,4,2,1,40,0,0
30854,-41.6666666666667,4,2,1,40,0,0
31167,-58.8235294117647,4,2,1,40,0,0
31479,-41.6666666666667,4,2,1,40,0,0
31792,-58.8235294117647,4,2,1,40,0,0
32104,-41.6666666666667,4,2,1,40,0,0
32417,-58.8235294117647,4,2,1,40,0,0
32729,-41.6666666666667,4,2,1,40,0,0
33042,-66.6666666666667,4,2,1,40,0,0
33354,-50,4,2,1,40,0,0
33667,-58.8235294117647,4,2,1,40,0,0
33979,-41.6666666666667,4,2,1,40,0,0
34292,-83.3333333333333,4,2,1,40,0,0
34604,-58.8235294117647,4,2,1,40,0,0
34917,-41.6666666666667,4,2,1,40,0,0
35437,-41.6666666666667,4,3,1,40,0,0
35542,-58.8235294117647,4,2,1,40,0,0
35854,-100,4,2,1,40,0,0
36167,-37.037037037037,4,2,1,40,0,0
36792,-43.4782608695652,4,2,1,40,0,0
37417,-38.4615384615385,4,2,1,40,0,0
38667,-100,4,2,1,40,0,0
39187,-100,4,3,1,40,0,0
39812,-76.9230769230769,4,3,1,40,0,0
40542,-62.5,4,2,1,40,0,0
40750,-45.4545454545455,4,2,1,40,0,0
40958,-35.7142857142857,4,2,1,40,0,0
41167,-33.3333333333333,4,2,1,50,0,1
41792,-62.5,4,2,1,50,0,1
42000,-45.4545454545455,4,2,1,50,0,1
42208,-35.7142857142857,4,2,1,50,0,1
42417,-33.3333333333333,4,2,1,50,0,1
43042,-62.5,4,2,1,50,0,1
43250,-45.4545454545455,4,2,1,50,0,1
43458,-35.7142857142857,4,2,1,50,0,1
43667,-33.3333333333333,4,2,1,50,0,1
44917,-43.4782608695652,4,2,1,50,0,1
45125,-43.4782608695652,4,3,1,50,0,1
45229,-43.4782608695652,4,3,1,50,0,1
45542,-62.5,4,2,1,50,0,1
45750,-45.4545454545455,4,2,1,50,0,1
45958,-35.7142857142857,4,2,1,50,0,1
46167,-33.3333333333333,4,2,1,50,0,1
46792,-62.5,4,2,1,50,0,1
47000,-45.4545454545455,4,2,1,50,0,1
47208,-35.7142857142857,4,2,1,50,0,1
47417,-33.3333333333333,4,2,1,50,0,1
48667,-38.4615384615385,4,2,1,50,0,1
48875,-38.4615384615385,4,3,1,50,0,1
48979,-33.3333333333333,4,2,1,50,0,1
49292,-38.4615384615385,4,2,1,50,0,1
49604,-33.3333333333333,4,2,1,50,0,1
49917,-38.4615384615385,4,2,1,50,0,1
50229,-66.6666666666667,4,3,1,50,0,1
50542,-55.5555555555556,4,2,1,50,0,1
50642,-41.6666666666667,4,2,1,50,0,1
50958,-33.3333333333333,4,2,1,50,0,1
51167,-31.25,4,2,1,50,0,1
51792,-35.7142857142857,4,2,1,50,0,1
52417,-41.6666666666667,4,2,1,50,0,1
53042,-50,4,2,1,50,0,1
53979,-38.4615384615385,4,2,1,50,0,1
54292,-43.4782608695652,4,2,1,50,0,1
54604,-34.4827586206897,4,2,1,50,0,1
55229,-34.4827586206897,4,3,1,50,0,1
55542,-62.5,4,2,1,50,0,1
55750,-41.6666666666667,4,2,1,50,0,1
55958,-33.3333333333333,4,2,1,50,0,1
56167,-31.25,4,2,1,50,0,1
56792,-62.5,4,2,1,50,0,1
57000,-41.6666666666667,4,2,1,50,0,1
57208,-33.3333333333333,4,2,1,50,0,1
57417,-31.25,4,2,1,50,0,1
57937,-31.25,4,3,1,50,0,1
58042,-38.4615384615385,4,3,1,50,0,1
58354,-50,4,3,1,50,0,1
58667,-100,4,2,1,50,0,1
59187,-100,4,2,1,40,0,0

[HitObjects]
107,97,555,5,2,0:0:0:0:
107,97,763,1,2,0:0:0:0:
107,97,971,1,2,0:0:0:0:
107,97,1180,2,0,L|119:197,1,93.3333333333333,2|0,0:0|0:0,0:0:0:0:
235,306,1805,5,2,0:0:0:0:
235,306,2013,1,2,0:0:0:0:
235,306,2221,1,2,0:0:0:0:
235,306,2430,2,0,L|247:206,1,93.3333333333333,2|0,0:0|0:0,0:0:0:0:
330,78,3055,5,2,0:0:0:0:
337,94,3263,1,2,0:0:0:0:
341,116,3471,1,2,0:0:0:0:
339,136,3680,2,0,P|322:165|261:201,1,93.3333333333333,2|0,0:0|0:0,0:0:0:0:
254,285,4305,2,0,P|238:270|174:262,1,83.9999974365235,2|0,0:0|0:0,0:0:0:0:
52,171,5555,6,2,L|35:122,2,46.6666666666667
89,231,6180,2,0,B|117:245|117:245|182:239,1,93.3333333333333,2|0,0:0|0:0,0:0:0:0:
325,294,6805,6,2,L|345:342,2,46.6666666666667
287,223,7430,2,0,B|261:198|261:198|195:181,1,93.3333333333333,2|0,0:0|0:0,0:0:0:0:
139,145,8055,2,0,B|127:112|127:112|137:61,1,74.6666666666667,2|0,0:0|0:0,0:0:0:0:
186,17,8680,2,0,B|221:7|221:7|356:35,1,167.999994873047,2|2,0:0|0:0,0:0:0:0:
347,175,10555,5,2,0:0:0:0:
334,192,10763,1,2,0:0:0:0:
321,209,10971,1,2,0:0:0:0:
308,227,11180,2,8,P|272:243|203:235,1,93.3333333333333,8|0,0:0|0:0,0:0:0:0:
188,312,11805,2,0,P|152:296|83:304,1,93.3333333333333,2|0,0:0|0:0,0:0:0:0:
42,355,12430,2,0,P|26:319|34:250,1,93.3333333333333,8|0,0:0|0:0,0:0:0:0:
68,199,13055,2,0,P|84:163|76:94,1,93.3333333333333,2|0,0:0|0:0,0:0:0:0:
115,38,13680,6,0,P|128:23|156:11,2,46.6666666666667,2|0|0,0:0|0:0|0:0,0:0:0:0:
213,106,14305,2,0,P|200:91|172:79,2,46.6666666666667,2|0|0,0:0|0:0|0:0,0:0:0:0:
152,156,14930,1,2,0:0:0:0:
211,289,15555,5,2,0:0:0:0:
211,289,15763,1,2,0:0:0:0:
211,289,15971,1,2,0:0:0:0:
211,289,16180,2,0,P|181:307|112:316,1,93.3333333333333,2|0,0:0|0:0,0:0:0:0:
152,243,16805,5,2,0:0:0:0:
152,243,17013,1,2,0:0:0:0:
152,243,17221,1,2,0:0:0:0:
152,243,17430,2,0,P|166:218|173:162,1,74.6666666666667,2|0,0:0|0:0,0:0:0:0:
126,117,18055,6,0,P|146:103|188:99,1,55.9999982910157,8|0,0:0|0:0,0:0:0:0:
245,140,18680,6,0,P|274:148|355:126,1,112,2|2,0:0|0:0,0:0:0:0:
392,68,20450,5,4,0:0:0:0:
392,68,20555,1,8,0:0:0:0:
421,202,20867,6,0,P|404:224|392:257,1,46.6666666666667,4|0,0:0|0:0,0:0:0:0:
341,328,21167,6,0,P|286:353|238:348,1,79.3333348464966,2|0,0:0|0:0,0:0:0:0:
287,275,21479,2,0,P|233:248|165:252,1,111.999996582031,8|0,0:0|0:0,0:0:0:0:
76,341,21792,6,0,B|57:313|57:313|60:249,1,79.3333348464966,2|0,0:0|0:0,0:0:0:0:
136,285,22104,2,0,B|158:251|158:251|155:174,1,111.999996582031,8|0,0:0|0:0,0:0:0:0:
86,76,22417,6,0,P|48:63|-9:75,1,79.3333348464966,2|0,0:0|0:0,0:0:0:0:
50,134,22729,2,0,P|106:153|195:135,1,111.999996582031,8|0,0:0|0:0,0:0:0:0:
287,178,23042,6,0,L|265:86,1,79.3333348464966,2|0,0:0|0:0,0:0:0:0:
370,153,23354,2,0,L|340:275,1,111.999996582031,8|0,0:0|0:0,0:0:0:0:
256,356,23667,6,0,P|239:319|197:292,1,79.3333348464966,2|0,0:0|0:0,0:0:0:0:
129,300,23979,2,0,P|158:244|234:209,1,111.999996582031,8|0,0:0|0:0,0:0:0:0:
369,153,24292,6,0,B|341:165|341:165|273:160,1,79.3333348464966,2|0,0:0|0:0,0:0:0:0:
359,83,24604,2,0,B|401:89|401:89|471:148,1,111.999996582031,8|0,0:0|0:0,0:0:0:0:
341,272,24917,6,0,L|322:178,1,79.3333348464966,2|0,0:0|0:0,0:0:0:0:
272,301,25229,2,0,L|359:374,1,111.999996582031,8|0,0:0|0:0,0:0:0:0:
386,152,25542,6,0,P|339:121|284:118,1,79.3333348464966,2|0,0:0|0:0,0:0:0:0:
374,228,25854,2,0,P|430:209|471:150,1,111.999996582031,8|0,0:0|0:0,0:0:0:0:
370,23,26167,6,0,B|384:55|384:55|382:119,1,79.3333348464966,2|0,0:0|0:0,0:0:0:0:
241,135,26479,6,0,L|131:167,1,93.3333333333333,8|0,0:0|0:0,0:0:0:0:
328,230,26792,2,0,L|224:189,1,93.3333333333333,8|0,0:0|0:0,0:0:0:0:
335,354,27104,2,0,L|282:266,1,93.3333333333333,8|0,0:0|0:0,0:0:0:0:
195,307,27417,6,0,P|205:236|240:188,1,111.999996582031,2|0,0:0|0:0,0:0:0:0:
152,197,27729,2,0,P|146:154|106:103,1,93.3333333333333,2|0,0:0|0:0,0:0:0:0:
192,286,28042,2,0,P|198:243|238:192,1,93.3333333333333,2|0,0:0|0:0,0:0:0:0:
146,351,28354,2,0,P|142:327|125:300,1,46.6666666666667,8|0,0:0|0:0,0:0:0:0:
52,221,28667,6,0,B|71:197|71:197|121:167,1,79.3333348464966,2|0,0:0|0:0,0:0:0:0:
178,218,28979,2,0,B|196:178|196:178|184:98,1,111.999996582031,8|0,0:0|0:0,0:0:0:0:
317,22,29292,6,0,L|292:106,1,79.3333348464966,2|0,0:0|0:0,0:0:0:0:
399,215,29604,2,0,L|366:92,1,111.999996582031,8|0,0:0|0:0,0:0:0:0:
351,284,29917,6,0,P|399:305|450:302,1,79.3333348464966,2|0,0:0|0:0,0:0:0:0:
327,209,30229,2,0,P|282:260|274:323,1,111.999996582031,8|0,0:0|0:0,0:0:0:0:
405,203,30542,6,0,B|394:168|394:168|341:117,1,79.3333348464966,2|0,0:0|0:0,0:0:0:0:
410,280,30854,2,0,B|449:266|449:266|498:201,1,111.999996582031,8|0,0:0|0:0,0:0:0:0:
372,46,31167,6,0,L|401:127,1,79.3333348464966,2|0,0:0|0:0,0:0:0:0:
319,248,31479,2,0,P|330:206|320:127,1,111.999996582031,8|0,0:0|0:0,0:0:0:0:
246,285,31792,6,0,B|261:312|261:312|327:354,1,79.3333348464966,2|0,0:0|0:0,0:0:0:0:
440,254,32104,2,0,L|317:270,1,111.999996582031,8|0,0:0|0:0,0:0:0:0:
259,105,32417,6,0,B|243:135|243:135|241:205,1,79.3333348464966,2|0,0:0|0:0,0:0:0:0:
334,108,32729,2,0,P|302:44|227:19,1,111.999996582031,8|0,0:0|0:0,0:0:0:0:
226,269,33042,6,0,L|315:237,1,70.0000026702882,2|0,0:0|0:0,0:0:0:0:
186,203,33354,2,0,B|159:232|159:232|136:314,1,93.3333333333333,8|0,0:0|0:0,0:0:0:0:
264,113,33667,6,0,P|225:92|158:95,1,79.3333348464966,2|0,0:0|0:0,0:0:0:0:
287,186,33979,2,0,B|322:163|322:163|359:84,1,111.999996582031,8|0,0:0|0:0,0:0:0:0:
207,240,34292,6,0,L|266:281,1,55.9999982910157,2|0,0:0|0:0,0:0:0:0:
126,200,34604,6,0,P|80:212|49:234,1,79.3333348464966,2|0,0:0|0:0,0:0:0:0:
127,274,34917,2,0,P|191:264|243:230,1,111.999996582031,8|0,0:0|0:0,0:0:0:0:
255,169,35229,1,0,0:0:0:0:
266,303,35437,5,4,0:0:0:0:
266,303,35542,2,0,B|297:284|297:284|376:273,1,79.3333348464966,2|0,0:0|0:0,0:0:0:0:
376,384,35854,2,0,L|338:352,1,46.6666666666667,8|0,0:0|0:0,0:0:0:0:
229,197,36167,6,0,B|149:179|149:179|71:204|37:326|102:386,1,315.00000120163,2|0,0:0|0:0,0:0:0:0:
278,294,36792,6,0,P|329:249|243:91,1,268.333338451386,2|0,0:0|0:0,0:0:0:0:
150,275,37417,6,0,P|195:340|422:290,1,303.333319447836,2|0,0:0|0:0,0:0:0:0:
275,187,38042,6,0,B|206:164|165:112|165:112|66:111|14:182,1,303.333319447836,2|0,0:0|0:0,0:0:0:0:
87,311,38667,6,0,P|79:282|91:241,1,70,2|0,0:0|0:0,0:0:0:0:
176,166,39187,5,8,0:0:0:0:
176,166,39292,2,0,P|186:192|186:226,1,46.6666666666667,4|0,0:0|0:0,0:0:0:0:
250,288,39604,1,8,0:0:0:0:
363,194,39812,6,0,B|392:184|392:184|456:199,1,90.9999958343508,8|0,0:0|0:0,0:0:0:0:
410,104,40229,1,4,0:0:0:0:
203,62,40542,6,0,L|184:28,1,37.3333333333333,8|0,0:0|0:0,0:0:0:0:
271,137,40750,2,0,L|304:76,1,51.3333348999024,8|0,0:0|0:0,0:0:0:0:
202,250,40958,2,0,L|168:189,1,65.3333313395183,8|0,0:0|0:0,0:0:0:0:
271,356,41167,2,0,B|310:330|310:330|351:242,2,140.000005340576,2|0|0,0:0|0:0|0:0,0:0:0:0:
93,320,41792,6,0,P|65:303|57:292,1,37.3333333333333,8|0,0:0|0:0,0:0:0:0:
204,212,42000,2,0,P|168:233|158:247,1,51.3333348999024,8|0,0:0|0:0,0:0:0:0:
312,330,42208,2,2,P|267:302|254:285,1,65.3333313395183,8|0,0:0|0:0,0:0:0:0:
474,157,42417,2,0,P|385:210|359:245,2,140.000005340576,2|0|0,0:0|0:0|0:0,0:0:0:0:
433,313,43042,6,0,B|440:336|440:336|439:370,1,37.3333333333333,2|0,0:0|0:0,0:0:0:0:
353,196,43250,2,0,B|346:219|346:219|347:253,1,51.3333348999024,2|0,0:0|0:0,0:0:0:0:
447,58,43458,2,0,B|455:85|455:85|454:127,1,65.3333313395183,2|0,0:0|0:0,0:0:0:0:
298,12,43667,6,0,B|267:44|267:44|247:152,2,140.000005340576,8|0|0,0:0|0:0|0:0,0:0:0:0:
338,161,44292,2,0,P|289:213|191:207,2,140.000005340576,8|0|0,0:0|0:0|0:0,0:0:0:0:
467,336,44917,6,0,P|430:310|352:304,1,107.333335380554,8|8,0:0|0:0,0:0:0:0:
298,334,45229,1,8,0:0:0:0:
141,243,45542,6,0,L|166:292,1,37.3333333333333,2|0,0:0|0:0,0:0:0:0:
219,125,45750,2,0,P|213:160|216:182,1,51.3333348999024,2|0,0:0|0:0,0:0:0:0:
91,34,45958,2,0,B|106:61|106:61|108:116,1,65.3333313395183,2|0,0:0|0:0,0:0:0:0:
26,217,46167,2,0,P|93:248|174:237,2,140.000005340576,8|0|0,0:0|0:0|0:0,0:0:0:0:
171,93,46792,6,0,B|148:95|148:95|109:122,1,37.3333333333333,2|0,0:0|0:0,0:0:0:0:
286,190,47000,2,0,L|224:157,1,51.3333348999024,2|0,0:0|0:0,0:0:0:0:
429,86,47208,2,0,P|384:106|351:108,1,65.3333313395183,2|0,0:0|0:0,0:0:0:0:
512,243,47417,6,0,B|454:203|454:203|370:196,2,140.000005340576,8|0|0,0:0|0:0|0:0,0:0:0:0:
345,300,48042,2,0,L|199:341,2,140.000005340576,8|0|0,0:0|0:0|0:0,0:0:0:0:
354,154,48667,6,0,P|288:186|255:252,1,121.333327779134,8|8,0:0|0:0,0:0:0:0:
441,187,48979,6,0,L|402:35,1,140.000005340576,2|0,0:0|0:0,0:0:0:0:
382,274,49292,2,0,B|440:296|440:296|521:274,1,121.333327779134,2|0,0:0|0:0,0:0:0:0:
326,192,49604,2,0,P|292:235|302:332,1,140.000005340576,2|0,0:0|0:0,0:0:0:0:
406,177,49917,2,0,B|385:137|385:137|291:85,1,121.333327779134,2|0,0:0|0:0,0:0:0:0:
239,85,50229,6,0,P|175:79|149:66,1,70.0000026702882,8|0,0:0|0:0,0:0:0:0:
41,94,50542,6,0,L|82:144,1,41.9999987182618,2|0,0:0|0:0,0:0:0:0:
191,180,50750,2,0,L|150:230,1,55.9999982910157,2|0,0:0|0:0,0:0:0:0:
35,303,50958,2,0,L|89:369,1,70.0000026702882,2|0,0:0|0:0,0:0:0:0:
231,362,51167,6,0,B|263:323|263:323|279:219,2,149.333333333333,8|0|0,0:0|0:0|0:0,0:0:0:0:
197,183,51792,6,0,P|278:130|357:140,2,130.666662679037,8|0|0,0:0|0:0|0:0,0:0:0:0:
129,248,52417,6,0,B|110:232|111:192|111:192|113:147|85:123,2,111.999996582031,8|0|0,0:0|0:0|0:0,0:0:0:0:
12,130,53042,6,0,L|63:52,2,93.3333333333333,8|0|0,0:0|0:0|0:0,0:0:0:0:
75,302,53667,6,0,P|121:320|189:310,1,93.3333333333333,2|0,0:0|0:0,0:0:0:0:
128,253,53979,2,0,P|101:208|108:126,1,121.333327779134,2|0,0:0|0:0,0:0:0:0:
165,182,54292,2,0,P|215:169|268:106,2,107.333335380554,2|2|2,0:0|0:0|0:0,0:0:0:0:
331,172,54917,6,0,B|332:131|332:131|292:27,1,135.333337463379,2|0,0:0|0:0,0:0:0:0:
402,169,55229,1,8,0:0:0:0:
401,351,55542,6,0,P|401:325|397:307,1,37.3333333333333,8|0,0:0|0:0,0:0:0:0:
289,252,55750,2,0,P|289:215|294:190,1,55.9999982910157,8|0,0:0|0:0,0:0:0:0:
411,137,55958,2,0,P|411:62|399:11,1,70.0000026702882,8|0,0:0|0:0,0:0:0:0:
280,0,56167,2,0,P|236:60|233:156,2,149.333333333333,8|0|0,0:0|0:0|0:0,0:0:0:0:
267,231,56792,6,0,L|291:168,1,37.3333333333333,8|0,0:0|0:0,0:0:0:0:
371,361,57000,2,0,L|347:298,1,55.9999982910157,8|0,0:0|0:0,0:0:0:0:
446,199,57208,2,0,L|488:91,1,70.0000026702882,8|0,0:0|0:0,0:0:0:0:
373,12,57417,6,0,B|335:52|335:52|324:93|324:93|246:172,1,149.333333333333,2|0,0:0|0:0,0:0:0:0:
156,32,57729,2,0,P|202:40|240:64,1,74.6666666666667,8|0,0:0|0:0,0:0:0:0:
96,128,57937,5,8,0:0:0:0:
96,128,58042,2,0,P|73:147|56:177,1,60.6666638895672,4|0,0:0|0:0,0:0:0:0:
147,225,58250,5,8,0:0:0:0:
147,225,58354,2,0,P|155:258|152:287,1,46.6666666666667,4|0,0:0|0:0,0:0:0:0:
93,327,58562,5,4,0:0:0:0:
93,327,58667,6,0,P|125:346|211:337,1,116.666666666667,8|0,0:0|0:0,0:0:0:0:
