osu file format v14

[General]
AudioFilename: audio.mp3
AudioLeadIn: 0
PreviewTime: 4533
Countdown: 0
SampleSet: Soft
StackLeniency: 0.7
Mode: 0
LetterboxInBreaks: 0
WidescreenStoryboard: 1

[Editor]
Bookmarks: 5681,16975,28269,39563,50857,50945,51033,51122,51210,51298,51386,51475,51563,51651,51739,51828,51916,52004,52092,52181,52269,52357,52445,52533,52622,52710,52798,52886,52975,53063,53151,53239,53328,53416,53504,53592,53681,53769,53857,53945,54033,54122,54210,54298,54386,54475,54563,54651,54739,54828,54916,55004,55092,55181,55269,55357,55445,55533,55622,55710,55798,55886,55975,56063,56151,56239,56328,56416,56504,56592,56681,56769,56857,56945,57033,57122,57210,57298,57386,57475,57563,57651,57739,57828,57916,58004,58092,58181,58269,58357,58445,58533,58622,58710,58798,58886,58975,59063,59151,59239,59328,59416,59504,59592,59681,59769,59857,59945,60033,60122,60210,60298,60386,60475,60563,60651,60739,60828,60916,61004,61092,61181,61269,61357,61445,61533,61622,61710,61798,61886,61975,62063,62151,73445,84386
DistanceSpacing: 0.9
BeatDivisor: 4
GridSize: 16
TimelineZoom: 2.2

[Metadata]
Title:need melatonin
TitleUnicode:need melatonin
Artist:Kody Lavigne
ArtistUnicode:Kody Lavigne
Creator:Mimari
Version:jasontime's hard
Source:
Tags:hyperpop hip hop hip-hop pop english 5g jasontime jasontime12345 wafer goopert kami no kotoba azinlen [-Evil-] rap
BeatmapID:3053865
BeatmapSetID:1489522

[Difficulty]
HPDrainRate:4
CircleSize:3.5
OverallDifficulty:6
ApproachRate:7.7
SliderMultiplier:2.6
SliderTickRate:1

[Events]
//Background and Video events
0,0,"asd.jpg",0,0
//Break Periods
2,51233,61326
//Storyboard Layer 0 (Background)
//Storyboard Layer 1 (Fail)
//Storyboard Layer 2 (Pass)
//Storyboard Layer 3 (Foreground)
//Storyboard Layer 4 (Overlay)
//Storyboard Sound Samples

[TimingPoints]
34,705.882352941176,4,2,1,35,1,0
4622,-100,4,2,1,45,0,0
5681,-100,4,2,1,60,0,0
5945,-100,4,2,1,5,0,0
6033,-100,4,2,1,60,0,0
10181,-100,4,2,1,5,0,0
10269,-100,4,2,1,60,0,0
11592,-100,4,2,1,5,0,0
11681,-100,4,2,1,60,0,0
15828,-100,4,2,1,5,0,0
15916,-100,4,2,1,60,0,0
16269,-100,4,2,1,50,0,0
16975,-100,4,2,2,70,0,0
17239,-100,4,2,2,5,0,0
17328,-100,4,2,2,70,0,0
22886,-100,4,2,2,5,0,0
22975,-100,4,2,2,70,0,0
28269,-111.111111111111,4,2,1,55,0,0
29681,-111.111111111111,4,2,2,55,0,0
29857,-111.111111111111,4,2,1,55,0,0
32504,-111.111111111111,4,2,2,55,0,0
32680,-111.111111111111,4,2,1,55,0,0
35328,-111.111111111111,4,2,2,55,0,0
35504,-111.111111111111,4,2,1,55,0,0
38151,-111.111111111111,4,2,2,55,0,0
38327,-111.111111111111,4,2,1,55,0,0
39563,-100,4,2,1,60,0,0
39828,-100,4,2,1,5,0,0
39916,-100,4,2,2,60,0,0
40269,-100,4,2,1,60,0,0
40975,-100,4,2,2,60,0,0
41328,-100,4,2,1,60,0,0
43798,-100,4,2,2,60,0,0
44151,-100,4,2,1,60,0,0
46622,-100,4,2,2,60,0,0
46975,-100,4,2,1,60,0,0
48298,-100,4,2,1,5,0,0
48386,-100,4,2,1,60,0,0
49445,-100,4,2,2,60,0,0
49798,-100,4,2,1,60,0,0
50416,-100,4,2,1,5,0,0
50504,-100,4,2,1,60,0,0
50592,-100,4,2,1,5,0,0
50681,-100,4,2,1,60,0,0
50769,-100,4,2,1,5,0,0
50857,-100,4,2,1,50,0,0
62151,-100,4,2,1,60,0,0
62414,-100,4,2,1,5,0,0
62502,-100,4,2,1,60,0,0
66650,-100,4,2,1,5,0,0
66738,-100,4,2,1,60,0,0
68061,-100,4,2,1,5,0,0
68150,-100,4,2,1,60,0,0
72297,-100,4,2,1,5,0,0
72385,-100,4,2,1,60,0,0
72739,-100,4,2,1,50,0,0
73445,-90.9090909090909,4,2,1,70,0,0
73708,-90.9090909090909,4,2,2,5,0,0
73797,-90.9090909090909,4,2,2,70,0,0
79355,-90.9090909090909,4,2,2,5,0,0
79444,-90.9090909090909,4,2,2,70,0,0
84386,-90.9090909090909,4,2,1,70,0,0
84431,-90.9090909090909,4,2,1,5,0,0

[Colours]
Combo1 : 196,194,197
Combo2 : 221,221,219
Combo3 : 170,188,152
Combo4 : 247,247,247

[HitObjects]
8,23,5681,6,0,L|97:92,1,97.5,2|0,1:2|0:0,0:0:0:0:
90,96,6033,1,0,1:2:0:0:
179,88,6210,2,0,L|245:122,2,65,0|2|2,0:0|1:2|0:0,0:0:0:0:
146,172,6739,2,0,L|245:267,2,130,2|2|2,1:2|1:2|1:2,0:0:0:0:
235,145,7622,1,2,0:0:0:0:
243,154,7798,6,0,L|312:183,1,65,2|2,1:2|0:0,0:0:0:0:
323,264,8151,2,0,L|386:324,1,65,2|2,1:2|0:0,0:0:0:0:
468,307,8504,2,0,L|495:365,1,65,2|0,1:2|0:0,0:0:0:0:
374,325,8857,6,0,L|308:264,1,65,2|2,1:2|0:0,0:0:0:0:
375,189,9210,2,0,L|349:110,1,65,2|2,1:2|0:0,0:0:0:0:
270,191,9563,6,0,L|216:325,1,130,2|2,1:2|1:2,0:0:0:0:
88,203,10269,2,0,L|125:328,1,130,2|2,1:2|1:2,0:0:0:0:
54,381,10798,2,0,L|7:335,1,65,2|2,0:0|1:2,0:0:0:0:
18,179,11328,6,0,L|124:205,1,97.5,2|0,1:2|0:0,0:0:0:0:
124,217,11681,1,2,1:2:0:0:
191,153,11857,2,0,L|271:140,2,65,2|2|2,0:0|1:2|0:0,0:0:0:0:
221,236,12386,2,0,L|369:269,2,130,2|2|2,1:2|1:2|1:2,0:0:0:0:
247,156,13269,1,2,0:0:0:0:
257,148,13445,6,0,L|330:139,1,65,2|2,1:2|0:0,0:0:0:0:
385,194,13798,2,0,L|469:214,1,65,2|2,1:2|0:0,0:0:0:0:
512,167,14151,2,0,L|437:183,1,65,2|2,1:2|0:0,0:0:0:0:
378,224,14504,2,0,L|231:177,1,130,2|2,1:2|1:2,0:0:0:0:
168,154,15033,1,2,0:0:0:0:
178,161,15210,6,0,L|322:129,1,130,2|2,1:2|1:2,0:0:0:0:
425,208,15916,2,0,L|493:86,1,130,2|2,1:2|1:2,0:0:0:0:
446,18,16445,2,0,L|372:46,1,65,2|2,0:0|0:0,0:0:0:0:
198,30,16975,6,0,P|260:46|307:89,1,130,2|10,1:2|1:2,0:0:0:0:
350,191,17504,1,8,0:0:0:0:
263,249,17681,2,0,L|274:332,1,65,2|2,0:0|0:0,0:0:0:0:
422,363,18033,2,0,L|446:228,2,130,2|10|2,0:0|0:0|1:2,0:0:0:0:
301,384,18916,1,10,0:0:0:0:
204,318,19092,6,0,L|123:334,1,65,2|2,1:2|0:0,0:0:0:0:
27,375,19445,2,0,L|11:296,1,65,2|2,1:2|0:0,0:0:0:0:
80,215,19798,2,0,L|121:61,1,130,2|2,1:2|1:2,0:0:0:0:
189,0,20328,1,2,0:0:0:0:
282,65,20504,2,0,L|358:50,1,65,2|2,1:2|0:0,0:0:0:0:
418,154,20857,6,0,L|471:35,1,130,2|10,1:2|1:2,0:0:0:0:
512,262,21563,2,0,L|388:302,1,130,2|2,1:2|1:2,0:0:0:0:
324,354,22092,2,0,L|262:333,1,65,2|2,0:0|1:2,0:0:0:0:
108,239,22622,6,0,P|44:257|17:321,1,130,10|10,1:2|1:2,0:0:0:0:
91,379,23151,1,8,0:0:0:0:
190,340,23328,2,0,L|270:365,1,65,2|2,0:0|0:0,0:0:0:0:
346,313,23681,2,0,L|491:285,2,130,2|10|2,0:0|0:0|1:2,0:0:0:0:
259,250,24563,1,10,0:0:0:0:
331,177,24739,6,0,L|363:38,1,130,2|2,1:2|1:2,0:0:0:0:
269,0,25269,1,2,0:0:0:0:
182,53,25445,2,0,L|203:121,1,65,2|2,1:2|0:0,0:0:0:0:
232,210,25798,2,0,P|260:153|322:141,1,130,2|2,1:2|1:2,0:0:0:0:
499,247,26504,6,0,L|375:210,1,130,2|10,1:2|1:2,0:0:0:0:
394,324,27210,2,0,L|265:346,1,130,2|0,1:2|1:2,0:0:0:0:
163,357,27739,2,0,L|222:382,2,65,0|2|2,0:0|1:2|0:0,0:0:0:0:
43,307,28269,5,2,0:0:0:0:
163,357,28975,1,10,0:0:0:0:
167,369,29681,5,10,0:0:0:0:
196,234,30386,1,10,0:0:0:0:
58,164,31092,5,2,0:0:0:0:
20,51,31798,1,10,0:0:0:0:
17,63,32504,5,10,0:0:0:0:
154,94,33210,1,10,0:0:0:0:
401,18,33916,5,2,1:2:0:0:
261,78,34445,1,2,1:2:0:0:
269,100,34622,1,10,0:0:0:0:
427,179,35328,5,10,0:0:0:0:
323,217,35681,1,2,1:2:0:0:
224,251,36033,1,10,0:0:0:0:
389,348,36739,5,2,1:2:0:0:
461,219,37269,1,2,1:2:0:0:
477,225,37445,1,10,0:0:0:0:
373,352,38151,5,10,1:2:0:0:
267,334,38504,1,2,1:2:0:0:
165,314,38857,2,0,L|139:246,1,58.4999982147217,10|2,0:0|0:0,0:0:0:0:
78,190,39210,2,0,L|56:256,1,58.4999982147217,2|2,0:0|0:0,0:0:0:0:
66,321,39563,6,0,P|175:236|287:177,1,260,2|10,1:2|0:0,0:0:0:0:
269,52,40622,2,0,P|204:66|191:136,2,130,2|10|0,0:0|0:0|1:2,0:0:0:0:
386,121,41681,2,0,L|411:260,1,130,10|2,0:0|0:0,0:0:0:0:
512,331,42386,6,0,P|416:349|323:376,1,195,2|2,1:2|1:2,0:0:0:0:
307,363,43092,1,10,0:0:0:0:
191,384,43445,6,0,L|90:301,1,130,2|10,0:0|0:0,0:0:0:0:
181,232,44151,2,0,L|44:184,1,130,2|10,1:2|0:0,0:0:0:0:
14,113,44681,2,0,L|84:92,1,65,2|2,0:0|0:0,0:0:0:0:
210,14,45210,6,0,P|320:82|433:177,1,260,2|10,1:2|0:0,0:0:0:0:
410,317,46269,2,0,P|449:266|511:255,2,130,2|10|0,0:0|0:0|1:2,0:0:0:0:
301,384,47328,2,0,P|231:314|198:288,1,130,10|2,0:0|0:0,0:0:0:0:
59,253,48033,1,2,1:2:0:0:
71,255,48386,6,0,L|93:318,1,65,2|2,0:0|1:2,0:0:0:0:
167,364,48739,1,10,0:0:0:0:
309,326,49092,6,0,L|350:183,1,130,2|10,0:0|0:0,0:0:0:0:
222,177,49798,2,0,L|319:83,1,130,2|10,1:2|0:0,0:0:0:0:
400,113,50328,2,0,L|337:125,2,65,0|2|2,0:0|0:0|0:0,0:0:0:0:
485,98,50857,5,2,0:0:0:0:
512,4,62151,6,0,L|418:55,1,97.5,2|0,1:2|0:0,0:0:0:0:
422,66,62504,1,0,1:2:0:0:
410,162,62681,2,0,L|369:222,2,65,0|2|2,0:0|1:2|0:0,0:0:0:0:
334,103,63210,2,0,L|229:195,1,130,2|2,1:2|1:2,0:0:0:0:
52,342,63916,2,0,L|133:318,1,65,2|2,1:2|0:0,0:0:0:0:
166,236,64269,6,0,L|231:186,1,65,2|2,1:2|0:0,0:0:0:0:
322,210,64622,2,0,L|400:185,1,65,2|2,1:2|0:0,0:0:0:0:
416,103,64975,2,0,L|451:38,1,65,2|0,1:2|0:0,0:0:0:0:
512,0,65328,6,0,L|383:52,1,130,2|2,1:2|1:2,0:0:0:0:
290,64,65857,1,2,0:0:0:0:
286,75,66033,6,0,L|393:180,1,130,2|2,1:2|1:2,0:0:0:0:
453,39,66739,2,0,L|499:180,1,130,2|2,1:2|1:2,0:0:0:0:
445,246,67269,2,0,L|383:266,1,65,2|2,0:0|1:2,0:0:0:0:
253,384,67798,6,0,L|272:261,1,97.5,2|0,1:2|0:0,0:0:0:0:
282,276,68151,1,2,1:2:0:0:
206,221,68328,2,0,L|192:150,2,65,2|2|2,0:0|1:2|0:0,0:0:0:0:
296,185,68857,2,0,L|334:48,1,130,2|2,1:2|1:2,0:0:0:0:
208,0,69563,6,0,L|226:77,1,65,2|2,1:2|0:0,0:0:0:0:
294,127,69916,2,0,L|263:238,1,97.5,2|0,1:2|0:0,0:0:0:0:
274,236,70269,1,2,1:2:0:0:
202,287,70445,2,0,L|221:364,2,65,2|2|2,0:0|1:2|0:0,0:0:0:0:
260,219,70975,6,0,L|298:77,1,130,2|2,1:2|1:2,0:0:0:0:
231,27,71504,1,2,0:0:0:0:
225,40,71681,6,0,L|350:5,1,130,2|2,1:2|1:2,0:0:0:0:
391,160,72386,2,0,L|251:201,1,130,2|2,1:2|1:2,0:0:0:0:
188,168,72916,1,2,0:0:0:0:
187,180,73092,2,0,L|151:234,1,65,2|2,0:0|0:0,0:0:0:0:
46,309,73445,6,0,P|32:225|11:146,1,143.000004364014,2|10,1:2|1:2,0:0:0:0:
54,51,73975,1,8,0:0:0:0:
150,133,74151,2,0,P|161:94|173:65,1,71.5000021820069,2|2,1:2|0:0,0:0:0:0:
270,0,74504,2,0,P|304:76|343:150,1,143.000004364014,2|10,1:2|1:2,0:0:0:0:
466,7,75210,6,0,P|409:37|397:50,1,71.5000021820069,2|10,1:2|0:0,0:0:0:0:
328,140,75563,2,0,P|350:216|366:295,1,143.000004364014,2|2,1:2|1:2,0:0:0:0:
435,367,76092,1,2,0:0:0:0:
488,266,76269,2,0,P|500:228|515:194,1,71.5000021820069,2|2,1:2|0:0,0:0:0:0:
462,87,76622,5,2,1:2:0:0:
453,62,76975,5,2,1:2:0:0:
445,41,77328,6,0,P|350:75|225:123,1,214.500006546021,2|0,1:2|0:0,0:0:0:0:
202,218,78033,2,0,P|129:186|45:159,1,143.000004364014,2|2,1:2|1:2,0:0:0:0:
0,246,78563,1,2,0:0:0:0:
12,254,78739,2,0,L|39:331,1,71.5000021820069,2|10,1:2|0:0,0:0:0:0:
142,378,79092,6,0,P|171:311|209:245,1,143.000004364014,10|10,1:2|1:2,0:0:0:0:
275,153,79622,1,8,0:0:0:0:
331,255,79798,2,0,P|340:292|358:336,1,71.5000021820069,2|2,1:2|0:0,0:0:0:0:
452,383,80151,6,0,P|475:306|509:229,1,143.000004364014,2|10,1:2|1:2,0:0:0:0:
318,266,80857,6,0,P|346:302|384:311,1,71.5000021820069,2|10,1:2|0:0,0:0:0:0:
507,240,81210,2,0,P|487:172|446:87,1,143.000004364014,2|2,1:2|1:2,0:0:0:0:
370,16,81739,1,2,0:0:0:0:
277,89,81916,2,0,L|190:68,1,71.5000021820069,2|2,1:2|0:0,0:0:0:0:
63,39,82269,5,2,1:2:0:0:
36,32,82622,5,2,1:2:0:0:
16,27,82975,6,0,P|59:159|87:260,1,214.500006546021,2|0,1:2|0:0,0:0:0:0:
179,318,83681,2,0,P|208:251|246:180,1,143.000004364014,2|0,1:2|1:2,0:0:0:0:
365,160,84210,1,0,0:0:0:0:
368,174,84386,6,0,P|374:147|354:168,1,71.5000021820069,2|0,1:2|0:0,0:0:0:0:
