osu file format v14

[General]
AudioFilename: audio.mp3
AudioLeadIn: 0
PreviewTime: 4533
Countdown: 0
SampleSet: Soft
StackLeniency: 0.3
Mode: 0
LetterboxInBreaks: 0
WidescreenStoryboard: 0

[Editor]
Bookmarks: 5681,16975,28269,39563,50857,50945,51033,51122,51210,51298,51386,51475,51563,51651,51739,51828,51916,52004,52092,52181,52269,52357,52445,52533,52622,52710,52798,52886,52975,53063,53151,53239,53328,53416,53504,53592,53681,53769,53857,53945,54033,54122,54210,54298,54386,54475,54563,54651,54739,54828,54916,55004,55092,55181,55269,55357,55445,55533,55622,55710,55798,55886,55975,56063,56151,56239,56328,56416,56504,56592,56681,56769,56857,56945,57033,57122,57210,57298,57386,57475,57563,57651,57739,57828,57916,58004,58092,58181,58269,58357,58445,58533,58622,58710,58798,58886,58975,59063,59151,59239,59328,59416,59504,59592,59681,59769,59857,59945,60033,60122,60210,60298,60386,60475,60563,60651,60739,60828,60916,61004,61092,61181,61269,61357,61445,61533,61622,61710,61798,61886,61975,62063,62151,73445,84386
DistanceSpacing: 1.1
BeatDivisor: 4
GridSize: 32
TimelineZoom: 2.1

[Metadata]
Title:need melatonin
TitleUnicode:need melatonin
Artist:Kody Lavigne
ArtistUnicode:Kody Lavigne
Creator:Mimari
Version:azinlen's light insane
Source:
Tags:hyperpop hip hop hip-hop pop english 5g jasontime jasontime12345 wafer goopert kami no kotoba azinlen [-Evil-] rap
BeatmapID:3054588
BeatmapSetID:1489522

[Difficulty]
HPDrainRate:5
CircleSize:4
OverallDifficulty:7.4
ApproachRate:8.4
SliderMultiplier:3.19999990463257
SliderTickRate:1

[Events]
//Background and Video events
0,0,"asd.jpg",0,0
//Break Periods
2,51057,61461
//Storyboard Layer 0 (Background)
//Storyboard Layer 1 (Fail)
//Storyboard Layer 2 (Pass)
//Storyboard Layer 3 (Foreground)
//Storyboard Layer 4 (Overlay)
//Storyboard Sound Samples

[TimingPoints]
34,705.882352941176,4,2,1,35,1,0
34,-83.3333333333333,4,2,1,35,0,0
4622,-83.3333333333333,4,2,1,45,0,0
5681,-83.3333333333333,4,2,1,60,0,0
5945,-83.3333333333333,4,2,1,5,0,0
6033,-83.3333333333333,4,2,1,60,0,0
6298,-83.3333333333333,4,2,1,5,0,0
6386,-83.3333333333333,4,2,1,60,0,0
8063,-83.3333333333333,4,2,1,5,0,0
8151,-83.3333333333333,4,2,1,60,0,0
8769,-83.3333333333333,4,2,1,5,0,0
8857,-83.3333333333333,4,2,1,60,0,0
9475,-83.3333333333333,4,2,1,5,0,0
9563,-83.3333333333333,4,2,1,60,0,0
10181,-83.3333333333333,4,2,1,5,0,0
10269,-83.3333333333333,4,2,1,60,0,0
11592,-83.3333333333333,4,2,1,5,0,0
11681,-83.3333333333333,4,2,1,60,0,0
12651,-83.3333333333333,4,2,1,5,0,0
12739,-83.3333333333333,4,2,1,60,0,0
13710,-83.3333333333333,4,2,1,5,0,0
13798,-83.3333333333333,4,2,1,60,0,0
14416,-83.3333333333333,4,2,1,5,0,0
14504,-83.3333333333333,4,2,1,60,0,0
15828,-83.3333333333333,4,2,1,5,0,0
15916,-83.3333333333333,4,2,1,60,0,0
16269,-83.3333333333333,4,2,1,50,0,0
16357,-100,4,2,1,50,0,0
16975,-83.3333333333333,4,2,2,70,0,0
17239,-83.3333333333333,4,2,2,5,0,0
17328,-83.3333333333333,4,2,2,70,0,0
18298,-83.3333333333333,4,2,2,5,0,0
18386,-83.3333333333333,4,2,2,70,0,0
19004,-83.3333333333333,4,2,2,5,0,0
19092,-83.3333333333333,4,2,2,70,0,0
22886,-83.3333333333333,4,2,2,5,0,0
22975,-83.3333333333333,4,2,2,70,0,0
23945,-83.3333333333333,4,2,2,5,0,0
24033,-83.3333333333333,4,2,2,70,0,0
27475,-83.3333333333333,4,2,2,5,0,0
27563,-83.3333333333333,4,2,2,70,0,0
27828,-83.3333333333333,4,2,2,5,0,0
27916,-83.3333333333333,4,2,2,70,0,0
28269,-100,4,2,1,55,0,0
29681,-100,4,2,2,55,0,0
29857,-100,4,2,1,55,0,0
32063,-100,4,2,1,55,0,0
32151,-100,4,2,1,55,0,0
32504,-100,4,2,2,55,0,0
32680,-100,4,2,1,55,0,0
32769,-100,4,2,1,5,0,0
32857,-100,4,2,1,55,0,0
33122,-100,4,2,1,5,0,0
33210,-100,4,2,1,55,0,0
33475,-100,4,2,1,5,0,0
33563,-100,4,2,1,55,0,0
33651,-100,4,2,1,5,0,0
33739,-100,4,2,1,55,0,0
33828,-100,4,2,1,55,0,0
33916,-100,4,2,1,55,0,0
35328,-100,4,2,2,55,0,0
35504,-100,4,2,1,55,0,0
38151,-100,4,2,2,55,0,0
38327,-100,4,2,1,55,0,0
39563,-83.3333333333333,4,2,1,60,0,0
39828,-83.3333333333333,4,2,1,5,0,0
39916,-83.3333333333333,4,2,2,60,0,0
40269,-83.3333333333333,4,2,1,60,0,0
40975,-83.3333333333333,4,2,2,60,0,0
41328,-83.3333333333333,4,2,1,60,0,0
43798,-83.3333333333333,4,2,2,60,0,0
44151,-83.3333333333333,4,2,1,60,0,0
46622,-83.3333333333333,4,2,2,60,0,0
46975,-83.3333333333333,4,2,1,60,0,0
48298,-83.3333333333333,4,2,1,5,0,0
48386,-83.3333333333333,4,2,1,60,0,0
49357,-83.3333333333333,4,2,1,5,0,0
49445,-83.3333333333333,4,2,2,60,0,0
49710,-83.3333333333333,4,2,2,5,0,0
49798,-83.3333333333333,4,2,1,60,0,0
50063,-83.3333333333333,4,2,1,5,0,0
50151,-83.3333333333333,4,2,1,60,0,0
50416,-83.3333333333333,4,2,1,5,0,0
50504,-83.3333333333333,4,2,1,60,0,0
50592,-83.3333333333333,4,2,1,5,0,0
50681,-83.3333333333333,4,2,1,60,0,0
50769,-83.3333333333333,4,2,1,5,0,0
50857,-83.3333333333333,4,2,1,50,0,0
62150,-83.3333333333333,4,2,1,60,0,0
62416,-83.3333333333333,4,2,1,5,0,0
62504,-83.3333333333333,4,2,1,60,0,0
62592,-83.3333333333333,4,2,1,5,0,0
62681,-83.3333333333333,4,2,1,60,0,0
64533,-83.3333333333333,4,2,1,5,0,0
64622,-83.3333333333333,4,2,1,60,0,0
65945,-83.3333333333333,4,2,1,60,0,0
66033,-83.3333333333333,4,2,1,60,0,0
66298,-83.3333333333333,4,2,1,5,0,0
66386,-83.3333333333333,4,2,1,60,0,0
66651,-83.3333333333333,4,2,1,5,0,0
66739,-83.3333333333333,4,2,1,60,0,0
67181,-83.3333333333333,4,2,1,5,0,0
67269,-83.3333333333333,4,2,1,60,0,0
67710,-83.3333333333333,4,2,1,5,0,0
67798,-83.3333333333333,4,2,1,60,0,0
68061,-83.3333333333333,4,2,1,5,0,0
68150,-83.3333333333333,4,2,1,60,0,0
70181,-83.3333333333333,4,2,1,5,0,0
70269,-83.3333333333333,4,2,1,60,0,0
71239,-83.3333333333333,4,2,1,5,0,0
71328,-83.3333333333333,4,2,1,60,0,0
72297,-83.3333333333333,4,2,1,5,0,0
72385,-83.3333333333333,4,2,1,60,0,0
72739,-83.3333333333333,4,2,1,50,0,0
73444,-83.3333333333333,4,2,1,70,0,0
73708,-83.3333333333333,4,2,2,5,0,0
73797,-83.3333333333333,4,2,2,70,0,0
74769,-83.3333333333333,4,2,2,5,0,0
74857,-83.3333333333333,4,2,2,70,0,0
75475,-83.3333333333333,4,2,2,5,0,0
75563,-83.3333333333333,4,2,2,70,0,0
75828,-83.3333333333333,4,2,2,5,0,0
75916,-83.3333333333333,4,2,2,70,0,0
79355,-83.3333333333333,4,2,2,5,0,0
79444,-83.3333333333333,4,2,2,70,0,0
80063,-83.3333333333333,4,2,2,5,0,0
80151,-83.3333333333333,4,2,2,70,0,0
81122,-83.3333333333333,4,2,2,5,0,0
81210,-83.3333333333333,4,2,2,70,0,0
81475,-83.3333333333333,4,2,2,5,0,0
81563,-83.3333333333333,4,2,2,70,0,0
83239,-83.3333333333333,4,2,2,5,0,0
83328,-83.3333333333333,4,2,2,70,0,0
83945,-83.3333333333333,4,2,2,5,0,0
84033,-83.3333333333333,4,2,2,70,0,0
84298,-83.3333333333333,4,2,2,5,0,0
84386,-83.3333333333333,4,2,1,70,0,0
84431,-83.3333333333333,4,2,1,5,0,0

[Colours]
Combo1 : 196,194,197
Combo2 : 221,221,219
Combo3 : 170,188,152
Combo4 : 247,247,247

[HitObjects]
58,264,5681,6,0,P|96:327|166:276,1,143.999995605469,2|0,1:2|0:0,0:0:0:0:
218,261,6033,2,0,B|252:245|287:274|273:286|312:311|351:293,1,143.999995605469,0|0,1:2|0:0,0:0:0:0:
413,249,6386,1,2,1:2:0:0:
413,249,6563,1,2,0:0:0:0:
475,333,6739,6,0,P|487:237|503:143,1,191.999994140625,2|2,1:2|1:2,0:0:0:0:
398,32,7445,2,0,P|410:87|424:172,1,95.9999970703126,2|2,1:2|0:0,0:0:0:0:
338,192,7798,2,0,P|247:172|246:95,1,143.999995605469,2|0,1:2|0:0,0:0:0:0:
279,69,8151,1,2,1:2:0:0:
279,69,8328,1,2,0:0:0:0:
154,15,8504,6,0,P|145:93|137:179,1,143.999995605469,2|0,1:2|0:0,0:0:0:0:
70,228,8857,2,0,P|83:285|87:342,1,95.9999970703126,2|2,1:2|0:0,0:0:0:0:
242,360,9210,2,0,P|290:313|368:326,1,143.999995605469,2|0,1:2|0:0,0:0:0:0:
435,376,9563,1,2,1:2:0:0:
435,376,9739,1,2,0:0:0:0:
491,215,9916,6,0,P|507:284|512:339,1,95.9999970703126,2|0,1:2|0:0,0:0:0:0:
391,132,10269,2,0,P|375:201|361:331,1,191.999994140625,2|2,1:2|1:2,0:0:0:0:
461,75,10798,2,0,B|415:41|368:81|382:88|338:141|268:99,1,191.999994140625,2|2,0:0|0:0,0:0:0:0:
157,51,11328,6,0,P|238:40|264:26,1,95.9999970703126,2|0,1:2|0:0,0:0:0:0:
229,194,11681,1,2,1:2:0:0:
229,194,11857,1,2,0:0:0:0:
85,108,12033,1,2,1:2:0:0:
109,180,12210,1,2,0:0:0:0:
30,303,12386,2,0,P|84:270|169:297,1,143.999995605469,2|0,1:2|0:0,0:0:0:0:
212,347,12739,6,0,P|262:341|301:300,1,95.9999970703126,2|0,1:2|0:0,0:0:0:0:
456,275,13092,2,0,P|406:269|367:228,1,95.9999970703126,2|2,1:2|0:0,0:0:0:0:
324,53,13445,2,0,P|300:140|282:225,1,143.999995605469,2|0,1:2|0:0,0:0:0:0:
275,217,13798,2,0,P|288:267|295:326,1,95.9999970703126,2|2,1:2|0:0,0:0:0:0:
201,350,14151,6,0,P|141:345|120:265,1,143.999995605469,2|0,1:2|0:0,0:0:0:0:
127,252,14504,2,0,P|114:202|107:143,1,95.9999970703126,2|2,1:2|0:0,0:0:0:0:
3,40,14857,2,0,P|50:46|96:59,1,95.9999970703126,2|2,1:2|0:0,0:0:0:0:
270,3,15210,2,0,P|275:70|153:93,1,191.999994140625,2|2,1:2|1:2,0:0:0:0:
172,107,15916,6,0,B|227:78|272:129|258:141|308:188|362:131,1,191.999994140625,2|2,1:2|1:2,0:0:0:0:
453,238,16445,2,0,L|356:223,2,80,2|2|2,0:0|0:0|0:0,0:0:0:0:
333,349,16975,6,0,P|411:333|449:328,1,95.9999970703126,2|0,1:2|0:0,0:0:0:0:
289,249,17328,1,10,1:2:0:0:
241,317,17504,1,8,0:0:0:0:
136,174,17681,1,2,0:0:0:0:
167,273,17857,1,2,0:0:0:0:
5,314,18033,2,0,B|39:298|74:327|60:339|99:364|138:346,1,143.999995605469,2|0,0:0|0:0,0:0:0:0:
138,340,18386,6,0,P|84:334|54:371,1,95.9999970703126,10|0,0:0|0:0,0:0:0:0:
233,192,18739,2,0,P|289:168|360:218,1,143.999995605469,2|0,1:2|0:0,0:0:0:0:
374,245,19092,2,0,P|447:228|484:224,1,95.9999970703126,2|2,1:2|0:0,0:0:0:0:
512,107,19445,2,0,P|439:90|402:86,1,95.9999970703126,2|2,1:2|0:0,0:0:0:0:
319,5,19798,5,2,1:2:0:0:
337,78,19975,1,2,0:0:0:0:
176,111,20151,1,2,1:2:0:0:
254,63,20328,1,2,0:0:0:0:
309,219,20504,1,2,1:2:0:0:
223,186,20681,1,2,0:0:0:0:
129,280,20857,6,0,P|65:289|12:181,1,191.999994140625,2|10,1:2|1:2,0:0:0:0:
163,58,21563,2,0,B|218:29|263:80|249:92|299:139|353:82,1,191.999994140625,2|2,1:2|1:2,0:0:0:0:
426,33,22092,2,0,P|418:94|400:268,1,191.999994140625,2|10,0:0|0:0,0:0:0:0:
461,326,22622,6,0,B|481:297|481:297|351:319,1,143.999995605469,10|0,1:2|0:0,0:0:0:0:
301,330,22975,1,10,1:2:0:0:
301,330,23151,1,8,0:0:0:0:
201,207,23328,1,2,0:0:0:0:
220,283,23504,1,2,0:0:0:0:
87,366,23681,2,0,P|98:282|114:181,1,143.999995605469,2|0,0:0|0:0,0:0:0:0:
11,106,24033,6,0,B|45:90|80:119|66:131|105:156|144:138,1,143.999995605469,10|0,0:0|0:0,0:0:0:0:
231,74,24386,2,0,P|176:80|146:134,1,95.9999970703126,2|10,1:2|0:0,0:0:0:0:
321,112,24739,2,0,P|314:64|303:-14,1,95.9999970703126,2|2,1:2|0:0,0:0:0:0:
411,174,25092,1,2,1:2:0:0:
449,62,25269,1,2,0:0:0:0:
509,217,25445,6,0,P|416:225|404:325,1,191.999994140625,2|2,1:2|1:2,0:0:0:0:
492,357,25975,1,2,0:0:0:0:
386,313,26151,2,0,P|316:334|264:345,1,95.9999970703126,2|2,1:2|0:0,0:0:0:0:
171,214,26504,2,0,P|241:235|293:246,1,95.9999970703126,2|10,1:2|0:0,0:0:0:0:
223,375,26857,6,0,P|218:361|216:335,4,23.9999992675781,10|0|0|0|0,1:2|0:0|0:0|0:0|0:0,0:0:0:0:
340,214,27210,2,0,P|352:125|363:44,1,143.999995605469,2|0,1:2|0:0,0:0:0:0:
417,24,27563,2,0,B|383:8|348:37|362:49|323:74|284:56,1,143.999995605469,0|0,1:2|0:0,0:0:0:0:
231,3,27916,2,0,P|179:56|196:138,1,143.999995605469,2|0,1:2|0:0,0:0:0:0:
173,252,28269,5,2,0:0:0:0:
99,290,28445,1,2,0:0:0:0:
34,228,28621,1,2,0:0:0:0:
74,148,28798,1,2,0:0:0:0:
163,164,28974,1,10,0:0:0:0:
163,164,29328,2,0,P|156:216|151:258,1,80,2|2,0:0|0:0,0:0:0:0:
227,321,29681,5,10,0:0:0:0:
301,359,29857,1,2,0:0:0:0:
366,297,30033,1,2,0:0:0:0:
326,217,30210,1,2,0:0:0:0:
237,233,30386,1,10,0:0:0:0:
237,233,30563,1,2,0:0:0:0:
237,233,30739,2,0,P|245:184|254:132,1,80,2|2,0:0|0:0,0:0:0:0:
323,42,31092,5,2,0:0:0:0:
397,4,31268,1,2,0:0:0:0:
462,66,31444,1,2,0:0:0:0:
422,146,31621,1,2,0:0:0:0:
333,130,31798,2,0,L|339:186,1,40,10|0,0:0|0:0,0:0:0:0:
383,239,31975,1,2,0:0:0:0:
383,239,32151,2,0,P|375:288|366:340,1,80,2|2,0:0|0:0,0:0:0:0:
280,328,32504,6,0,B|244:315|220:341|229:347|207:375|154:362,1,120,10|0,0:0|0:0,0:0:0:0:
140,348,32857,2,0,P|154:282|169:193,1,120,2|0,0:0|0:0,0:0:0:0:
146,193,33210,2,0,P|91:183|65:237,1,120,10|0,0:0|0:0,0:0:0:0:
69,255,33563,2,0,P|20:243|1:240,1,40,2|0,0:0|0:0,0:0:0:0:
5,173,33739,1,2,0:0:0:0:
68,79,33916,5,2,1:2:0:0:
68,79,34092,1,2,0:0:0:0:
146,193,34269,2,0,P|150:153|155:113,1,80,2|2,0:0|1:2,0:0:0:0:
248,67,34621,1,10,0:0:0:0:
248,67,34975,6,0,P|253:106|257:146,1,80,2|2,0:0|0:0,0:0:0:0:
223,239,35328,1,10,0:0:0:0:
223,239,35504,1,2,0:0:0:0:
146,193,35680,1,2,1:2:0:0:
146,193,35857,1,2,0:0:0:0:
78,307,36033,1,10,0:0:0:0:
204,365,36210,1,2,0:0:0:0:
321,243,36386,2,0,L|331:323,1,80,2|2,0:0|0:0,0:0:0:0:
439,333,36739,5,2,1:2:0:0:
439,333,36916,1,2,0:0:0:0:
501,272,37092,1,2,0:0:0:0:
501,272,37268,1,2,1:2:0:0:
420,236,37445,2,0,L|432:142,1,80,10|2,0:0|0:0,0:0:0:0:
368,51,37799,1,2,0:0:0:0:
251,109,37975,1,2,0:0:0:0:
325,147,38151,5,10,1:2:0:0:
201,28,38504,5,2,1:2:0:0:
76,260,38857,5,10,0:0:0:0:
21,83,39210,5,2,0:0:0:0:
216,297,39563,6,0,B|271:268|316:319|302:331|352:378|406:321,1,191.999994140625,2|8,1:2|0:0,0:0:0:0:
448,266,40092,1,8,0:0:0:0:
502,342,40269,1,10,0:0:0:0:
415,164,40622,2,0,P|435:246|436:276,1,95.9999970703126,2|2,0:0|0:0,0:0:0:0:
486,112,40975,6,0,B|431:83|386:134|400:146|350:193|296:136,1,191.999994140625,10|0,0:0|1:2,0:0:0:0:
232,61,41504,1,0,0:0:0:0:
362,12,41681,2,0,P|379:75|388:104,1,95.9999970703126,10|2,0:0|0:0,0:0:0:0:
231,209,42033,1,2,0:0:0:0:
231,209,42210,1,2,0:0:0:0:
388,328,42386,6,0,P|341:301|286:324,1,95.9999970703126,2|0,1:2|0:0,0:0:0:0:
222,372,42739,1,0,0:0:0:0:
222,372,42916,1,2,1:2:0:0:
110,238,43092,2,0,P|117:307|123:341,1,95.9999970703126,10|2,0:0|0:0,0:0:0:0:
10,216,43445,2,0,B|49:247|95:210|81:198|126:147|181:176,1,191.999994140625,2|10,0:0|0:0,0:0:0:0:
180,176,44151,6,0,P|210:108|111:81,1,191.999994140625,2|10,1:2|0:0,0:0:0:0:
35,25,44681,2,0,B|68:57|68:57|215:14,1,191.999994140625,2|2,0:0|0:0,0:0:0:0:
431,162,45210,6,0,L|320:138,1,95.9999970703126,2|0,1:2|0:0,0:0:0:0:
257,212,45563,1,0,0:0:0:0:
257,212,45739,1,2,1:2:0:0:
375,277,45916,2,0,L|486:253,1,95.9999970703126,10|2,0:0|0:0,0:0:0:0:
289,356,46269,2,0,L|178:332,1,95.9999970703126,2|2,0:0|0:0,0:0:0:0:
12,211,46622,6,0,B|67:182|112:233|98:245|147:283|202:235,1,191.999994140625,10|0,0:0|1:2,0:0:0:0:
42,293,47151,1,0,0:0:0:0:
155,176,47328,2,0,P|155:93|36:102,1,191.999994140625,10|2,0:0|0:0,0:0:0:0:
62,74,48033,6,0,P|101:103|159:89,1,95.9999970703126,2|0,1:2|0:0,0:0:0:0:
242,8,48386,1,2,0:0:0:0:
242,8,48563,1,2,1:2:0:0:
371,99,48739,1,10,0:0:0:0:
281,79,48916,1,2,0:0:0:0:
261,174,49092,2,0,L|296:330,1,143.999995605469,2|0,0:0|0:0,0:0:0:0:
269,336,49445,6,0,B|235:320|200:349|214:361|175:386|136:368,1,143.999995605469,10|0,0:0|0:0,0:0:0:0:
119,352,49798,2,0,P|82:311|158:289,1,143.999995605469,2|0,1:2|0:0,0:0:0:0:
161,287,50151,2,0,P|149:226|140:171,1,95.9999970703126,10|0,0:0|0:0,0:0:0:0:
81,110,50504,1,2,0:0:0:0:
21,219,50681,1,2,0:0:0:0:
179,115,50857,1,2,0:0:0:0:
44,316,62151,6,0,B|81:334|120:309|106:297|141:268|175:284,1,143.999995605469,2|0,1:2|0:0,0:0:0:0:
231,342,62504,2,0,P|216:312|219:271,1,47.9999985351563,0|0,1:2|0:0,0:0:0:0:
269,242,62681,1,0,0:0:0:0:
175,192,62857,1,2,1:2:0:0:
175,192,63033,1,2,0:0:0:0:
279,106,63210,2,0,B|333:70|333:70|451:139,1,191.999994140625,2|2,1:2|1:2,0:0:0:0:
442,134,63916,6,0,L|421:27,1,95.9999970703126,2|2,1:2|0:0,0:0:0:0:
507,200,64269,2,0,P|443:181|385:258,1,143.999995605469,2|0,1:2|0:0,0:0:0:0:
395,245,64622,2,0,P|424:284|467:268,1,95.9999970703126,2|2,1:2|0:0,0:0:0:0:
336,323,64975,6,0,P|292:312|267:350,1,95.9999970703126,2|0,1:2|0:0,0:0:0:0:
123,261,65328,1,2,1:2:0:0:
123,261,65504,1,2,0:0:0:0:
181,353,65681,2,0,L|196:279,1,47.9999985351563,2|0,1:2|0:0,0:0:0:0:
204,234,65857,1,2,0:0:0:0:
89,111,66033,2,0,P|87:56|171:30,1,143.999995605469,2|0,1:2|0:0,0:0:0:0:
189,28,66386,6,0,B|223:12|258:41|244:53|283:78|322:60,1,143.999995605469,2|0,1:2|0:0,0:0:0:0:
424,67,66739,2,0,B|420:50|420:50|412:5|331:23|340:63|340:63|368:207,1,239.999992675781,2|0,1:2|0:0,0:0:0:0:
441,248,67269,2,0,B|452:216|482:197|482:197|297:237,1,239.999992675781,2|0,0:0|0:0,0:0:0:0:
242,251,67798,5,2,1:2:0:0:
242,251,67975,1,0,0:0:0:0:
309,322,68151,1,2,1:2:0:0:
149,365,68328,1,2,0:0:0:0:
224,229,68504,2,0,P|234:182|249:136,1,95.9999970703126,2|2,1:2|0:0,0:0:0:0:
155,32,68857,6,0,P|84:23|68:132,1,191.999994140625,2|2,1:2|1:2,0:0:0:0:
156,180,69386,1,0,0:0:0:0:
156,180,69563,1,2,1:2:0:0:
6,232,69739,1,2,0:0:0:0:
151,351,69916,2,0,P|202:307|308:331,1,143.999995605469,2|0,1:2|0:0,0:0:0:0:
358,359,70269,2,0,L|342:249,1,95.9999970703126,2|2,1:2|0:0,0:0:0:0:
458,185,70622,6,0,L|444:280,1,95.9999970703126,2|2,1:2|0:0,0:0:0:0:
232,204,70975,2,0,B|280:160|280:160|367:177,1,143.999995605469,2|0,1:2|0:0,0:0:0:0:
381,181,71328,2,0,L|363:62,1,95.9999970703126,2|2,1:2|0:0,0:0:0:0:
292,17,71681,2,0,B|244:61|244:61|108:30,1,191.999994140625,2|2,1:2|1:2,0:0:0:0:
17,157,72386,6,0,B|69:170|109:127|109:127|131:184|186:194,1,191.999994140625,2|2,1:2|1:2,0:0:0:0:
256,145,72916,1,2,0:0:0:0:
90,335,73445,5,2,1:2:0:0:
15,283,73622,1,0,0:0:0:0:
107,247,73798,1,10,1:2:0:0:
107,247,73975,1,8,0:0:0:0:
179,312,74151,2,0,L|285:327,1,95.9999970703126,2|2,1:2|0:0,0:0:0:0:
474,283,74504,2,0,P|389:281|354:371,1,191.999994140625,2|0,1:2|0:0,0:0:0:0:
349,184,75210,6,0,P|355:113|373:43,1,143.999995605469,2|0,1:2|0:0,0:0:0:0:
358,23,75563,2,0,B|324:7|289:36|303:48|264:73|225:55,1,143.999995605469,2|0,1:2|0:0,0:0:0:0:
158,21,75916,1,2,1:2:0:0:
158,21,76092,1,2,0:0:0:0:
63,118,76269,6,0,P|73:164|88:236,1,95.9999970703126,2|2,1:2|0:0,0:0:0:0:
120,341,76622,1,2,1:2:0:0:
120,341,76798,1,2,0:0:0:0:
216,361,76975,1,2,1:2:0:0:
276,282,77151,1,2,0:0:0:0:
180,200,77328,6,0,B|229:187|237:136|237:136|280:173|347:156,1,191.999994140625,2|10,1:2|1:2,0:0:0:0:
451,328,78033,2,0,P|438:235|421:137,1,191.999994140625,2|2,1:2|1:2,0:0:0:0:
479,12,78563,2,0,B|479:38|501:63|501:63|349:38,1,191.999994140625,2|10,0:0|0:0,0:0:0:0:
289,33,79092,5,10,1:2:0:0:
289,33,79269,1,0,0:0:0:0:
239,169,79445,1,10,1:2:0:0:
318,141,79622,1,8,0:0:0:0:
180,29,79798,2,0,P|100:22|62:98,1,143.999995605469,2|0,1:2|0:0,0:0:0:0:
101,134,80151,2,0,B|129:178|129:178|81:288,1,143.999995605469,2|0,1:2|0:0,0:0:0:0:
55,331,80504,2,0,L|163:310,1,95.9999970703126,10|0,1:2|0:0,0:0:0:0:
231,368,80857,6,0,P|283:316|356:331,1,143.999995605469,2|0,1:2|0:0,0:0:0:0:
415,369,81210,2,0,L|400:225,1,143.999995605469,2|0,1:2|0:0,0:0:0:0:
393,152,81563,1,2,1:2:0:0:
393,152,81739,1,2,0:0:0:0:
494,56,81916,5,2,1:2:0:0:
360,5,82092,1,2,0:0:0:0:
282,119,82269,2,0,P|224:128|180:89,1,95.9999970703126,2|2,1:2|0:0,0:0:0:0:
124,2,82622,1,2,1:2:0:0:
250,50,82798,1,2,0:0:0:0:
94,99,82975,2,0,B|110:133|81:168|69:154|44:193|62:232,1,143.999995605469,2|0,1:2|0:0,0:0:0:0:
102,297,83328,6,0,P|105:312|101:331,4,23.9999992675781,10|0|0|0|0,1:2|0:0|0:0|0:0|0:0,0:0:0:0:
250,189,83681,2,0,B|269:185|283:162|283:162|265:308,1,143.999995605469,2|0,1:2|0:0,0:0:0:0:
309,330,84033,2,0,B|389:318|371:374|462:351,1,143.999995605469,0|0,1:2|0:0,0:0:0:0:
497,299,84386,1,2,1:2:0:0:
