osu file format v14

[General]
AudioFilename: audio.mp3
AudioLeadIn: 0
PreviewTime: 87886
Countdown: 0
SampleSet: None
StackLeniency: 0.2
Mode: 0
LetterboxInBreaks: 0
EpilepsyWarning: 1
WidescreenStoryboard: 1

[Editor]
Bookmarks: 44631,66956,89282,111607,133933,156259,178584,200910,223235,245561,267886,290212,312538,334863,357189,379514
DistanceSpacing: 2.4
BeatDivisor: 4
GridSize: 32
TimelineZoom: 3.099999

[Metadata]
Title:Exobiota
TitleUnicode:Exobiota
Artist:Kodin & Billain
ArtistUnicode:Kodin & Billain
Creator:lcfc
Version:Extraterrestrial
Source:
Tags:FoxyGrandpa fanzhen0019 lowcombofc revurii Flezlin Lama Poluna Sing Kaifin Ameth Rianno Rohit6 xLolicore- Elsa Valentine NeilPerry EvilElvis Jounzan winber1 toybot -Tochi Darky1 Hokichi Crowie collab marathon bad taste recordings nanomortis dubstep neurofunk wub technical sliderart
BeatmapID:1242895
BeatmapSetID:586935

[Difficulty]
HPDrainRate:5.5
CircleSize:4
OverallDifficulty:9
ApproachRate:9.5
SliderMultiplier:1.8
SliderTickRate:1

[Events]
//Background and Video events
0,0,"bg.jpg",0,0
//Break Periods
2,235732,238103
//Storyboard Layer 0 (Background)
Sprite,Background,Centre,"bg.jpg",320,240
//Storyboard Layer 1 (Fail)
//Storyboard Layer 2 (Pass)
//Storyboard Layer 3 (Foreground)
//Storyboard Sound Samples

[TimingPoints]
-20,348.837209302326,4,3,1,100,1,0
44456,-100,4,3,1,5,0,0
44631,-166.666666666667,4,3,1,20,0,0
49514,-100,4,3,1,20,0,0
49689,-100,4,3,1,40,0,0
50038,-100,4,3,1,30,0,0
50212,-142.857142857143,4,3,1,20,0,0
64602,-133.333333333333,4,3,1,20,0,0
64863,-125,4,3,1,20,0,0
65212,-117.647058823529,4,3,1,20,0,0
65386,-111.111111111111,4,3,1,20,0,0
65735,-111.111111111111,4,3,1,25,0,0
65910,-111.111111111111,4,3,1,30,0,0
66084,-111.111111111111,4,3,1,35,0,0
66259,-111.111111111111,4,3,1,40,0,0
66433,-111.111111111111,4,3,1,45,0,0
66607,-111.111111111111,4,3,1,50,0,0
66782,-111.111111111111,4,3,1,55,0,0
66869,-111.111111111111,4,3,1,5,0,0
66956,-100,4,3,1,60,0,0
72538,-90.9090909090909,4,3,1,60,0,0
73933,-83.3333333333333,4,3,1,60,0,0
75328,-76.9230769230769,4,3,1,60,0,0
76724,-71.4285714285714,4,3,1,60,0,0
78119,-66.6666666666667,4,3,1,60,0,0
80910,-62.5,4,3,1,60,0,0
83700,-55.5555555555556,4,3,1,60,0,0
84049,-55.5555555555556,4,3,1,50,0,0
84398,-55.5555555555556,4,3,1,40,0,0
84747,-50,4,3,1,30,0,0
85096,-100,4,3,1,20,0,0
85270,-83.3333333333333,4,3,1,30,0,0
85445,-71.4285714285714,4,3,1,40,0,0
85619,-62.5,4,3,1,50,0,0
85793,-55.5555555555556,4,3,1,60,0,0
85968,-50,4,3,1,60,0,0
86142,-50,4,3,1,30,0,0
86578,-50,4,3,1,5,0,0
87189,-50,4,3,1,30,0,0
87538,-50,4,3,1,10,0,0
87712,-50,4,3,1,15,0,0
87886,-50,4,3,1,20,0,0
88061,-50,4,3,1,25,0,0
88235,-50,4,3,1,30,0,0
88410,-50,4,3,1,35,0,0
88584,-50,4,3,1,40,0,0
88759,-50,4,3,1,45,0,0
88933,-50,4,3,1,50,0,0
89107,-50,4,3,1,20,0,0
89282,-66.6666666666667,4,2,1,80,0,0
89631,-80,4,2,1,80,0,0
89980,-100,4,2,1,80,0,0
90328,-133.333333333333,4,2,1,80,0,0
90677,-66.6666666666667,4,2,1,80,0,0
91026,-80,4,2,1,80,0,0
91549,-66.6666666666667,4,2,1,80,0,0
91724,-57.1428571428571,4,2,1,80,0,0
92073,-66.6666666666667,4,2,1,80,0,0
92421,-80,4,2,1,80,0,0
92770,-100,4,2,1,80,0,0
93119,-133.333333333333,4,2,1,80,0,0
93468,-66.6666666666667,4,2,1,80,0,0
93817,-80,4,2,1,80,0,0
94340,-66.6666666666667,4,2,1,80,0,0
94514,-57.1428571428571,4,2,1,80,0,0
94863,-66.6666666666667,4,2,1,80,0,0
95212,-80,4,2,1,80,0,0
95561,-100,4,2,1,80,0,0
95910,-133.333333333333,4,2,1,80,0,0
96259,-66.6666666666667,4,2,1,80,0,0
96607,-80,4,2,1,80,0,0
97131,-66.6666666666667,4,2,1,80,0,0
97305,-57.1428571428571,4,2,1,80,0,0
97654,-66.6666666666667,4,2,1,80,0,0
98003,-80,4,2,1,80,0,0
98352,-100,4,2,1,80,0,0
98700,-133.333333333333,4,2,1,80,0,0
99049,-66.6666666666667,4,2,1,80,0,0
99398,-80,4,2,1,80,0,0
99921,-66.6666666666667,4,2,1,80,0,0
100096,-57.1428571428571,4,2,1,80,0,0
100445,-50,4,2,1,80,0,0
100706,-57.1428571428571,4,2,1,80,0,0
101142,-100,4,2,1,80,0,0
101491,-133.333333333333,4,2,1,80,0,0
101840,-66.6666666666667,4,2,1,80,0,0
102189,-80,4,2,1,80,0,0
102712,-66.6666666666667,4,2,1,80,0,0
102886,-57.1428571428571,4,2,1,80,0,0
103235,-66.6666666666667,4,2,1,80,0,0
103584,-80,4,2,1,80,0,0
103933,-100,4,2,1,80,0,0
104282,-133.333333333333,4,2,1,80,0,0
104631,-66.6666666666667,4,2,1,80,0,0
104980,-80,4,2,1,80,0,0
105503,-66.6666666666667,4,2,1,80,0,0
105677,-57.1428571428571,4,2,1,80,0,0
106026,-66.6666666666667,4,2,1,80,0,0
106375,-80,4,2,1,80,0,0
106724,-100,4,2,1,80,0,0
107073,-133.333333333333,4,2,1,80,0,0
107421,-66.6666666666667,4,2,1,80,0,0
107770,-80,4,2,1,80,0,0
108293,-66.6666666666667,4,2,1,80,0,0
108468,-57.1428571428571,4,2,1,80,0,0
108817,-66.6666666666667,4,2,1,80,0,0
109166,-80,4,2,1,80,0,0
110212,-66.6666666666667,4,2,1,80,0,0
110561,-100,4,2,1,80,0,0
111259,-133.333333333333,4,3,1,80,0,0
111607,-100,4,2,1,80,0,0
111956,-55.5555555555556,4,2,1,80,0,0
112218,-50,4,2,1,80,0,0
112480,-100,4,2,1,80,0,0
112654,-55.5555555555556,4,2,1,80,0,0
113003,-71.4285714285714,4,2,1,80,0,0
113352,-55.5555555555556,4,2,1,80,0,0
114398,-100,4,2,1,80,0,0
114747,-55.5555555555556,4,2,1,80,0,0
115009,-50,4,2,1,80,0,0
115270,-100,4,2,1,80,0,0
115793,-71.4285714285714,4,2,1,80,0,0
116142,-55.5555555555556,4,2,1,80,0,0
116491,-50,4,2,1,80,0,0
116840,-55.5555555555556,4,2,1,80,0,0
117189,-100,4,2,1,80,0,0
117538,-55.5555555555556,4,2,1,80,0,0
117799,-50,4,2,1,80,0,0
118061,-100,4,2,1,80,0,0
118235,-55.5555555555556,4,2,1,80,0,0
118584,-71.4285714285714,4,2,1,80,0,0
118933,-55.5555555555556,4,2,1,80,0,0
119980,-100,4,2,1,80,0,0
120328,-55.5555555555556,4,2,1,80,0,0
120590,-50,4,2,1,80,0,0
120852,-100,4,2,1,80,0,0
121375,-71.4285714285714,4,2,1,80,0,0
122073,-45.4545454545455,4,2,1,80,0,0
122421,-55.5555555555556,4,2,1,80,0,0
122770,-50,4,2,1,80,0,0
123381,-48.780487804878,4,2,1,80,0,0
123642,-95.2380952380952,4,2,1,80,0,0
123817,-54.054054054054,4,2,1,80,0,0
124166,-68.9655172413793,4,2,1,80,0,0
124514,-54.054054054054,4,2,1,80,0,0
125561,-90.9090909090909,4,2,1,80,0,0
125910,-52.6315789473684,4,2,1,80,0,0
126171,-47.6190476190476,4,2,1,80,0,0
126433,-90.9090909090909,4,2,1,80,0,0
126956,-66.6666666666667,4,2,1,80,0,0
127305,-52.6315789473684,4,2,1,80,0,0
127654,-47.6190476190476,4,2,1,80,0,0
128003,-52.6315789473684,4,2,1,80,0,0
128352,-86.9565217391304,4,2,1,80,0,0
128700,-51.2820512820513,4,2,1,80,0,0
128962,-46.5116279069767,4,2,1,80,0,0
129224,-86.9565217391304,4,2,1,80,0,0
129398,-50,4,2,1,80,0,0
129747,-64.5161290322581,4,2,1,80,0,0
130096,-51.2820512820513,4,2,1,80,0,0
131142,-83.3333333333333,4,2,1,80,0,0
131491,-50,4,2,1,80,0,0
131753,-45.4545454545455,4,2,1,80,0,0
132014,-83.3333333333333,4,2,1,80,0,0
132538,-50,4,2,1,80,0,0
133061,-40,4,2,1,60,0,0
133235,-50,4,2,1,60,0,0
133468,-66.6666666666667,4,2,1,20,0,0
133700,-100,4,2,1,20,0,0
133933,-50,4,2,1,80,0,0
134282,-100,4,2,1,80,0,0
134543,-55.5555555555556,4,2,1,80,0,0
134980,-100,4,2,1,80,0,0
135328,-66.6666666666667,4,2,1,80,0,0
135677,-100,4,2,1,80,0,0
135852,-76.9230769230769,4,2,1,80,0,0
136026,-55.5555555555556,4,2,1,80,0,0
136375,-83.3333333333333,4,2,1,80,0,0
136724,-66.6666666666667,4,2,1,80,0,0
137073,-100,4,2,1,80,0,0
137334,-55.5555555555556,4,2,1,80,0,0
137770,-100,4,2,1,80,0,0
138119,-66.6666666666667,4,2,1,80,0,0
138468,-100,4,2,1,80,0,0
138730,-79.9999999999999,4,2,1,80,0,0
139166,-100,4,2,1,80,0,0
139340,-62.5,4,2,1,80,0,0
139514,-66.6666666666667,4,2,1,80,0,0
139863,-100,4,2,1,80,0,0
140125,-55.5555555555556,4,2,1,80,0,0
140561,-100,4,2,1,80,0,0
140910,-66.6666666666667,4,2,1,80,0,0
141259,-100,4,2,1,80,0,0
141607,-55.5555555555556,4,2,1,80,0,0
141782,-62.5,4,2,1,80,0,0
142305,-66.6666666666667,4,2,1,80,0,0
142654,-100,4,2,1,80,0,0
142916,-55.5555555555556,4,2,1,80,0,0
143352,-100,4,2,1,80,0,0
143700,-66.6666666666667,4,2,1,80,0,0
144049,-100,4,2,1,80,0,0
144398,-71.4285714285714,4,2,1,80,0,0
144573,-125,4,2,1,80,0,0
144747,-100,4,2,1,80,0,0
145096,-66.6666666666667,4,2,1,80,0,0
145619,-100,4,2,1,80,0,0
145793,-55.5555555555556,4,2,1,80,0,0
146142,-100,4,2,1,80,0,0
146491,-66.6666666666667,4,2,1,80,0,0
146840,-100,4,2,1,80,0,0
147189,-55.5555555555556,4,2,1,80,0,0
147363,-62.5,4,2,1,80,0,0
147886,-66.6666666666667,4,2,1,80,0,0
148235,-100,4,2,1,80,0,0
148497,-55.5555555555556,4,2,1,80,0,0
148933,-100,4,2,1,80,0,0
149282,-66.6666666666667,4,2,1,80,0,0
149631,-100,4,2,1,80,0,0
149980,-71.4285714285714,4,2,1,80,0,0
150328,-62.5,4,2,1,80,0,0
150677,-66.6666666666667,4,2,1,80,0,0
151026,-100,4,2,1,80,0,0
151288,-55.5555555555556,4,2,1,80,0,0
151724,-100,4,2,1,80,0,0
152073,-66.6666666666667,4,2,1,80,0,0
152421,-100,4,2,1,80,0,0
152770,-55.5555555555556,4,2,1,80,0,0
152945,-62.5,4,2,1,80,0,0
153468,-66.6666666666667,4,2,1,80,0,0
153817,-100,4,2,1,80,0,0
154078,-55.5555555555556,4,2,1,80,0,0
154514,-100,4,2,1,80,0,0
154863,-66.6666666666667,4,2,1,80,0,0
155735,-100,4,2,1,80,0,0
156782,-66.6666666666667,4,2,1,80,0,0
156956,-50,4,2,1,80,0,0
157654,-66.6666666666667,4,2,1,80,0,0
158352,-50,4,2,1,80,0,0
159049,-66.6666666666667,4,2,1,80,0,0
159747,-50,4,2,1,80,0,0
160445,-66.6666666666667,4,2,1,80,0,0
160793,-50,4,2,1,80,0,0
161840,-66.6666666666667,4,2,1,80,0,0
162538,-50,4,2,1,80,0,0
163235,-66.6666666666667,4,2,1,80,0,0
163933,-100,4,2,1,80,0,0
164631,-66.6666666666667,4,2,1,80,0,0
165328,-50,4,2,1,80,0,0
167421,-66.6666666666667,4,2,1,80,0,0
168119,-50,4,2,1,80,0,0
171607,-66.6666666666667,4,2,1,80,0,0
172000,-50,4,2,1,80,0,0
173003,-200,4,2,1,80,0,0
173700,-100,4,2,1,80,0,0
174398,-66.6666666666667,4,2,1,80,0,0
175096,-50,4,2,1,80,0,0
175793,-40,4,2,1,80,0,0
176491,-30,4,2,1,80,0,0
177189,-200,4,2,1,80,0,0
178323,-66.6666666666667,4,2,1,80,0,0
178584,-66.6666666666667,4,2,1,80,0,0
178759,-58.8235294117647,4,2,1,80,0,0
178933,-71.4285714285714,4,2,1,80,0,0
179456,-133.333333333333,4,2,1,80,0,0
179980,-66.6666666666667,4,2,1,80,0,0
180328,-80,4,2,1,80,0,0
181026,-58.8235294117647,4,2,1,80,0,0
181375,-66.6666666666667,4,2,1,80,0,0
181724,-80,4,2,1,80,0,0
181985,-66.6666666666667,4,2,1,80,0,0
182421,-133.333333333333,4,2,1,80,0,0
182770,-66.6666666666667,4,2,1,80,0,0
183119,-80,4,2,1,80,0,0
183468,-71.4285714285714,4,2,1,80,0,0
183817,-80,4,2,1,80,0,0
184166,-66.6666666666667,4,2,1,80,0,0
184514,-80,4,2,1,80,0,0
184776,-66.6666666666667,4,2,1,80,0,0
185212,-133.333333333333,4,2,1,80,0,0
185561,-66.6666666666667,4,2,1,80,0,0
185910,-80,4,2,1,80,0,0
186259,-100,4,2,1,80,0,0
186956,-66.6666666666667,4,2,1,80,0,0
187305,-80,4,2,1,80,0,0
187567,-66.6666666666667,4,2,1,80,0,0
188003,-133.333333333333,4,2,1,80,0,0
188352,-66.6666666666667,4,2,1,80,0,0
188700,-80,4,2,1,80,0,0
189049,-71.4285714285714,4,2,1,80,0,0
189398,-80,4,2,1,80,0,0
189747,-58.8235294117647,4,2,1,80,0,0
190270,-50,4,2,1,80,0,0
190619,-133.333333333333,4,2,1,80,0,0
191142,-66.6666666666667,4,2,1,80,0,0
191491,-76.9230769230769,4,2,1,80,0,0
192014,-58.8235294117647,4,2,1,80,0,0
192538,-66.6666666666667,4,2,1,80,0,0
192886,-80,4,2,1,80,0,0
193148,-66.6666666666667,4,2,1,80,0,0
193584,-133.333333333333,4,2,1,80,0,0
193933,-66.6666666666667,4,2,1,80,0,0
194282,-80,4,2,1,80,0,0
194543,-71.4285714285714,4,2,1,80,0,0
194980,-80,4,2,1,80,0,0
195328,-66.6666666666667,4,2,1,80,0,0
195677,-80,4,2,1,80,0,0
195939,-66.6666666666667,4,2,1,80,0,0
196375,-133.333333333333,4,2,1,80,0,0
196724,-66.6666666666667,4,2,1,80,0,0
197073,-80,4,2,1,80,0,0
197421,-71.4285714285714,4,2,1,80,0,0
197770,-58.8235294117647,4,2,1,80,0,0
198119,-62.5,4,2,1,80,0,0
198468,-71.4285714285714,4,2,1,80,0,0
198730,-62.5,4,2,1,80,0,0
199166,-58.8235294117647,4,2,1,80,0,0
199514,-62.5,4,2,1,80,0,0
199863,-71.4285714285714,4,2,1,80,0,0
200125,-58.8235294117647,4,2,1,80,0,0
200561,-50,4,2,1,80,0,0
200910,-66.6666666666667,4,2,1,80,0,0
204049,-50,4,2,1,80,0,0
205096,-66.6666666666667,4,2,1,80,0,0
205445,-50,4,2,1,80,0,0
209282,-200,4,2,1,80,0,0
209631,-66.6666666666667,4,2,1,80,0,0
210154,-66.2251655629139,4,2,1,80,0,0
210677,-200,4,2,1,80,0,0
211026,-66.6666666666667,4,2,1,80,0,0
212073,-50,4,2,1,80,0,0
212945,-66.6666666666667,4,2,1,80,0,0
213468,-50,4,2,1,80,0,0
219049,-66.6666666666667,4,2,1,80,0,0
220445,-50,4,2,1,80,0,0
221840,-25,4,2,1,80,0,0
223235,-200,4,2,1,80,0,0
223584,-50,4,2,1,80,0,0
224282,-200,4,2,1,80,0,0
224631,-50,4,2,1,80,0,0
224805,-200,4,2,1,80,0,0
224980,-50,4,2,1,80,0,0
226636,-133.333333333333,4,2,1,80,0,0
226898,-50,4,2,1,80,0,0
228032,-100,4,2,1,80,0,0
228293,-50,4,2,1,80,0,0
228468,-133.333333333333,4,2,1,80,0,0
228817,-50,4,2,1,80,0,0
229166,-50,4,2,1,80,0,0
229950,-200,4,2,1,80,0,0
230212,-50,4,2,1,80,0,0
233613,-200,4,2,1,80,0,0
233788,-50,4,2,1,80,0,0
234049,-133.333333333333,4,2,1,80,0,0
234398,-50,4,2,1,40,0,0
234834,-200,4,2,1,40,0,0
235183,-50,4,2,1,40,0,0
235445,-20,4,2,1,40,0,0
238628,-200,4,2,1,20,0,0
239849,-200,4,2,1,5,0,0
240023,-95.2380952380952,4,2,1,40,0,0
242727,-95.2380952380952,4,2,1,5,0,0
242901,-200,4,2,1,30,0,0
245561,-100,4,3,1,40,0,0
256724,-83.3333333333333,4,3,1,40,0,0
259514,-76.9230769230769,4,3,1,40,0,0
262305,-71.4285714285714,4,3,1,40,0,0
263700,-66.6666666666667,4,3,1,40,0,0
267886,-66.6666666666667,4,3,1,60,0,0
268148,-83.3333333333333,4,3,1,60,0,0
269282,-66.6666666666667,4,3,1,60,0,0
269543,-83.3333333333333,4,3,1,60,0,0
270677,-66.6666666666667,4,3,1,60,0,0
270939,-83.3333333333333,4,3,1,60,0,0
272073,-66.6666666666667,4,3,1,60,0,0
272334,-76.9230769230769,4,3,1,60,0,0
273468,-83.3333333333333,4,3,1,60,0,0
274863,-76.9230769230769,4,3,1,60,0,0
276259,-71.4285714285714,4,3,1,60,0,0
277654,-66.6666666666667,4,3,1,60,0,0
279049,-62.5,4,3,1,60,0,0
280445,-58.8235294117647,4,3,1,65,0,0
281840,-55.5555555555556,4,3,1,70,0,0
283235,-52.6315789473684,4,3,1,75,0,0
284631,-50,4,3,1,80,0,0
284980,-55.5555555555556,4,3,1,80,0,0
285328,-62.5,4,3,1,80,0,0
285677,-71.4285714285714,4,3,1,80,0,0
286026,-83.3333333333333,4,3,1,60,0,0
287421,-100,4,3,1,60,0,0
289863,-100,4,3,1,5,0,0
290212,-43.4782608695652,4,2,1,80,0,0
290474,-181.818181818181,4,2,1,80,0,0
290735,-35.7142857142857,4,2,1,80,0,0
291259,-50,4,2,1,80,0,0
291607,-33.3333333333333,4,2,1,80,0,0
291869,-333.333333333333,4,2,1,80,0,0
292131,-50,4,2,1,80,0,0
292654,-43.4782608695652,4,2,1,80,0,0
292828,-333.333333333333,4,2,1,80,0,0
293003,-43.4782608695652,4,2,1,80,0,0
293264,-333.333333333333,4,2,1,80,0,0
293526,-50,4,2,1,80,0,0
294049,-31.25,4,2,1,80,0,0
294398,-100,4,2,1,80,0,0
294921,-40,4,2,1,80,0,0
295096,-27.7777777777778,4,2,1,80,0,0
295445,-35.7142857142857,4,2,1,80,0,0
295793,-50,4,2,1,80,0,0
297189,-34.4827586206897,4,2,1,80,0,0
297450,-333.333333333333,4,2,1,80,0,0
297712,-40,4,2,1,80,0,0
297886,-333.333333333333,4,2,1,80,0,0
298410,-250,4,2,1,80,0,0
298584,-40,4,2,1,80,0,0
299107,-35.7142857142857,4,2,1,80,0,0
299282,-133.333333333333,4,2,1,80,0,0
299456,-35.7142857142857,4,2,1,80,0,0
299980,-35.7142857142857,4,2,1,80,0,0
300590,-200,4,2,1,80,0,0
300939,-66.6666666666667,4,2,1,80,0,0
301375,-35.7142857142857,4,2,1,80,0,0
301898,-200,4,2,1,80,0,0
302247,-31.25,4,2,1,80,0,0
302421,-250,4,2,1,80,0,0
302770,-28.5714285714286,4,2,1,80,0,0
303032,-333.333333333333,4,2,1,80,0,0
303293,-50,4,2,1,80,0,0
303817,-40,4,2,1,80,0,0
304427,-133.333333333333,4,2,1,80,0,0
304689,-50,4,2,1,80,0,0
305212,-40,4,2,1,80,0,0
305386,-31.25,4,2,1,80,0,0
305561,-50,4,2,1,80,0,0
305910,-250,4,2,1,80,0,0
306084,-66.6666666666667,4,2,1,80,0,0
306695,-40,4,2,1,80,0,0
307218,-133.333333333333,4,2,1,80,0,0
307480,-50,4,2,1,80,0,0
307654,-33.3333333333333,4,2,1,80,0,0
307916,-105.263157894737,4,2,1,80,0,0
308177,-40,4,2,1,80,0,0
308352,-28.5714285714286,4,2,1,80,0,0
308613,-90.9090909090909,4,2,1,80,0,0
308875,-33.3333333333333,4,2,1,80,0,0
309049,-25,4,2,1,80,0,0
309311,-90.9090909090909,4,2,1,80,0,0
309573,-28.5714285714286,4,2,1,80,0,0
309747,-22.2222222222222,4,2,1,80,0,0
310009,-90.9090909090909,4,2,1,80,0,0
310270,-25,4,2,1,80,0,0
310445,-20,4,2,1,80,0,0
310706,-66.6666666666667,4,2,1,80,0,0
310968,-15,4,2,1,80,0,0
311142,-500,4,2,1,80,0,0
312014,-100,4,2,1,80,0,0
312538,-30,4,2,1,80,0,0
313061,-45,4,2,1,80,0,0
313410,-250,4,2,1,80,0,0
313584,-45,4,2,1,80,0,0
313933,-250,4,2,1,80,0,0
314456,-45,4,2,1,80,0,0
316724,-133.333333333333,4,2,1,80,0,0
316985,-100,4,2,1,80,0,0
317247,-80,4,2,1,80,0,0
317509,-66.6666666666667,4,2,1,80,0,0
317770,-30,4,2,1,80,0,0
318119,-250,4,2,1,80,0,0
318642,-45,4,2,1,80,0,0
319776,-250,4,2,1,80,0,0
320038,-20,4,2,1,80,0,0
320212,-200,4,2,1,80,0,0
320561,-25,4,2,1,80,0,0
320910,-45,4,2,1,80,0,0
321607,-30,4,2,1,80,0,0
321956,-45,4,2,1,80,0,0
322305,-250,4,2,1,80,0,0
323700,-20,4,2,1,80,0,0
323962,-100,4,2,1,80,0,0
324224,-250,4,2,1,80,0,0
324573,-45,4,2,1,80,0,0
324747,-250,4,2,1,80,0,0
325096,-20,4,2,1,80,0,0
325619,-45,4,2,1,80,0,0
325793,-250,4,2,1,80,0,0
326142,-45,4,2,1,80,0,0
326491,-20,4,2,1,80,0,0
326753,-100,4,2,1,80,0,0
327014,-45,4,2,1,80,0,0
327886,-100,4,2,1,80,0,0
328410,-30,4,2,1,80,0,0
328933,-27.027027027027,4,2,1,80,0,0
329282,-100,4,2,1,80,0,0
329805,-45,4,2,1,80,0,0
330939,-250,4,2,1,80,0,0
331200,-20,4,2,1,80,0,0
331375,-30,4,2,1,80,0,0
332073,-45,4,2,1,80,0,0
333468,-250,4,2,1,80,0,0
333817,-25,4,2,1,80,0,0
334427,-250,4,2,1,80,0,0
334863,-45.4545454545455,4,2,1,80,0,0
335212,-133.333333333333,4,2,1,80,0,0
335735,-50,4,2,1,80,0,0
336259,-100,4,2,1,80,0,0
336607,-50,4,2,1,80,0,0
337654,-40,4,2,1,80,0,0
338003,-50,4,2,1,80,0,0
338526,-66.6666666666667,4,2,1,80,0,0
339049,-100,4,2,1,80,0,0
339398,-50,4,2,1,80,0,0
339573,-133.333333333333,4,2,1,80,0,0
339921,-50,4,2,1,80,0,0
340445,-40,4,2,1,80,0,0
341317,-50,4,2,1,80,0,0
341840,-100,4,2,1,80,0,0
342189,-50,4,2,1,80,0,0
342712,-66.6666666666667,4,2,1,80,0,0
342886,-50,4,2,1,80,0,0
343235,-40,4,2,1,80,0,0
343584,-50,4,2,1,80,0,0
343759,-133.333333333333,4,2,1,80,0,0
344107,-50,4,2,1,80,0,0
344631,-100,4,2,1,80,0,0
344980,-50,4,2,1,80,0,0
346026,-200,4,2,1,80,0,0
346549,-40,4,2,1,80,0,0
346898,-50,4,2,1,80,0,0
347421,-100,4,2,1,80,0,0
347770,-50,4,2,1,80,0,0
347945,-133.333333333333,4,2,1,80,0,0
348293,-50,4,2,1,80,0,0
348817,-40,4,2,1,80,0,0
349689,-66.6666666666667,4,2,1,80,0,0
349863,-50,4,2,1,80,0,0
350212,-100,4,2,1,80,0,0
350561,-50,4,2,1,80,0,0
351607,-40,4,2,1,80,0,0
351956,-50,4,2,1,80,0,0
352480,-66.6666666666667,4,2,1,80,0,0
352654,-50,4,2,1,80,0,0
353003,-100,4,2,1,80,0,0
353352,-50,4,2,1,80,0,0
354398,-40,4,2,1,80,0,0
354747,-33.3333333333333,4,2,1,80,0,0
355270,-50,4,2,1,80,0,0
355793,-40,4,2,1,80,0,0
356142,-33.3333333333333,4,2,1,80,0,0
356317,-133.333333333333,4,2,1,80,0,0
357189,-200,4,2,1,80,0,0
357538,-50,4,2,1,80,0,0
358235,-100,4,2,1,80,0,0
358584,-200,4,2,1,80,0,0
358933,-50,4,2,1,80,0,0
359369,-66.6666666666667,4,2,1,80,0,0
359980,-200,4,2,1,80,0,0
360328,-50,4,2,1,80,0,0
361026,-100,4,2,1,80,0,0
361375,-200,4,2,1,80,0,0
361724,-50,4,2,1,80,0,0
362770,-133.333333333333,4,2,1,80,0,0
363119,-50,4,2,1,80,0,0
363642,-100,4,2,1,80,0,0
363817,-66.6666666666667,4,2,1,80,0,0
364166,-133.333333333333,4,2,1,80,0,0
364514,-50,4,2,1,80,0,0
365038,-133.333333333333,4,2,1,80,0,0
365212,-66.6666666666667,4,2,1,80,0,0
365561,-133.333333333333,4,2,1,80,0,0
365910,-50,4,2,1,80,0,0
366433,-100,4,2,1,80,0,0
366607,-57.1428571428571,4,2,1,80,0,0
366782,-50,4,2,1,80,0,0
366956,-133.333333333333,4,2,1,80,0,0
367305,-50,4,2,1,80,0,0
367654,-100,4,2,1,80,0,0
367828,-66.6666666666667,4,2,1,80,0,0
368003,-50,4,2,1,80,0,0
368352,-100,4,2,1,80,0,0
368613,-66.6666666666667,4,2,1,80,0,0
368875,-50,4,2,1,80,0,0
369747,-133.333333333333,4,2,1,80,0,0
370096,-50,4,2,1,80,0,0
370793,-66.6666666666667,4,2,1,80,0,0
371142,-133.333333333333,4,2,1,80,0,0
371491,-66.6666666666667,4,2,1,80,0,0
372014,-50,4,2,1,80,0,0
372538,-133.333333333333,4,2,1,80,0,0
372886,-66.6666666666667,4,2,1,80,0,0
373584,-50,4,2,1,80,0,0
373933,-100,4,2,1,80,0,0
374282,-50,4,2,1,80,0,0
374805,-133.333333333333,4,2,1,80,0,0
374980,-66.6666666666667,4,2,1,80,0,0
375154,-50,4,2,1,80,0,0
375677,-66.6666666666667,4,2,1,80,0,0
375852,-50,4,2,1,80,0,0
376375,-33.3333333333333,4,2,1,80,0,0
376549,-25,4,2,1,80,0,0
376724,-133.333333333333,4,2,1,80,0,0
377073,-100,4,2,1,80,0,0
377334,-57.1428571428571,4,2,1,80,0,0
377770,-50,4,2,1,80,0,0
378119,-66.6666666666667,4,2,1,80,0,0
378381,-133.333333333333,4,2,1,80,0,0

[Colours]
Combo1 : 140,179,146
Combo2 : 140,175,179
Combo3 : 180,139,139
Combo4 : 192,171,126

[HitObjects]
256,192,42014,12,0,44456,0:0:0:0:
270,135,44631,5,0,0:0:0:0:
286,137,44718,1,0,0:0:0:0:
302,138,44805,1,0,0:0:0:0:
318,140,44892,1,0,0:0:0:0:
337,145,44980,6,0,L|379:155,1,26.9999991760254,0|0,0:0|0:0,0:0:0:0:
490,218,45154,5,0,0:0:0:0:
463,221,45241,1,0,0:0:0:0:
436,224,45328,1,0,2:0:0:0:
409,226,45415,1,0,0:0:0:0:
377,220,45503,6,0,L|358:248,1,26.9999991760254,0|0,0:0|0:0,0:0:0:0:
210,336,45677,5,0,0:0:0:0:
255,343,45764,1,0,0:0:0:0:
300,350,45851,1,0,0:0:0:0:
344,357,45938,1,0,0:0:0:0:
382,362,46026,6,0,L|352:336,1,26.9999991760254,0|0,2:0|0:0,0:0:0:0:
275,164,46200,5,0,0:0:0:0:
263,170,46287,1,0,0:0:0:0:
253,179,46374,1,0,0:0:0:0:
245,190,46461,1,0,0:0:0:0:
241,204,46549,6,0,L|245:172,1,26.9999991760254,0|0,0:0|0:0,0:0:0:0:
266,28,46724,5,0,2:0:0:0:
292,27,46811,1,0,0:0:0:0:
319,33,46898,1,0,0:0:0:0:
342,46,46985,1,0,0:0:0:0:
363,64,47073,6,0,L|357:94,1,26.9999991760254,0|0,0:0|0:0,0:0:0:0:
352,198,47247,5,0,0:0:0:0:
396,206,47334,1,0,0:0:0:0:
440,200,47421,1,0,2:0:0:0:
480,180,47508,1,0,0:0:0:0:
512,150,47596,6,0,L|484:113,1,26.9999991760254,0|0,0:0|0:0,0:0:0:0:
363,64,47770,5,0,0:0:0:0:
360,77,47857,1,0,0:0:0:0:
359,90,47944,1,0,0:0:0:0:
361,104,48031,1,0,0:0:0:0:
365,117,48119,6,0,L|387:147,1,26.9999991760254,0|0,2:0|0:0,0:0:0:0:
440,200,48293,5,0,0:0:0:0:
440,226,48380,1,0,0:0:0:0:
433,252,48467,1,0,0:0:0:0:
420,276,48554,1,0,0:0:0:0:
402,292,48642,6,0,L|376:273,1,26.9999991760254,0|0,0:0|0:0,0:0:0:0:
301,200,48817,5,0,2:0:0:0:
282,230,48904,1,0,0:0:0:0:
275,265,48991,1,0,0:0:0:0:
280,301,49078,1,0,0:0:0:0:
295,330,49166,6,0,L|261:325,1,26.9999991760254,0|0,0:0|0:0,0:0:0:0:
152,274,49340,5,0,0:0:0:0:
161,248,49427,1,0,0:0:0:0:
158,214,49514,6,0,L|135:229,1,22.5,0|0,2:0|0:0,0:0:0:0:
158,214,49602,2,0,L|181:229,1,22.5,0|0,0:0|0:0,0:0:0:0:
158,213,49689,2,0,L|130:215,1,22.5,2|2,0:2|0:2,0:0:0:0:
158,213,49776,2,0,L|185:214,1,22.5,2|2,0:2|0:2,0:0:0:0:
158,213,49863,2,0,L|133:200,1,22.5,2|0,0:2|0:0,0:0:0:0:
158,213,49950,2,0,L|182:200,1,22.5,0|0,0:0|0:0,0:0:0:0:
158,213,50038,2,0,L|159:157,1,45
130,78,50212,5,0,2:0:0:0:
130,78,50299,1,0,0:0:0:0:
130,78,50386,1,0,0:0:0:0:
130,78,50474,1,0,0:0:0:0:
130,78,50561,6,0,L|159:94,1,31.4999990386963,0|0,0:0|0:0,0:0:0:0:
315,212,50735,5,0,0:0:0:0:
311,204,50822,1,0,0:0:0:0:
307,197,50909,1,0,2:0:0:0:
304,190,50996,1,0,0:0:0:0:
299,181,51084,6,0,L|278:145,1,31.4999990386963,0|0,0:0|0:0,0:0:0:0:
237,58,51259,5,0,0:0:0:0:
252,58,51346,1,0,0:0:0:0:
268,59,51433,1,0,0:0:0:0:
284,60,51520,1,0,0:0:0:0:
299,61,51607,6,0,L|342:91,1,31.4999990386963,0|0,2:0|0:0,0:0:0:0:
378,299,51782,5,0,0:0:0:0:
365,289,51869,1,0,0:0:0:0:
355,277,51956,1,0,0:0:0:0:
347,263,52043,1,0,0:0:0:0:
343,247,52131,6,0,L|318:218,1,31.4999990386963,0|0,0:0|0:0,0:0:0:0:
165,117,52305,5,0,2:0:0:0:
188,138,52393,1,0,0:0:0:0:
216,152,52480,1,0,0:0:0:0:
246,160,52567,1,0,0:0:0:0:
273,165,52654,6,0,L|295:130,1,31.4999990386963,0|0,0:0|0:0,0:0:0:0:
375,108,52828,6,0,L|369:152,1,31.4999990386963
382,110,53003,2,0,L|376:154,1,31.4999990386963,0|0,2:0|0:0,0:0:0:0:
446,60,53177,6,0,L|450:28,1,31.4999990386963
225,158,53352,6,0,L|231:202,1,31.4999990386963
232,151,53527,2,0,L|238:195,1,31.4999990386963
173,94,53701,6,0,L|168:62,1,31.4999990386963,0|0,2:0|0:0,0:0:0:0:
93,251,53875,6,0,L|87:295,1,31.4999990386963
101,243,54050,2,0,L|95:287,1,31.4999990386963
60,176,54224,6,0,L|64:144,1,31.4999990386963
277,321,54398,6,0,L|283:365,1,31.4999990386963,0|0,2:0|0:0,0:0:0:0:
286,310,54573,2,0,L|292:354,1,31.4999990386963,0|0,0:0|0:0,0:0:0:0:
333,242,54747,6,0,L|328:210,1,31.4999990386963
436,233,54921,6,0,L|430:277,1,31.4999990386963
446,221,55096,2,0,L|440:265,1,31.4999990386963,0|0,2:0|0:0,0:0:0:0:
493,155,55270,6,0,L|498:123,1,31.4999990386963
255,85,55445,6,0,L|261:129,1,31.4999990386963
286,114,55620,2,0,L|292:158,1,31.4999990386963,0|0,0:0|0:0,0:0:0:0:
280,310,55793,5,8,0:0:0:0:
280,310,55881,1,0,0:0:0:0:
280,310,55968,1,0,0:0:0:0:
280,310,56055,1,0,0:0:0:0:
280,310,56142,6,0,L|283:354,1,31.4999990386963,0|0,0:0|0:0,0:0:0:0:
196,209,56317,5,0,0:0:0:0:
187,222,56404,1,0,0:0:0:0:
182,237,56491,1,0,2:0:0:0:
181,252,56578,1,0,0:0:0:0:
183,268,56666,6,0,L|186:312,1,31.4999990386963,0|0,0:0|0:0,0:0:0:0:
301,134,56840,5,0,0:0:0:0:
324,155,56927,1,0,0:0:0:0:
339,182,57014,1,0,0:0:0:0:
346,213,57101,1,0,0:0:0:0:
350,241,57189,6,0,L|353:285,1,31.4999990386963,0|0,2:0|0:0,0:0:0:0:
205,98,57363,5,0,0:0:0:0:
180,117,57450,1,0,0:0:0:0:
162,143,57537,1,0,0:0:0:0:
152,172,57624,1,0,0:0:0:0:
150,204,57712,6,0,L|153:248,1,31.4999990386963,0|0,0:0|0:0,0:0:0:0:
287,54,57886,5,0,2:0:0:0:
323,67,57973,1,0,0:0:0:0:
353,92,58060,1,0,0:0:0:0:
373,126,58147,1,0,0:0:0:0:
379,165,58235,6,0,L|382:209,1,31.4999990386963,0|0,0:0|0:0,0:0:0:0:
380,337,58410,5,0,0:0:0:0:
372,338,58497,1,0,0:0:0:0:
364,340,58584,1,0,2:0:0:0:
357,342,58671,1,0,0:0:0:0:
347,346,58759,6,0,L|339:304,1,31.4999990386963,0|0,0:0|0:0,0:0:0:0:
139,326,58933,5,0,0:0:0:0:
150,315,59020,1,0,0:0:0:0:
164,307,59107,1,0,0:0:0:0:
179,305,59195,1,0,0:0:0:0:
195,306,59282,6,0,L|203:264,1,31.4999990386963,0|0,2:0|0:0,0:0:0:0:
437,262,59456,5,0,0:0:0:0:
417,248,59543,1,0,0:0:0:0:
395,240,59630,1,0,0:0:0:0:
371,238,59717,1,0,0:0:0:0:
348,242,59805,6,0,L|340:200,1,31.4999990386963,0|0,0:0|0:0,0:0:0:0:
94,246,59980,5,0,2:0:0:0:
112,220,60067,1,0,0:0:0:0:
136,200,60154,1,0,0:0:0:0:
165,187,60241,1,0,0:0:0:0:
196,181,60328,6,0,L|207:139,1,31.4999990386963,0|0,0:0|0:0,0:0:0:0:
480,224,60503,5,0,0:0:0:0:
457,191,60590,1,0,0:0:0:0:
426,168,60677,1,0,2:0:0:0:
388,156,60764,1,0,0:0:0:0:
349,156,60852,6,0,L|338:114,1,31.4999990386963,0|0,0:0|0:0,0:0:0:0:
181,31,61026,5,0,0:0:0:0:
183,41,61113,1,0,0:0:0:0:
185,51,61200,1,0,0:0:0:0:
188,61,61287,1,0,0:0:0:0:
242,71,61375,5,0,2:0:0:0:
239,81,61462,1,0,0:0:0:0:
237,91,61549,1,0,0:0:0:0:
234,101,61636,1,0,0:0:0:0:
197,142,61724,6,0,L|232:172,1,31.4999990386963
404,204,61898,6,0,L|442:174,3,31.4999990386963,0|0|0|0,0:0|0:0|2:0|0:0,0:0:0:0:
404,204,62247,6,0,L|379:223,1,31.4999990386963,0|0,0:0|0:0,0:0:0:0:
307,279,62421,6,0,L|269:249,3,31.4999990386963,0|0|0|0,0:0|0:0|0:0|0:0,0:0:0:0:
307,279,62770,6,0,L|331:298,1,31.4999990386963,0|0,2:0|0:0,0:0:0:0:
454,299,62945,6,0,L|492:269,3,31.4999990386963,0|0|0|0,0:0|0:0|0:0|0:0,0:0:0:0:
454,299,63294,6,0,L|429:318,1,31.4999990386963,0|0,0:0|0:0,0:0:0:0:
270,341,63468,6,0,L|232:311,3,31.4999990386963,0|0|0|0,2:0|0:0|0:0|0:0,0:0:0:0:
270,341,63817,6,0,L|294:360,1,31.4999990386963,0|0,0:0|0:0,0:0:0:0:
359,314,63991,5,0,0:0:0:0:
358,306,64078,1,0,0:0:0:0:
357,298,64165,1,0,2:0:0:0:
357,290,64252,1,0,0:0:0:0:
337,273,64340,5,0,0:0:0:0:
337,273,64427,2,0,L|312:243,1,31.4999990386963,0|0,0:0|0:0,0:0:0:0:
427,174,64602,5,0,0:0:0:0:
427,174,64689,2,0,L|402:204,1,33.7500012874604,0|0,0:0|0:0,0:0:0:0:
292,124,64863,5,0,2:0:0:0:
292,124,64950,2,0,L|317:154,1,36,0|0,0:0|0:0,0:0:0:0:
167,123,65125,5,0,0:0:0:0:
167,123,65212,2,0,L|192:93,1,38.2500007295609,0|0,0:0|0:0,0:0:0:0:
97,220,65386,5,0,0:0:0:0:
97,220,65473,2,0,L|70:187,1,40.4999987640381,0|0,0:0|2:0,0:0:0:0:
256,192,65648,12,0,66869,0:0:0:0:
40,244,66956,6,0,P|40:308|72:344,1,90,8|0,0:0|0:0,0:0:0:0:
72,172,67218,2,0,P|32:224|32:304,1,135,0|0,0:0|0:0,0:0:0:0:
216,340,67567,1,2,0:0:0:0:
232,328,67654,6,0,L|288:332,2,45,0|0|0,0:0|0:0|1:0,0:0:0:0:
472,100,68177,5,0,0:0:0:0:
472,100,68352,2,0,P|472:164|440:200,1,90,8|0,0:0|0:0,0:0:0:0:
440,28,68614,2,0,P|480:80|480:160,1,135,0|0,0:0|0:0,0:0:0:0:
296,196,68963,1,2,0:0:0:0:
280,184,69050,6,0,L|224:188,2,45,0|0|0,0:0|0:0|1:0,0:0:0:0:
0,56,69573,6,0,L|56:64,1,45,0|0,0:0|0:0,0:0:0:0:
196,72,69747,2,0,P|168:38|124:33,1,90,8|0,0:0|0:0,0:0:0:0:
176,168,70009,2,0,P|200:112|168:48,1,135,0|0,0:0|0:0,0:0:0:0:
104,204,70357,1,2,0:0:0:0:
88,224,70445,6,0,L|92:284,2,45,0|0|0,0:0|0:0|1:0,0:0:0:0:
380,184,70968,5,0,0:0:0:0:
380,184,71142,2,0,P|407:150|451:145,1,90,8|0,0:0|0:0,0:0:0:0:
400,280,71404,2,0,P|376:224|408:160,1,135,0|0,0:0|0:0,0:0:0:0:
472,316,71752,1,2,0:0:0:0:
488,336,71840,6,0,L|484:396,2,45,0|0|0,0:0|0:0|1:0,0:0:0:0:
316,120,72189,1,0,0:0:0:0:
312,104,72276,1,0,0:0:0:0:
316,88,72363,1,0,0:0:0:0:
392,40,72538,6,0,P|316:52|280:32,1,99.0000030212403,8|0,0:0|0:0,0:0:0:0:
504,48,72799,2,0,P|440:16|352:60,1,148.50000453186,0|0,0:0|0:0,0:0:0:0:
216,32,73148,1,2,0:0:0:0:
192,36,73235,6,0,L|128:32,2,49.5000015106202,0|0|0,0:0|0:0|1:0,0:0:0:0:
44,104,73584,1,0,0:0:0:0:
28,88,73671,1,0,0:0:0:0:
24,64,73759,1,0,0:0:0:0:
144,200,73933,6,0,P|184:164|184:96,1,107.999996704102,8|0,0:0|0:0,0:0:0:0:
32,200,74195,2,0,P|112:224|192:164,1,161.999995056153,0|0,0:0|0:0,0:0:0:0:
232,316,74543,1,2,0:0:0:0:
256,320,74630,6,0,L|309:316,2,53.9999983520508,0|0|0,0:0|0:0|1:0,0:0:0:0:
480,368,74979,1,0,0:0:0:0:
496,352,75066,1,0,0:0:0:0:
500,328,75154,1,0,0:0:0:0:
384,164,75328,6,0,P|356:104|380:56,1,116.999994644165,8|0,0:0|0:0,0:0:0:0:
512,172,75590,2,0,P|428:184|368:120,1,175.499991966248,0|0,0:0|0:0,0:0:0:0:
268,92,75939,1,2,0:0:0:0:
248,72,76026,6,0,P|236:36|240:8,2,58.4999973220826,0|0|0,0:0|0:0|1:0,0:0:0:0:
72,64,76375,1,0,0:0:0:0:
56,88,76462,1,0,0:0:0:0:
48,116,76549,1,0,0:0:0:0:
48,148,76636,1,0,0:0:0:0:
60,176,76724,6,0,P|48:104|0:76,1,125.999996154785,8|0,0:0|0:0,0:0:0:0:
180,280,76985,2,0,P|88:244|24:320,1,188.999994232178,0|0,0:0|0:0,0:0:0:0:
236,348,77334,1,2,0:0:0:0:
256,344,77421,6,0,P|296:360|332:348,3,62.9999980773926,0|0|0|0,0:0|0:0|1:0|0:0,0:0:0:0:
444,288,77770,2,0,P|404:304|368:292,3,62.9999980773926,0|0|0|0,0:0|0:0|0:0|0:0,0:0:0:0:
200,236,78119,6,0,B|156:184|180:144|180:144|176:192|108:212,1,202.500007724762,8|0,0:0|0:0,0:0:0:0:
180,328,78468,2,0,B|164:276|200:236|200:236|260:252|272:304,1,202.500007724762,8|0,0:0|0:0,0:0:0:0:
88,132,78817,5,8,0:0:0:0:
48,152,78904,1,0,0:0:0:0:
32,196,78991,1,0,0:0:0:0:
40,244,79078,1,0,0:0:0:0:
76,276,79166,2,0,P|84:312|72:344,2,67.5000025749208,8|0|0,0:0|0:0|0:0,0:0:0:0:
264,168,79514,6,0,B|336:152|336:152|324:254|324:254|280:268,1,202.500007724762,8|0,0:0|0:0,0:0:0:0:
412,248,79863,2,0,B|352:260|352:260|292:288|292:288|196:308,1,202.500007724762,8|0,0:0|0:0,0:0:0:0:
296,56,80212,5,8,0:0:0:0:
340,36,80299,1,0,0:0:0:0:
388,40,80386,1,0,0:0:0:0:
428,64,80474,1,0,0:0:0:0:
444,108,80561,2,0,P|448:140|440:176,2,67.5000025749208,8|0|0,0:0|0:0|0:0,0:0:0:0:
80,84,80910,6,0,P|44:88|8:68,1,72,8|0,0:0|0:0,0:0:0:0:
79,83,81084,2,0,P|83:47|67:15,1,72,0|0,1:0|0:0,0:0:0:0:
220,232,81259,6,0,P|256:236|292:216,1,72,8|0,0:0|0:0,0:0:0:0:
220,231,81433,2,0,P|215:195|231:163,1,72,0|0,1:0|0:0,0:0:0:0:
140,148,81607,5,8,0:0:0:0:
84,164,81695,1,0,0:0:0:0:
44,204,81782,1,0,1:0:0:0:
32,260,81869,1,0,0:0:0:0:
52,312,81956,2,0,P|66:340|106:369,3,72,8|0|0|0,0:0|0:0|1:0|0:0,0:0:0:0:
232,328,82305,6,0,P|280:336|296:360,1,72,8|0,0:0|0:0,0:0:0:0:
317,291,82480,2,0,P|293:316|292:352,1,72,0|0,1:0|0:0,0:0:0:0:
512,124,82654,6,0,P|464:132|448:156,1,72,8|0,0:0|0:0,0:0:0:0:
427,87,82829,2,0,P|450:112|451:148,1,72,0|0,1:0|0:0,0:0:0:0:
500,316,83003,5,8,0:0:0:0:
444,336,83090,1,0,0:0:0:0:
392,316,83177,1,0,1:0:0:0:
364,268,83264,1,0,0:0:0:0:
376,212,83352,2,0,P|384:164|376:120,3,72,8|0|0|0,0:0|0:0|1:0|0:0,0:0:0:0:
328,72,83700,6,0,P|284:48|240:56,1,80.9999975280763,8|0,0:0|0:0,0:0:0:0:
12,176,83875,1,0,0:0:0:0:
12,176,83962,1,0,0:0:0:0:
12,176,84049,6,0,P|51:175|85:154,1,80.9999975280763,8|0,0:0|0:0,0:0:0:0:
156,8,84224,1,0,0:0:0:0:
156,8,84311,1,0,0:0:0:0:
156,8,84398,6,0,L|168:104,1,80.9999975280763,8|0,0:0|0:0,0:0:0:0:
268,228,84573,2,0,L|280:132,1,80.9999975280763,0|0,0:0|0:0,0:0:0:0:
447,86,84747,5,0,0:0:0:0:
472,20,84834,2,0,B|476:64|476:64|464:76|464:76|468:116|468:116|440:164|396:136,1,180
200,352,85096,6,0,P|224:360|252:360,1,45,8|0,0:0|0:0,0:0:0:0:
428,320,85270,2,0,P|408:336|368:352,1,53.9999983520508,8|0,0:0|0:0,0:0:0:0:
72,292,85445,2,0,P|104:316|136:328,1,62.9999980773926,8|0,0:0|0:0,0:0:0:0:
496,192,85619,2,0,P|488:232|460:272,1,72,8|0,0:0|0:0,0:0:0:0:
16,152,85793,2,0,P|16:184|36:248,1,80.9999975280763,8|0,0:0|0:0,0:0:0:0:
504,116,85968,2,0,P|500:56|480:16,1,90,8|0,0:0|0:0,0:0:0:0:
244,8,86142,5,0,0:0:0:0:
236,20,86230,1,0,0:0:0:0:
236,36,86317,1,2,0:2:0:0:
244,48,86404,1,2,0:2:0:0:
244,168,86491,5,0,0:0:0:0:
256,192,86578,12,0,89107,0:0:0:0:
387,174,89282,6,0,B|416:110|416:110|439:241,1,202.500007724762,0|0,1:0|0:0,0:0:0:0:
199,281,89631,2,0,P|251:268|290:305,1,112.5,8|0,0:0|0:0,0:0:0:0:
408,352,89892,1,2,0:0:0:0:
400,366,89980,6,0,P|378:366|357:358,1,45,0|0,0:0|0:0,0:0:0:0:
248,146,90154,1,0,1:0:0:0:
44,255,90328,2,0,L|58:322,1,67.5000025749208,8|0,0:0|0:0,0:0:0:0:
152,378,90590,1,0,0:0:0:0:
147,364,90677,6,0,B|168:341|200:339|200:339|58:322,1,202.500007724762,0|0,1:0|0:0,0:0:0:0:
105,209,91026,2,0,L|162:216,1,56.25,8|0,0:0|0:0,0:0:0:0:
400,224,91200,1,0,0:0:0:0:
410,213,91288,6,0,B|357:194|357:194|310:224,1,112.5,2|0,0:0|0:0,0:0:0:0:
173,141,91549,2,0,P|179:108|204:85,1,67.5000025749208,0|0,1:0|0:0,0:0:0:0:
254,312,91724,1,8,0:0:0:0:
322,359,91811,2,0,B|257:348|257:348|248:339|248:339|236:345|236:345|171:334,1,157.500001502037
2,208,92073,6,0,P|64:151|85:233,1,202.500007724762,0|0,1:0|0:0,0:0:0:0:
54,383,92421,2,0,P|12:349|19:295,1,112.5,8|0,0:0|0:0,0:0:0:0:
185,221,92683,1,2,0:0:0:0:
194,213,92770,6,0,L|183:268,1,45,0|0,0:0|0:0,0:0:0:0:
168,375,92945,1,0,1:0:0:0:
328,249,93119,2,0,P|356:231|390:232,1,67.5000025749208,8|0,0:0|0:0,0:0:0:0:
502,293,93381,1,0,0:0:0:0:
511,305,93468,6,0,B|435:297|435:297|409:261|409:261|329:249,1,202.500007724762,0|0,1:0|0:0,0:0:0:0:
264,104,93817,2,0,L|270:159,1,56.25,8|0,0:0|0:0,0:0:0:0:
112,311,93991,1,0,0:0:0:0:
103,297,94078,6,0,B|158:279|158:279|205:305,1,112.5,2|0,0:0|0:0,0:0:0:0:
362,341,94340,2,0,B|328:335|328:335|297:348,1,67.5000025749208,0|0,1:0|0:0,0:0:0:0:
21,229,94514,2,0,P|53:165|117:195,1,157.500001502037,8|0,0:0|0:0,0:0:0:0:
307,362,94776,1,0,0:0:0:0:
297,348,94863,6,0,B|283:281|283:281|302:231|302:231|283:152,1,202.500007724762,0|0,1:0|0:0,0:0:0:0:
426,9,95212,2,0,B|453:59|453:59|417:102,1,112.5,8|0,0:0|0:0,0:0:0:0:
206,84,95474,1,2,0:0:0:0:
198,73,95561,6,0,L|255:63,1,45,0|0,0:0|0:0,0:0:0:0:
347,48,95735,1,0,1:0:0:0:
435,208,95910,2,0,L|422:274,1,67.5000025749208,8|0,0:0|0:0,0:0:0:0:
490,345,96171,1,0,0:0:0:0:
500,333,96259,6,0,B|450:300|398:323|398:323|346:345|306:319,1,202.500007724762,0|0,1:0|0:0,0:0:0:0:
183,166,96607,2,0,P|210:167|234:182,1,56.25,8|0,0:0|0:0,0:0:0:0:
210,371,96782,1,0,0:0:0:0:
195,366,96869,6,0,B|162:319|162:319|180:267,1,112.5,2|0,0:0|0:0,0:0:0:0:
342,160,97131,2,0,L|322:224,1,67.5000025749208,0|0,1:0|0:0,0:0:0:0:
108,160,97305,1,8,0:0:0:0:
34,191,97392,2,0,B|77:205|77:205|183:166,1,157.500001502037,0|0,0:0|0:0,0:0:0:0:
312,29,97654,6,0,B|247:-9|247:-9|279:114,1,202.500007724762,0|0,1:0|0:0,0:0:0:0:
496,90,98003,2,0,B|452:82|452:82|432:91|432:91|386:82,1,112.5,8|0,0:0|0:0,0:0:0:0:
172,48,98264,1,2,0:0:0:0:
183,35,98352,6,0,L|193:78,1,45,0|0,0:0|0:0,0:0:0:0:
231,253,98526,1,0,1:0:0:0:
31,146,98700,2,0,B|59:129|59:129|93:134,1,67.5000025749208,8|0,0:0|0:0,0:0:0:0:
222,265,98962,1,0,0:0:0:0:
213,277,99049,6,0,B|144:262|144:262|87:294|87:294|21:280,1,202.500007724762,0|0,1:0|0:0,0:0:0:0:
244,378,99398,2,0,L|299:369,1,56.25,8|0,0:0|0:0,0:0:0:0:
463,217,99573,1,0,0:0:0:0:
447,206,99660,6,0,L|335:220,1,112.5,2|0,0:0|0:0,0:0:0:0:
164,366,99921,2,0,L|233:357,1,67.5000025749208,0|0,1:0|0:0,0:0:0:0:
324,140,100096,2,0,B|295:187|295:187|327:284,1,157.500001502037,8|0,0:0|0:0,0:0:0:0:
477,380,100357,1,0,0:0:0:0:
487,374,100445,6,0,P|461:300|398:345,1,180,0|0,1:0|0:0,0:0:0:0:
264,343,100706,2,0,B|222:347|194:320|194:320|171:354|124:352,1,157.500001502037,0|0,1:0|0:0,0:0:0:0:
31,242,100968,1,8,0:0:0:0:
25,229,101055,1,0,0:0:0:0:
19,216,101142,6,0,L|25:171,1,45,0|0,0:1|0:0,0:0:0:0:
52,51,101317,1,0,1:0:0:0:
287,115,101491,2,0,B|295:150|295:150|276:175,1,67.5000025749208,8|0,0:0|0:0,0:0:0:0:
103,139,101753,1,0,0:0:0:0:
95,128,101840,6,0,B|138:94|192:117|192:117|245:144|288:115,1,202.500007724762,0|0,1:0|0:0,0:0:0:0:
410,30,102189,2,0,L|398:85,1,56.25,8|0,0:0|0:0,0:0:0:0:
439,275,102363,1,0,0:0:0:0:
453,264,102450,6,0,L|341:277,1,112.5,2|0,0:0|0:0,0:0:0:0:
439,173,102712,2,0,L|373:182,1,67.5000025749208,0|0,1:0|0:0,0:0:0:0:
207,371,102886,1,8,0:0:0:0:
286,347,102974,2,0,B|220:341|220:341|208:347|208:347|194:339|194:339|132:334,1,157.500001502037
25,160,103235,6,0,P|90:109|96:192,1,202.500007724762,0|0,1:0|0:0,0:0:0:0:
53,351,103584,2,0,B|15:310|15:310|25:254,1,112.5,8|0,0:0|0:0,0:0:0:0:
197,157,103846,1,2,0:0:0:0:
210,149,103933,6,0,L|223:202,1,45,0|0,0:0|0:0,0:0:0:0:
253,341,104107,1,0,1:0:0:0:
422,238,104282,2,0,B|441:213|441:213|449:176,1,67.5000025749208,8|0,0:0|0:0,0:0:0:0:
453,81,104543,1,0,0:0:0:0:
440,67,104631,6,0,B|386:106|386:106|422:238,1,202.500007724762,0|0,1:0|0:0,0:0:0:0:
470,379,104980,2,0,L|479:324,1,56.25,8|0,0:0|0:0,0:0:0:0:
318,178,105154,1,0,0:0:0:0:
305,166,105241,6,0,B|251:159|251:159|207:195,1,112.5,2|0,0:0|0:0,0:0:0:0:
108,144,105503,2,0,P|90:115|95:82,1,67.5000025749208,0|0,1:0|0:0,0:0:0:0:
292,242,105677,2,0,B|230:234|230:234|201:246|201:246|137:238,1,157.500001502037,8|0,0:0|0:0,0:0:0:0:
10,325,105939,1,0,0:0:0:0:
2,338,106026,6,0,B|50:352|97:316|97:316|113:365|167:383,1,202.500007724762,0|0,1:0|0:0,0:0:0:0:
292,242,106375,2,0,B|305:286|305:286|284:349,1,112.5,8|0,0:0|0:0,0:0:0:0:
457,365,106636,1,2,0:0:0:0:
468,354,106724,6,0,L|417:337,1,45,0|0,0:0|0:0,0:0:0:0:
214,285,106898,1,0,1:0:0:0:
366,109,107073,2,0,L|432:97,1,67.5000025749208,8|0,0:0|0:0,0:0:0:0:
223,133,107334,1,0,0:0:0:0:
204,130,107421,6,0,P|210:48|279:113,1,202.500007724762,0|0,1:0|0:0,0:0:0:0:
132,221,107770,2,0,P|104:220|78:208,1,56.25,8|0,0:0|0:0,0:0:0:0:
308,179,107945,1,0,0:0:0:0:
319,191,108032,6,0,B|333:235|333:235|302:294,1,112.5,2|0,0:0|0:0,0:0:0:0:
214,377,108293,2,0,B|195:349|195:349|201:310,1,67.5000025749208,0|0,1:0|0:0,0:0:0:0:
443,246,108468,1,8,0:0:0:0:
479,314,108555,2,0,P|403:313|365:248,1,157.500001502037,0|0,0:0|0:0,0:0:0:0:
491,41,108817,6,0,B|476:92|476:92|483:119|483:119|465:169,1,135.000005149842,0|0,1:0|0:0,0:0:0:0:
308,179,109078,1,0,1:0:0:0:
297,168,109166,6,0,L|317:104,1,56.25,8|0,0:0|0:0,0:0:0:0:
217,265,109340,1,0,0:0:0:0:
212,280,109428,6,0,L|146:294,1,56.25,2|0,0:0|0:0,0:0:0:0:
337,301,109602,1,0,0:0:0:0:
352,296,109690,6,0,L|397:345,1,56.25,0|0,1:0|0:0,0:0:0:0:
108,202,109863,2,0,P|44:166|32:237,1,168.75,8|0,0:0|0:0,0:0:0:0:
200,361,110212,6,0,P|135:371|86:328,1,135.000005149842,0|0,1:0|0:0,0:0:0:0:
186,161,110474,1,0,0:0:0:0:
200,151,110561,2,0,B|244:142|244:142|284:162,1,90,8|0,0:0|0:1,0:0:0:0:
327,93,110823,6,0,B|368:114|368:114|412:105,1,90,2|0,0:0|0:0,0:0:0:0:
381,24,111084,1,0,1:0:0:0:
393,13,111171,1,0,1:0:0:0:
470,47,111259,6,0,L|503:48,1,33.7500012874604
478,158,111433,2,0,L|512:160,1,33.7500012874604
433,271,111607,6,0,B|517:275|517:275|506:295|482:294|466:277,1,135,0|0,1:0|0:0,0:0:0:0:
399,341,111956,6,0,B|377:359|377:359|289:351,1,80.9999975280763,8|0,0:0|0:0,0:0:0:0:
308,198,112131,1,0,0:0:0:0:
314,29,112218,6,0,B|295:50|295:50|302:122|302:122|306:126|306:126|302:130|302:130|308:198,1,180,2|0,0:0|0:0,0:0:0:0:
382,216,112480,2,0,B|386:192|386:192|379:171,1,45,0|0,1:0|0:0,0:0:0:0:
314,29,112654,6,0,P|400:76|457:57,1,161.999995056153,8|0,0:0|0:0,0:0:0:0:
306,126,112916,1,0,0:0:0:0:
306,126,113003,6,0,B|169:111|169:111|213:160,1,188.999994232178,0|0,1:0|0:0,0:0:0:0:
84,173,113352,6,0,B|123:168|123:168|151:198,1,80.9999975280763,8|0,0:0|0:0,0:0:0:0:
102,341,113526,1,0,0:0:0:0:
102,341,113613,2,0,B|62:345|62:345|34:315,1,80.9999975280763,2|0,0:0|0:0,0:0:0:0:
330,257,113875,5,0,1:0:0:0:
93,257,114049,2,0,B|200:249|200:249|222:264|222:264|330:257,1,242.999992584229,8|0,0:0|0:0,0:0:0:0:
404,286,114398,6,0,P|432:331|379:320,1,135,0|0,1:0|0:0,0:0:0:0:
330,257,114747,6,0,P|293:274|254:268,1,80.9999975280763,8|0,0:0|0:0,0:0:0:0:
103,182,114921,1,0,0:0:0:0:
15,368,115009,6,0,B|51:319|111:310|150:337|150:337|89:382,1,180,2|0,0:0|0:0,0:0:0:0:
177,267,115270,2,0,P|157:256|135:250,1,45,0|0,1:0|0:0,0:0:0:0:
14,270,115445,1,8,0:0:0:0:
14,270,115619,2,0,P|34:259|56:253,1,45,0|0,0:0|0:0,0:0:0:0:
217,204,115793,6,0,P|129:171|36:180,1,188.999994232178,0|0,1:0|0:0,0:0:0:0:
15,107,116142,6,0,P|14:147|36:180,1,80.9999975280763,8|0,0:0|0:0,0:0:0:0:
234,123,116317,2,0,P|235:83|213:50,1,80.9999975280763,0|2,0:0|0:0,0:0:0:0:
217,204,116491,6,0,B|173:175|120:170|120:170|123:216|87:249,1,180,0|0,0:0|1:0,0:0:0:0:
36,180,116753,1,0,0:0:0:0:
20,262,116840,6,0,P|60:259|95:238,1,80.9999975280763,8|0,0:0|0:0,0:0:0:0:
167,286,117014,2,0,P|132:316|91:333,1,80.9999975280763,0|0,0:0|0:0,0:0:0:0:
44,66,117189,6,0,P|8:119|35:177,1,135,0|0,1:0|0:0,0:0:0:0:
120,170,117538,6,0,L|216:161,1,80.9999975280763,8|0,0:0|0:0,0:0:0:0:
273,156,117712,1,0,0:0:0:0:
83,241,117799,6,0,B|103:260|103:260|175:253|175:253|179:249|179:249|183:253|183:253|252:247,1,180,2|0,0:0|0:0,0:0:0:0:
326,259,118061,2,0,B|331:236|331:236|321:217,1,45,0|0,1:0|0:0,0:0:0:0:
437,60,118235,6,0,P|398:69|374:101,1,80.9999975280763,8|0,0:0|0:0,0:0:0:0:
215,181,118410,2,0,P|222:220|252:247,1,80.9999975280763,0|0,0:0|0:0,0:0:0:0:
85,113,118584,6,0,B|126:139|168:112|168:112|216:83|263:112,1,188.999994232178,0|0,1:0|0:0,0:0:0:0:
275,38,118933,6,0,B|257:60|257:60|262:112,1,80.9999975280763,8|0,0:0|0:0,0:0:0:0:
422,133,119107,1,0,0:0:0:0:
422,133,119195,2,0,B|441:111|441:111|436:58,1,80.9999975280763,2|0,0:0|0:0,0:0:0:0:
251,246,119456,5,0,1:0:0:0:
486,247,119631,2,0,B|383:199|352:293|251:246,1,242.999992584229,8|0,0:0|0:0,0:0:0:0:
181,276,119980,6,0,B|169:279|170:294|170:294|148:261|151:218|188:191,1,135,0|0,1:0|0:0,0:0:0:0:
251,246,120328,6,0,P|256:285|240:322,1,80.9999975280763,8|0,0:0|0:0,0:0:0:0:
181,367,120503,1,0,0:0:0:0:
23,228,120590,6,0,P|110:229|170:294,1,180,2|0,0:0|0:0,0:0:0:0:
95,321,120852,2,0,P|85:304|55:298,1,45,0|0,1:0|0:0,0:0:0:0:
26,104,121026,1,8,0:0:0:0:
26,104,121200,2,0,P|31:125|21:144,1,45,0|0,0:0|0:0,0:0:0:0:
169,294,121375,6,0,P|251:251|338:280,1,188.999994232178,0|0,1:0|0:0,0:0:0:0:
415,311,121724,6,0,P|419:338|392:338,1,62.9999980773926,8|0,0:0|0:0,0:0:0:0:
416,80,121898,1,0,0:0:0:0:
417,73,121985,1,2,0:0:0:0:
418,66,122073,6,0,B|398:14|398:14|462:-1|462:-1|441:173,1,297.000009063721,0|0,0:0|0:0,0:0:0:0:
395,231,122421,6,0,B|365:201|365:201|368:162,1,80.9999975280763,8|0,0:0|0:0,0:0:0:0:
290,27,122596,2,0,B|329:41|329:41|342:78,1,80.9999975280763,0|0,0:0|0:0,0:0:0:0:
87,238,122770,6,0,B|72:265|97:277|97:277|121:241|176:228|214:257,1,180,0|0,1:0|0:0,0:0:0:0:
292,344,123032,2,0,B|254:315|199:328|175:364|175:364|150:352|165:325,1,180,0|0,1:0|0:0,0:0:0:0:
95,158,123293,5,8,0:0:0:0:
95,158,123381,2,0,L|99:80,4,46.1250007038117,0|0|0|0|0,0:0|0:0|0:0|0:0|0:0,0:0:0:0:
87,237,123642,2,0,B|63:244|63:244|44:234,1,47.2499985580445,0|0,1:0|0:0,0:0:0:0:
175,60,123817,2,0,L|165:226,1,166.499999364853,8|0,0:0|0:0,0:0:0:0:
163,251,124078,1,0,0:0:0:0:
69,43,124166,6,0,B|207:21|207:21|250:73,1,195.750005973816,0|0,1:0|0:0,0:0:0:0:
176,100,124514,6,0,B|89:114,1,83.2499996824265,8|0,0:0|0:0,0:0:0:0:
92,276,124689,1,0,0:0:0:0:
80,264,124776,2,0,B|166:250,1,83.2499996824265,2|0,0:0|0:0,0:0:0:0:
251,149,124950,1,0,0:0:0:0:
263,161,125038,6,0,B|159:176,1,83.2499996824265,0|0,1:0|0:0,0:0:0:0:
16,199,125212,2,0,B|263:161,1,249.749999047279,8|0,0:0|0:0,0:0:0:0:
387,127,125561,6,0,B|344:137|317:110|317:110|344:137|335:187,1,148.50000453186,0|0,1:0|0:0,0:0:0:0:
184,164,125910,6,0,P|222:148|262:161,1,85.4999977169037,8|0,0:0|0:0,0:0:0:0:
367,55,126084,1,0,0:0:0:0:
409,238,126171,6,0,B|384:261|384:261|341:228|344:153|388:126,1,188.999994232178,2|0,0:0|0:0,0:0:0:0:
468,190,126433,2,0,P|481:214|485:241,1,49.5000015106202,0|0,1:0|0:0,0:0:0:0:
352,328,126607,1,8,0:0:0:0:
352,328,126782,2,0,P|377:336|404:334,1,49.5000015106202,0|0,0:0|0:0,0:0:0:0:
455,100,126956,6,0,P|426:189|333:177,1,202.500007724762,0|0,1:0|0:0,0:0:0:0:
387,127,127305,6,0,L|376:42,1,85.4999977169037,8|0,0:0|0:0,0:0:0:0:
273,34,127480,2,0,L|283:119,1,85.4999977169037,0|2,0:0|0:0,0:0:0:0:
319,346,127654,54,0,B|321:318|321:318|314:314|314:314|322:310|322:310|329:227|329:227|338:223|338:223|330:219|330:219|334:178,1,188.999994232178,0|0,0:0|1:0,0:0:0:0:
156,95,127916,1,0,0:0:0:0:
190,162,128003,6,0,L|181:259,1,85.4999977169037,8|0,0:0|0:0,0:0:0:0:
253,272,128177,2,0,B|261:187,1,85.4999977169037,0|0,0:0|0:0,0:0:0:0:
52,111,128352,6,0,B|77:76|123:71|156:95|156:95|142:102|127:121,1,155.250002961159,0|0,1:0|0:0,0:0:0:0:
190,162,128700,6,0,P|156:189|112:193,1,87.7500003347397,8|0,0:0|0:0,0:0:0:0:
52,111,128875,1,0,0:0:0:0:
11,328,128962,6,0,P|86:272|178:292,1,193.500002952576,2|0,0:0|0:0,0:0:0:0:
252,293,129224,2,0,P|268:308|248:317,1,51.7500009870529,0|0,1:0|0:0,0:0:0:0:
53,238,129398,6,0,P|37:195|51:150,1,90,8|0,0:0|0:0,0:0:0:0:
261,123,129573,2,0,P|290:88|336:77,1,90,0|0,0:0|0:0,0:0:0:0:
113,192,129747,6,0,B|200:136|222:247|309:192,1,209.250001596451,0|0,1:0|0:0,0:0:0:0:
459,161,130096,6,0,B|425:137|425:137|380:144,1,87.7500003347397,8|0,0:0|0:0,0:0:0:0:
356,314,130270,1,0,0:0:0:0:
343,326,130357,2,0,B|377:350|377:350|422:341,1,87.7500003347397,2|0,0:0|0:0,0:0:0:0:
292,270,130532,1,0,0:0:0:0:
280,282,130619,6,0,P|267:324|280:366,1,87.7500003347397,0|0,1:0|0:0,0:0:0:0:
406,246,130793,2,0,B|342:202|278:246|278:246|214:290|150:246,1,263.250001004219,8|0,0:0|0:0,0:0:0:0:
4,302,131142,6,0,B|26:248|26:248|81:239|81:239|62:284,1,161.999995056153,0|0,1:0|0:0,0:0:0:0:
160,252,131491,6,0,B|120:343,1,90,8|0,0:0|0:0,0:0:0:0:
52,361,131666,1,0,0:0:0:0:
0,135,131753,6,0,B|29:131|29:131|49:139|49:139|87:133|87:133|83:169|83:169|91:216|91:216|81:238,1,198.000006042481,2|0,0:0|0:0,0:0:0:0:
170,228,132014,2,0,L|160:174,1,53.9999983520508,0|0,1:0|0:0,0:0:0:0:
288,117,132189,1,8,0:0:0:0:
288,117,132363,2,0,P|272:150|278:170,1,53.9999983520508,0|0,0:0|0:0,0:0:0:0:
286,364,132538,6,0,P|318:313|429:347,1,180,0|0,1:0|0:0,0:0:0:0:
391,317,132799,2,0,P|348:309|311:333,1,90,8|0,0:0|0:0,0:0:0:0:
53,39,133061,6,0,P|107:41|146:80,1,112.5,0|0,0:1|0:0,0:0:0:0:
206,35,133235,6,0,P|218:61|220:91,3,60,0|0|0|0,0:0|0:0|0:0|0:0,0:0:0:0:
282,136,133468,6,0,P|266:152|246:163,3,45.0000017166138,0|0|0|0,0:0|0:0|0:0|0:0,0:0:0:0:
221,237,133700,6,0,L|131:230,1,90,0|0,0:0|0:0,0:0:0:0:
74,341,133933,6,0,B|116:309|131:231|131:231|137:314|199:351,1,270,0|0,1:0|0:0,0:0:0:0:
315,196,134282,6,0,L|308:105,1,90,8|0,0:0|0:0,0:0:0:0:
384,270,134543,6,0,B|308:300|308:300|239:257,1,161.999995056153,2|0,0:0|0:0,0:0:0:0:
239,258,134805,1,0,1:0:0:0:
384,270,134980,6,0,L|389:369,1,90,8|0,0:0|0:0,0:0:0:0:
444,155,135241,1,0,0:0:0:0:
444,155,135328,6,0,B|510:120|510:120|496:253,1,202.500007724762,0|0,1:0|0:0,0:0:0:0:
389,360,135677,6,0,L|384:270,1,90,8|0,0:0|0:0,0:0:0:0:
291,146,135939,1,0,0:0:0:0:
291,146,136026,2,0,B|282:89|391:115|366:156|385:222|315:240|273:229,1,242.999992584229,0|0,0:0|0:0,0:0:0:0:
215,145,136375,6,0,L|269:142,1,53.9999983520508,8|0,0:0|0:0,0:0:0:0:
378,133,136549,1,0,3:0:0:0:
392,133,136636,1,0,3:0:0:0:
342,25,136724,6,0,B|274:23|274:23|218:59|218:59|142:55,1,202.500007724762,0|0,1:0|0:0,0:0:0:0:
41,14,137073,6,0,L|48:121,1,90,8|0,0:0|0:0,0:0:0:0:
40,250,137334,6,0,B|9:175|9:175|48:99,1,161.999995056153,2|0,0:0|0:0,0:0:0:0:
45,103,137596,1,0,1:0:0:0:
108,284,137770,6,0,L|14:280,1,90,8|0,0:0|0:0,0:0:0:0:
106,184,138032,1,0,0:0:0:0:
106,184,138119,2,0,B|214:174|181:258|298:242,1,202.500007724762,0|0,1:0|0:0,0:0:0:0:
346,137,138468,6,0,P|308:133|257:160,1,90,8|0,0:0|0:0,0:0:0:0:
320,308,138730,6,0,L|324:235,1,56.25,2|0,0:0|0:0,0:0:0:0:
325,31,138904,1,0,0:0:0:0:
335,48,138991,2,0,L|331:104,1,56.25,0|0,1:0|0:0,0:0:0:0:
409,180,139166,6,0,B|406:153|406:153|411:122,1,45,8|0,0:0|0:0,0:0:0:0:
229,59,139340,6,0,B|233:98|233:98|219:148,1,72,0|0,0:0|0:0,0:0:0:0:
385,258,139514,6,0,B|314:212|314:212|226:262|226:262|260:269,1,202.500007724762,0|0,1:0|0:0,0:0:0:0:
383,347,139863,6,0,L|385:230,1,90,8|0,0:0|0:0,0:0:0:0:
488,157,140125,6,0,B|524:229|524:229|503:324,1,161.999995056153,2|0,0:0|0:0,0:0:0:0:
506,308,140386,1,0,1:0:0:0:
212,339,140561,6,0,P|256:324|305:340,1,90,8|0,0:0|0:0,0:0:0:0:
205,350,140823,1,0,0:0:0:0:
200,359,140910,2,0,B|189:219|189:219|216:242|261:246,1,202.500007724762,0|0,1:0|0:0,0:0:0:0:
84,275,141259,6,0,L|177:277,1,90,8|0,0:0|0:0,0:0:0:0:
254,153,141520,1,2,0:0:0:0:
254,153,141607,2,0,P|211:130|168:131,1,80.9999975280763,0|0,0:0|0:0,0:0:0:0:
329,200,141782,6,0,P|340:165|323:111,1,72,0|0,1:0|0:0,0:0:0:0:
101,90,141956,2,0,P|95:125|106:159,1,72,8|0,0:0|0:0,0:0:0:0:
192,218,142131,1,0,0:0:0:0:
192,218,142218,1,0,0:0:0:0:
219,45,142305,6,0,B|254:4|254:4|253:171,1,202.500007724762,0|0,1:0|0:0,0:0:0:0:
80,119,142654,6,0,L|203:112,1,90,8|0,0:0|0:0,0:0:0:0:
329,200,142916,6,0,P|264:244|191:217,1,161.999995056153,2|0,0:0|0:0,0:0:0:0:
191,217,143177,1,0,1:0:0:0:
271,348,143352,6,0,L|274:257,1,90,8|0,0:0|0:0,0:0:0:0:
422,154,143613,1,0,0:0:0:0:
422,154,143700,2,0,B|427:221|427:221|397:281|397:281|403:359,1,202.500007724762,0|0,1:0|0:0,0:0:0:0:
247,170,144049,6,0,B|294:167|294:167|353:208,1,90,8|0,0:0|0:0,0:0:0:0:
502,307,144311,1,2,0:0:0:0:
502,307,144398,2,0,L|504:242,1,62.9999980773926,0|0,0:0|0:0,0:0:0:0:
423,105,144573,6,0,L|424:167,1,36,0|0,1:0|0:0,0:0:0:0:
402,358,144747,6,0,L|404:293,1,45,8|0,0:0|0:0,0:0:0:0:
312,68,144921,1,0,0:0:0:0:
312,68,145009,1,0,0:0:0:0:
312,68,145096,6,0,B|346:124|346:124|329:191,1,135.000005149842,0|0,1:0|0:0,0:0:0:0:
168,209,145357,2,0,B|133:152|133:152|150:85,1,135.000005149842,0|0,1:0|0:0,0:0:0:0:
240,141,145619,6,0,L|244:185,1,45,8|0,0:0|0:0,0:0:0:0:
264,355,145793,6,0,L|253:261,1,80.9999975280763,0|0,0:0|0:0,0:0:0:0:
240,132,145968,1,0,1:0:0:0:
131,293,146142,6,0,L|241:297,1,90,8|0,0:0|0:0,0:0:0:0:
366,261,146404,1,0,0:0:0:0:
366,261,146491,6,0,P|282:222|221:304,1,202.500007724762,0|0,1:0|0:0,0:0:0:0:
63,243,146840,6,0,P|106:257|133:308,1,90,8|0,0:0|0:0,0:0:0:0:
295,379,147102,1,2,0:0:0:0:
295,379,147189,6,0,L|299:280,1,80.9999975280763,0|0,0:0|0:0,0:0:0:0:
167,374,147363,6,0,P|198:352|210:317,1,72,0|0,1:0|0:0,0:0:0:0:
422,380,147538,2,0,P|389:359|376:325,1,72,8|0,0:0|0:0,0:0:0:0:
304,189,147712,1,0,0:0:0:0:
303,207,147799,1,0,0:0:0:0:
295,379,147886,6,0,B|297:334|297:334|312:301|312:301|288:264|288:264|301:234|301:234|304:189,1,202.500007724762,0|0,1:0|0:0,0:0:0:0:
447,218,148235,6,0,L|450:321,1,90,8|0,0:0|0:0,0:0:0:0:
304,189,148497,6,0,B|386:172|386:172|451:222,1,161.999995056153,2|0,0:0|0:0,0:0:0:0:
448,219,148759,1,0,1:0:0:0:
388,84,148933,6,0,L|383:177,1,90,8|0,0:0|0:0,0:0:0:0:
428,0,149195,1,0,0:0:0:0:
428,0,149282,6,0,B|310:-15|353:55|233:34,1,202.500007724762,0|0,1:0|0:0,0:0:0:0:
141,92,149631,6,0,L|135:-21,1,90,8|0,0:0|0:0,0:0:0:0:
150,107,149892,1,2,0:0:0:0:
157,118,149980,6,0,P|157:158|153:205,1,62.9999980773926,0|0,0:0|0:0,0:0:0:0:
77,289,150154,1,0,1:0:0:0:
296,221,150328,6,0,B|259:214|259:214|220:228,1,72,8|0,0:0|0:0,0:0:0:0:
305,379,150503,2,0,B|272:391|272:391|235:384,1,72,0|0,0:0|0:0,0:0:0:0:
77,289,150677,6,0,B|148:284|148:284|207:308|207:308|278:302,1,202.500007724762,0|0,1:0|0:0,0:0:0:0:
364,302,151026,6,0,L|267:302,1,90,8|0,0:0|0:0,0:0:0:0:
5,233,151288,6,0,B|80:202|80:202|164:252,1,161.999995056153,2|0,0:0|0:0,0:0:0:0:
149,243,151549,1,0,1:0:0:0:
74,378,151724,6,0,L|77:284,1,90,8|0,0:0|0:0,0:0:0:0:
31,81,151985,1,0,0:0:0:0:
31,81,152073,6,0,B|71:106|84:167|84:167|103:110|151:89,1,202.500007724762,0|0,1:0|0:0,0:0:0:0:
141,2,152421,6,0,L|143:91,1,90,8|0,0:0|0:0,0:0:0:0:
314,45,152683,1,2,0:0:0:0:
314,45,152770,2,0,P|260:43|227:72,1,80.9999975280763,0|0,0:0|0:0,0:0:0:0:
177,178,152945,6,0,L|267:182,1,72,0|0,1:0|0:0,0:0:0:0:
475,192,153119,2,0,L|385:188,1,72,8|0,0:0|0:0,0:0:0:0:
327,189,153293,1,0,0:0:0:0:
328,174,153381,1,0,0:0:0:0:
426,271,153468,6,0,B|476:322|476:322|474:191,1,202.500007724762,0|0,1:0|1:0,0:0:0:0:
450,90,153817,6,0,L|455:186,1,90,8|0,0:0|0:0,0:0:0:0:
308,341,154078,6,0,P|352:272|442:280,1,161.999995056153,2|0,0:0|0:0,0:0:0:0:
401,357,154340,1,0,1:0:0:0:
393,344,154427,1,0,1:0:0:0:
218,339,154514,6,0,L|325:341,1,90,8|0,0:0|0:0,0:0:0:0:
158,290,154776,1,0,0:0:0:0:
148,283,154863,6,0,P|137:327|136:366,2,67.5000025749208,0|0|0,1:0|0:0|0:0,0:0:0:0:
60,204,155125,2,0,P|71:248|72:287,2,67.5000025749208,0|8|0,1:0|0:0|0:0,0:0:0:0:
164,111,155386,1,0,0:0:0:0:
164,111,155474,2,0,P|153:155|152:194,1,67.5000025749208,8|0,0:0|0:0,0:0:0:0:
49,22,155648,1,0,0:0:0:0:
49,22,155735,6,0,P|60:59|63:122,1,90,8|0,0:0|0:0,0:0:0:0:
164,111,155997,2,0,L|167:38,1,45,2|0,0:0|0:0,0:0:0:0:
64,208,156171,1,0,0:0:0:0:
64,208,156259,6,0,B|112:212|112:212|146:201|146:201|216:208,1,135,0|0,1:0|0:0,0:0:0:0:
156,360,156695,1,0,0:0:0:0:
156,360,156782,2,0,B|148:328|148:328|160:284,1,67.5000025749208,8|0,0:0|0:0,0:0:0:0:
364,220,156956,6,0,B|344:184|344:184|244:248|324:380,1,180,0|0,0:0|1:0,0:0:0:0:
444,372,157218,1,0,0:0:0:0:
456,360,157305,2,0,L|468:252,1,90,8|0,0:0|0:0,0:0:0:0:
187,116,157480,2,0,L|199:224,1,90,0|0,0:0|0:0,0:0:0:0:
480,152,157654,6,0,B|412:140|412:140|384:96|384:96|256:72,1,202.500007724762,0|0,1:0|1:0,0:0:0:0:
48,224,158177,2,0,L|144:208,1,67.5000025749208,8|0,0:0|0:0,0:0:0:0:
240,356,158352,6,0,B|188:328|188:328|320:300,1,180,0|0,0:0|1:0,0:0:0:0:
504,348,158613,1,0,0:0:0:0:
484,364,158700,6,0,P|440:384|380:372,1,90,8|0,0:0|0:0,0:0:0:0:
368,192,158875,2,0,P|412:172|472:184,1,90,0|0,0:0|0:0,0:0:0:0:
306,302,159049,6,0,B|178:342|240:228|62:290,1,202.500007724762,0|0,1:0|1:0,0:0:0:0:
64,124,159485,1,0,0:0:0:0:
68,104,159573,2,0,P|92:176|88:208,1,67.5000025749208,8|0,0:0|0:0,0:0:0:0:
148,364,159747,6,0,P|168:248|224:180,1,180,0|0,0:0|1:0,0:0:0:0:
304,120,160009,1,0,0:0:0:0:
324,112,160096,2,0,L|424:120,1,90,8|0,0:0|0:0,0:0:0:0:
408,368,160270,2,0,L|318:360,1,90,0|0,0:0|0:0,0:0:0:0:
272,236,160445,6,0,B|343:241|343:241|372:233|372:233|399:246|399:246|479:251,1,202.500007724762,0|0,1:0|0:0,0:0:0:0:
364,116,160793,6,0,P|347:82|324:112,1,90,0|0,0:0|0:0,0:0:0:0:
184,272,160968,2,0,B|168:232|168:232|192:180,1,90,8|0,0:0|0:0,0:0:0:0:
360,336,161142,6,0,L|244:360,1,90,0|0,0:0|0:0,0:0:0:0:
116,60,161317,2,0,L|204:78,1,90,0|0,1:0|0:0,0:0:0:0:
434,132,161491,2,0,B|470:196|470:196|306:164|306:164|373:108,1,315,8|0,0:0|0:0,0:0:0:0:
416,52,161840,6,0,L|372:272,1,202.500007724762,0|0,1:0|0:0,0:0:0:0:
40,308,162276,1,0,0:0:0:0:
32,320,162363,2,0,L|108:312,1,67.5000025749208,8|0,0:0|0:0,0:0:0:0:
255,317,162538,6,0,B|232:333|224:365|224:365|211:216,1,180,0|0,0:0|1:0,0:0:0:0:
136,78,162799,1,0,0:0:0:0:
136,78,162886,2,0,P|98:118|148:193,1,90,8|0,0:0|0:0,0:0:0:0:
306,133,163061,2,0,P|291:79|201:84,1,90,0|0,0:0|0:0,0:0:0:0:
122,238,163235,6,0,B|175:237|208:189|208:189|246:233|306:222,1,202.500007724762,0|0,1:0|1:0,0:0:0:0:
420,364,163759,2,0,L|429:267,1,67.5000025749208,8|0,0:0|0:0,0:0:0:0:
414,197,163933,6,0,B|434:188|434:188|455:200,1,45
464,23,164107,2,0,B|444:32|444:32|423:20,1,45,0|0,0:0|0:0,0:0:0:0:
282,99,164282,6,0,L|401:106,1,90,8|0,0:0|0:0,0:0:0:0:
479,117,164543,1,0,0:0:0:0:
479,117,164631,6,0,B|411:129|411:129|383:173|383:173|255:195,1,202.500007724762,0|0,1:0|1:0,0:0:0:0:
180,345,165067,1,0,0:0:0:0:
188,356,165154,2,0,B|200:374|200:374|220:275,1,67.5000025749208,8|0,0:0|0:0,0:0:0:0:
65,126,165328,6,0,B|109:138|124:189|124:189|114:136|165:85,1,180,0|0,0:0|1:0,0:0:0:0:
246,182,165590,1,0,0:0:0:0:
246,182,165677,2,0,P|207:181|239:155,1,90,8|0,0:0|0:0,0:0:0:0:
5,230,165852,2,0,P|44:229|12:203,1,90,0|0,0:0|0:0,0:0:0:0:
143,280,166026,6,0,B|210:285|210:285|242:318|242:318|368:320,1,180,0|0,1:0|1:0,0:0:0:0:
442,260,166288,1,0,0:0:0:0:
473,339,166375,2,0,B|432:381|432:381|443:255,1,180,8|0,0:0|0:0,0:0:0:0:
445,159,166636,1,0,0:0:0:0:
403,166,166724,2,0,P|343:231|343:259,1,90,0|0,0:0|3:0,0:0:0:0:
231,45,166898,2,0,B|295:51|295:51|319:43|319:43|339:56|339:56|404:65,1,180,8|0,0:0|3:0,0:0:0:0:
239,191,167160,1,0,0:0:0:0:
239,191,167247,2,0,B|225:233|225:233|251:293,1,90,0|0,0:0|0:0,0:0:0:0:
291,384,167421,6,0,P|331:311|241:274,1,202.500007724762,0|0,1:0|1:0,0:0:0:0:
82,314,167857,1,0,0:0:0:0:
82,314,167945,2,0,L|185:291,1,67.5000025749208,8|0,0:0|0:0,0:0:0:0:
344,177,168119,6,0,P|332:91|295:68,1,90,0|0,0:0|0:0,0:0:0:0:
110,121,168293,2,0,P|122:207|159:230,1,90,0|0,1:0|0:0,0:0:0:0:
270,328,168468,2,0,P|363:316|463:283,1,180,8|0,0:0|0:0,0:0:0:0:
471,116,168730,1,0,0:0:0:0:
471,116,168817,6,0,B|432:146|376:127|376:127|342:176|342:176|277:139|213:204,1,270,0|0,1:0|1:0,0:0:0:0:
178,365,169340,2,0,P|173:308|160:272,1,90,8|0,0:0|0:0,0:0:0:0:
65,216,169514,6,0,B|36:259|36:259|197:283,1,180,0|0,0:0|1:0,0:0:0:0:
385,310,169863,2,0,B|409:272|409:272|394:214,1,90,8|0,0:0|0:0,0:0:0:0:
344,42,170038,1,0,0:0:0:0:
344,42,170125,1,0,0:0:0:0:
344,42,170212,6,0,B|289:60|289:60|306:142|306:142|471:105,1,270,0|0,1:0|1:0,0:0:0:0:
209,365,170648,1,0,0:0:0:0:
203,346,170735,2,0,L|222:249,1,90,8|0,0:0|0:0,0:0:0:0:
83,167,170910,6,0,B|82:196|82:196|158:186,1,90,0|0,0:0|0:0,0:0:0:0:
382,277,171084,2,0,B|383:306|383:306|307:296,1,90,0|0,1:0|0:0,0:0:0:0:
197,99,171259,2,0,B|238:128|239:175|239:175|257:131|332:105,1,180,8|0,0:0|0:0,0:0:0:0:
470,77,171607,6,0,B|386:48|418:125|334:114|334:114|394:118|429:163|417:212,1,270.000010299683,0|0,1:0|0:0,0:0:0:0:
336,204,172000,6,0,B|386:212|386:212|408:239|408:239|457:246,1,135,0|8,0:0|0:0,0:0:0:0:
152,384,172305,2,0,B|150:352|150:352|142:334|142:334|139:285,1,90,0|0,0:0|0:0,0:0:0:0:
117,45,172480,1,0,1:0:0:0:
0,202,172654,2,0,B|44:186|84:214|84:214|130:169|130:169|183:204|183:204|214:162|275:173,1,315,8|0,0:0|0:0,0:0:0:0:
344,148,173003,6,0,P|347:187|335:222,1,67.5,0|0,1:0|1:0,0:0:0:0:
299,281,173352,1,0,0:0:0:0:
302,292,173439,1,0,0:0:0:0:
306,305,173526,2,0,L|311:330,1,22.5,8|0,0:0|0:0,0:0:0:0:
201,384,173700,6,0,B|169:351|169:351|183:261,1,135,0|0,1:0|1:0,0:0:0:0:
196,158,174049,1,0,0:0:0:0:
171,163,174136,1,0,0:0:0:0:
147,168,174224,2,0,L|99:165,1,45,8|0,0:0|0:0,0:0:0:0:
317,39,174398,6,0,B|269:0|269:0|290:155,1,202.500007724762,0|0,1:0|1:0,0:0:0:0:
390,205,174747,1,0,0:0:0:0:
436,199,174834,1,0,0:0:0:0:
480,188,174921,2,0,P|481:145|466:115,1,67.5000025749208,8|0,0:0|0:0,0:0:0:0:
201,254,175096,6,0,B|302:265|302:265|334:313|334:313|453:321,1,270,0|0,1:0|1:0,0:0:0:0:
243,367,175445,1,0,0:0:0:0:
188,361,175532,1,0,0:0:0:0:
133,354,175619,2,0,L|38:341,1,90,8|0,0:0|0:0,0:0:0:0:
1,103,175793,6,0,B|92:120|94:223|94:223|130:126|261:139,1,337.5,0|0,1:0|1:0,0:0:0:0:
307,25,176142,1,0,0:0:0:0:
362,54,176230,1,0,0:0:0:0:
398,103,176317,2,0,P|420:160|413:226,1,112.5,8|0,0:0|0:0,0:0:0:0:
270,331,176491,6,0,B|139:228|220:93|220:93|364:135|303:251,1,450,0|0,1:0|1:0,0:0:0:0:
135,359,176840,1,0,0:0:0:0:
135,359,176927,1,0,0:0:0:0:
135,359,177014,2,0,P|88:271|86:204,1,150,8|0,0:0|0:0,0:0:0:0:
466,305,177189,6,0,L|482:310,16,11.25,0|0|0|0|0|0|0|0|0|0|0|0|0|0|0|0|0,0:0|0:0|0:0|0:0|0:0|0:0|0:0|0:0|0:0|0:0|0:0|0:0|0:0|0:0|0:0|0:0|0:0,0:0:0:0:
464,304,177930,6,0,L|372:314,1,90,0|0,0:0|0:0,0:0:0:0:
306,343,178323,6,0,B|300:327|300:327|302:292,4,33.7500012874604,0|0|0|0|0,0:0|0:0|0:0|0:0|0:0,0:0:0:0:
275,150,178584,6,0,L|280:245,1,67.5000025749208,0|0,1:0|0:0,0:0:0:0:
285,296,178759,2,0,L|290:391,1,76.5000014591217,0|0,0:0|0:0,0:0:0:0:
82,324,178933,6,0,P|62:263|115:199,1,125.999996154785,8|0,0:0|0:0,0:0:0:0:
119,137,179195,2,0,P|153:153|167:181,1,62.9999980773926,2|0,0:0|0:0,0:0:0:0:
145,272,179369,1,0,0:0:0:0:
145,272,179456,6,0,L|224:260,1,67.5000025749208,0|0,1:0|0:0,0:0:0:0:
278,217,179718,2,0,L|357:229,1,67.5000025749208,0|0,1:0|0:0,0:0:0:0:
448,109,179980,6,0,B|463:58|463:58|520:136|470:203,1,202.500007724762,0|0,1:0|0:0,0:0:0:0:
278,217,180328,2,0,P|262:162|292:111,1,112.5,8|0,0:0|0:0,0:0:0:0:
366,64,180590,2,0,L|360:2,2,56.25,2|0|0,0:0|0:0|0:0,0:0:0:0:
383,234,180852,1,0,1:0:0:0:
286,115,181026,6,0,B|234:44|84:70|153:188|203:110,1,229.500004377365,8|0,0:0|0:0,0:0:0:0:
66,61,181375,6,0,B|51:10|51:10|-6:88|44:155,1,202.500007724762,0|0,1:0|0:0,0:0:0:0:
145,272,181724,2,0,L|151:210,1,56.25,8|0,0:0|0:0,0:0:0:0:
142,54,181898,5,0,0:0:0:0:
201,10,181985,2,0,B|218:40|218:40|208:90,2,67.5000025749208,2|0|0,0:0|0:0|0:0,0:0:0:0:
35,166,182247,1,0,1:0:0:0:
251,223,182421,2,0,L|138:215,1,101.250003862381,8|0,0:0|0:0,0:0:0:0:
0,303,182770,6,0,B|109:285|57:376|194:348,1,202.500007724762,0|0,1:0|0:0,0:0:0:0:
267,209,183119,2,0,B|295:262|295:262|268:325,1,112.5,8|0,0:0|0:0,0:0:0:0:
101,293,183381,5,2,0:0:0:0:
116,312,183468,2,0,L|126:169,1,125.999996154785,0|0,0:0|1:0,0:0:0:0:
66,61,183817,2,0,P|120:81|181:52,1,112.5,8|0,0:0|0:0,0:0:0:0:
182,52,184078,1,0,0:0:0:0:
196,37,184166,6,0,P|264:10|331:115,1,202.500007724762,0|0,1:0|0:0,0:0:0:0:
438,239,184514,2,0,L|351:230,1,56.25,8|0,0:0|0:0,0:0:0:0:
209,210,184689,5,0,0:0:0:0:
122,201,184776,2,0,L|212:211,2,67.5000025749208,2|0|0,0:0|0:0|0:0,0:0:0:0:
42,191,185038,1,0,1:0:0:0:
288,174,185212,2,0,L|277:298,1,101.250003862381,8|0,0:0|0:0,0:0:0:0:
416,323,185561,6,0,B|303:313|355:404|218:376,1,202.500007724762,0|0,1:0|0:0,0:0:0:0:
150,215,185910,2,0,P|132:279|160:324,1,112.5,8|0,0:0|0:0,0:0:0:0:
279,274,186171,5,2,0:0:0:0:
294,292,186259,2,0,L|282:225,1,45,0|0,0:0|0:0,0:0:0:0:
256,88,186433,1,0,1:0:0:0:
487,147,186607,2,0,L|392:154,1,90,8|0,0:0|0:0,0:0:0:0:
316,159,186869,1,0,0:0:0:0:
316,159,186956,6,0,B|334:214|334:214|380:135|332:61,1,202.500007724762,0|0,1:0|0:0,0:0:0:0:
176,8,187305,2,0,L|169:97,1,56.25,8|0,0:0|0:0,0:0:0:0:
150,214,187480,5,0,0:0:0:0:
225,184,187567,2,0,B|236:218|236:218|209:275,2,67.5000025749208,2|0|0,0:0|0:0|0:0,0:0:0:0:
92,126,187828,1,0,1:0:0:0:
159,296,188003,2,0,L|58:282,1,101.250003862381,8|0,0:0|0:0,0:0:0:0:
0,104,188352,6,0,B|78:96|78:96|94:104|94:104|215:88,1,202.500007724762,0|0,1:0|0:0,0:0:0:0:
345,20,188700,2,0,L|337:116,2,56.25,8|0|0,0:0|0:0|0:0,0:0:0:0:
437,316,188962,5,2,0:0:0:0:
485,230,189049,2,0,L|346:252,1,125.999996154785,0|0,0:0|1:0,0:0:0:0:
186,384,189398,6,0,B|154:338|154:338|191:243,1,112.5,8|0,0:0|0:0,0:0:0:0:
245,170,189660,1,0,0:0:0:0:
242,152,189747,6,0,L|263:327,1,153.000002918243,0|0,1:0|0:0,0:0:0:0:
460,366,190009,2,0,B|498:344|498:344|365:327,1,153.000002918243,0|0,1:0|0:0,0:0:0:0:
159,198,190270,6,0,P|170:91|245:170,1,270,8|0,0:0|0:0,0:0:0:0:
121,328,190619,6,0,L|26:318,1,67.5000025749208,0|0,1:0|0:0,0:0:0:0:
44,335,190881,2,0,L|111:342,1,67.5000025749208,0|0,1:0|0:0,0:0:0:0:
289,215,191142,6,0,B|268:165|268:165|214:238|266:313,1,202.500007724762,0|0,1:0|0:0,0:0:0:0:
460,366,191491,2,0,L|446:271,1,58.4999973220826,8|0,0:0|0:0,0:0:0:0:
448,156,191666,5,0,0:0:0:0:
465,141,191753,2,0,B|403:125|403:125|352:168,1,116.999994644165,2|0,0:0|0:0,0:0:0:0:
287,291,192014,2,0,L|289:197,1,76.5000014591217,0|0,1:0|0:0,0:0:0:0:
240,55,192189,6,0,B|197:89|197:89|327:70,1,153.000002918243,8|0,0:0|0:0,0:0:0:0:
464,48,192450,1,0,0:0:0:0:
487,42,192538,6,0,B|423:54|423:54|384:45|384:45|352:67|352:67|270:78,1,202.500007724762,0|0,1:0|0:0,0:0:0:0:
110,43,192886,2,0,L|125:128,1,56.25,8|0,0:0|0:0,0:0:0:0:
222,260,193061,5,0,0:0:0:0:
174,323,193148,2,0,L|188:176,1,135.000005149842,2|0,0:0|0:0,0:0:0:0:
197,89,193410,1,0,1:0:0:0:
5,159,193584,6,0,P|46:192|102:181,1,101.250003862381,8|0,0:0|0:0,0:0:0:0:
294,89,193933,6,0,B|337:103|337:103|262:161|188:80,1,202.500007724762,0|0,1:0|0:0,0:0:0:0:
82,16,194282,2,0,L|74:99,1,56.25,8|0,0:0|0:0,0:0:0:0:
86,256,194456,5,0,0:0:0:0:
99,274,194543,2,0,L|24:259,2,62.9999980773926,2|0|0,0:0|0:0|0:0,0:0:0:0:
290,310,194805,1,0,1:0:0:0:
196,349,194980,6,0,P|190:294|212:232,1,112.5,8|0,0:0|0:0,0:0:0:0:
217,227,195241,1,0,0:0:0:0:
230,212,195328,6,0,P|307:207|408:318,1,202.500007724762,0|0,1:0|0:0,0:0:0:0:
474,367,195677,2,0,L|488:275,1,56.25,8|0,0:0|0:0,0:0:0:0:
502,152,195852,5,0,0:0:0:0:
428,108,195939,2,0,B|412:144|412:144|426:191,2,67.5000025749208,2|0|0,0:0|0:0|0:0,0:0:0:0:
490,283,196200,1,0,1:0:0:0:
342,119,196375,2,0,L|235:129,1,101.250003862381,8|0,0:0|0:0,0:0:0:0:
196,349,196724,6,0,B|159:306|159:306|316:334,1,202.500007724762,0|0,1:0|0:0,0:0:0:0:
397,248,197073,2,0,L|314:253,2,56.25,8|0|0,0:0|0:0|0:0,0:0:0:0:
493,65,197334,5,2,0:0:0:0:
492,44,197421,2,0,P|504:92|497:141,1,62.9999980773926,0|0,0:0|0:0,0:0:0:0:
485,192,197596,1,0,1:0:0:0:
241,128,197770,6,0,P|290:102|252:192,1,229.500004377365,8|0,0:0|0:0,0:0:0:0:
30,168,198119,6,0,B|89:167|116:117|116:117|130:179|203:201,1,216,0|0,1:0|0:0,0:0:0:0:
90,295,198468,2,0,L|101:221,2,62.9999980773926,8|0|0,0:0|0:0|0:0,0:0:0:0:
302,331,198730,5,2,0:0:0:0:
317,348,198817,2,0,L|203:362,1,72,0|0,0:0|0:0,0:0:0:0:
115,374,198991,2,0,L|43:382,1,72,0|0,1:0|0:0,0:0:0:0:
173,171,199166,6,0,B|191:115|191:115|264:196|200:298,1,229.500004377365,8|0,0:0|0:0,0:0:0:0:
498,272,199514,6,0,B|377:263|433:355|298:330,1,216,0|0,1:0|0:0,0:0:0:0:
350,107,199863,2,0,P|365:141|365:203,1,62.9999980773926,8|0,0:0|0:0,0:0:0:0:
322,245,200038,1,0,0:0:0:0:
341,256,200125,6,0,L|245:248,1,76.5000014591217,2|0,0:0|0:0,0:0:0:0:
80,221,200299,1,0,0:0:0:0:
99,232,200386,2,0,L|3:224,1,76.5000014591217,0|0,1:0|0:0,0:0:0:0:
193,117,200561,6,0,B|189:181|189:181|171:208|171:208|197:282|197:282|180:312|180:312|169:397,1,270,8|0,0:0|0:0,0:0:0:0:
53,78,200910,6,0,P|79:67|79:98,1,67.5000025749208,0|0,1:0|0:0,0:0:0:0:
80,96,201084,2,0,P|54:107|54:76,1,67.5000025749208,0|0,0:0|0:0,0:0:0:0:
195,32,201259,5,8,0:0:0:0:
228,35,201346,1,0,0:0:0:0:
261,39,201433,1,0,0:0:0:0:
294,43,201520,1,2,0:0:0:0:
60,169,201695,5,0,0:0:0:0:
80,96,201783,1,0,1:0:0:0:
419,130,201956,5,8,0:0:0:0:
369,135,202043,1,0,0:0:0:0:
320,141,202130,1,0,0:0:0:0:
270,147,202217,1,0,0:0:0:0:
152,204,202305,6,0,P|182:210|228:201,1,67.5000025749208,0|0,1:0|0:0,0:0:0:0:
389,55,202480,2,0,P|422:49|455:55,1,67.5000025749208,0|0,0:0|0:0,0:0:0:0:
487,235,202654,5,8,0:0:0:0:
482,267,202741,1,0,0:0:0:0:
476,300,202828,1,0,0:0:0:0:
470,332,202915,1,2,0:0:0:0:
320,141,203090,5,0,0:0:0:0:
393,161,203178,1,0,1:0:0:0:
190,350,203352,5,8,0:0:0:0:
200,302,203439,1,0,0:0:0:0:
209,252,203526,1,0,0:0:0:0:
218,204,203613,1,0,0:0:0:0:
323,239,203700,6,0,P|306:228|299:265,1,67.5000025749208,0|0,1:0|0:0,0:0:0:0:
218,204,203875,1,0,0:0:0:0:
209,252,203962,1,0,0:0:0:0:
279,339,204049,6,0,L|389:326,1,90,8|0,0:0|0:0,0:0:0:0:
120,263,204224,1,0,0:0:0:0:
190,350,204311,6,0,L|279:339,1,90,2|0,0:0|0:0,0:0:0:0:
457,317,204485,1,0,0:0:0:0:
457,317,204572,1,0,1:0:0:0:
100,360,204747,5,8,0:0:0:0:
145,355,204834,1,0,0:0:0:0:
190,350,204921,1,0,0:0:0:0:
235,345,205009,1,0,0:0:0:0:
279,338,205096,6,0,P|296:327|303:364,1,67.5000025749208,0|0,1:0|0:0,0:0:0:0:
384,303,205271,1,0,0:0:0:0:
393,351,205358,1,0,0:0:0:0:
324,240,205445,6,0,P|362:221|429:227,1,90,8|0,0:0|0:0,0:0:0:0:
170,217,205619,1,0,0:0:0:0:
239,260,205706,6,0,P|283:259|323:240,1,90,2|0,0:0|0:0,0:0:0:0:
477,269,205881,1,0,0:0:0:0:
477,269,205968,1,0,1:0:0:0:
198,71,206142,5,8,0:0:0:0:
189,119,206230,1,0,0:0:0:0:
180,169,206316,1,0,0:0:0:0:
170,217,206404,1,0,0:0:0:0:
84,143,206491,5,0,1:0:0:0:
101,139,206666,1,0,0:0:0:0:
323,239,206840,5,8,0:0:0:0:
306,235,206927,1,0,0:0:0:0:
288,232,207014,1,0,0:0:0:0:
271,228,207102,1,2,0:0:0:0:
14,355,207276,5,0,0:0:0:0:
39,277,207363,1,0,1:0:0:0:
305,141,207538,5,8,0:0:0:0:
314,189,207626,1,0,0:0:0:0:
323,239,207712,1,0,0:0:0:0:
333,287,207800,1,0,0:0:0:0:
419,213,207887,5,0,1:0:0:0:
402,209,208062,1,0,0:0:0:0:
182,324,208235,5,8,0:0:0:0:
199,320,208322,1,0,0:0:0:0:
217,317,208409,1,0,0:0:0:0:
234,313,208497,1,2,0:0:0:0:
140,49,208671,5,0,0:0:0:0:
115,127,208758,1,0,1:0:0:0:
330,49,208933,5,8,0:0:0:0:
381,33,209020,1,0,0:0:0:0:
432,47,209107,1,0,0:0:0:0:
461,93,209195,1,0,0:0:0:0:
360,118,209282,6,0,B|382:111|382:111|392:130,1,45,0|0,1:0|0:0,0:0:0:0:
234,313,209631,6,0,L|246:238,1,67.5000025749208,8|0,0:0|0:0,0:0:0:0:
392,130,209805,1,0,0:0:0:0:
441,188,209892,2,0,L|429:263,1,67.5000025749208,2|0,0:0|0:0,0:0:0:0:
283,371,210067,1,0,0:0:0:0:
234,313,210154,2,0,L|248:229,1,67.949999222374,0|0,1:0|0:0,0:0:0:0:
498,291,210328,5,8,0:0:0:0:
469,337,210416,1,0,0:0:0:0:
418,351,210503,1,0,0:0:0:0:
367,335,210590,1,0,0:0:0:0:
430,254,210677,6,0,B|419:273|419:273|397:266,1,45,0|0,1:0|0:0,0:0:0:0:
71,73,211026,6,0,L|158:85,1,67.5000025749208,8|0,0:0|0:0,0:0:0:0:
327,219,211200,1,0,0:0:0:0:
259,171,211288,2,0,L|172:183,1,67.5000025749208,2|0,0:0|0:0,0:0:0:0:
0,306,211462,1,0,0:0:0:0:
68,258,211550,2,0,L|155:270,1,67.5000025749208,0|0,1:0|0:0,0:0:0:0:
289,350,211724,5,8,0:0:0:0:
280,310,211811,1,0,0:0:0:0:
289,350,211898,5,0,0:0:0:0:
280,310,211985,1,0,0:0:0:0:
367,300,212073,6,0,B|327:219|327:219|240:242,1,180,0|0,1:0|0:0,0:0:0:0:
134,267,212305,6,0,P|203:237|285:361,1,240,0|0,1:0|0:0,0:0:0:0:
41,354,212596,5,8,0:0:0:0:
32,314,212683,1,0,0:0:0:0:
60,234,212770,5,0,0:0:0:0:
69,194,212857,1,2,0:0:0:0:
44,112,212945,5,0,1:0:0:0:
35,72,213032,1,0,0:0:0:0:
101,25,213119,5,8,0:0:0:0:
140,19,213206,1,0,0:0:0:0:
179,13,213293,1,0,0:0:0:0:
219,6,213381,1,0,0:0:0:0:
138,97,213468,6,0,B|183:61|183:61|309:80,1,180,0|0,1:0|0:0,0:0:0:0:
479,265,213730,1,0,0:0:0:0:
410,218,213817,2,0,P|367:210|323:221,1,90,8|0,0:0|0:0,0:0:0:0:
171,307,213991,1,0,0:0:0:0:
239,353,214078,2,0,P|282:360|326:350,1,90,2|0,0:0|0:0,0:0:0:0:
102,252,214253,5,0,0:0:0:0:
94,296,214340,1,0,1:0:0:0:
94,296,214514,5,8,0:0:0:0:
102,252,214601,1,0,0:0:0:0:
111,207,214689,1,0,0:0:0:0:
120,163,214776,1,0,0:0:0:0:
193,123,214863,6,0,P|129:80|37:164,1,180,0|0,1:0|0:0,0:0:0:0:
232,196,215125,1,0,0:0:0:0:
193,123,215212,2,0,L|216:-10,1,90,8|0,0:0|0:0,0:0:0:0:
411,195,215386,1,0,0:0:0:0:
450,268,215473,2,0,L|427:401,1,90,2|0,0:0|0:0,0:0:0:0:
130,292,215648,5,0,0:0:0:0:
94,296,215735,1,0,1:0:0:0:
94,296,215910,5,8,0:0:0:0:
130,292,215997,1,0,0:0:0:0:
165,289,216084,1,0,0:0:0:0:
200,286,216171,1,0,0:0:0:0:
266,331,216259,5,0,1:0:0:0:
26,209,216433,5,0,0:0:0:0:
77,146,216520,1,0,0:0:0:0:
141,202,216607,2,0,L|128:307,1,90,8|0,0:0|0:0,0:0:0:0:
335,40,216782,1,0,0:0:0:0:
271,96,216869,2,0,L|284:201,1,90,2|0,0:0|0:0,0:0:0:0:
131,32,217043,1,0,0:0:0:0:
131,32,217131,6,0,P|102:11|109:60,1,90,0|0,1:0|0:0,0:0:0:0:
282,185,217305,1,8,0:0:0:0:
282,185,217393,2,0,P|311:206|304:157,1,90,0|0,0:0|0:0,0:0:0:0:
26,209,217567,1,0,0:0:0:0:
11,288,217654,5,0,1:0:0:0:
375,99,217828,5,0,0:0:0:0:
462,101,217916,1,0,0:0:0:0:
414,171,218003,6,0,P|369:177|314:160,1,90,8|0,0:0|0:0,0:0:0:0:
205,44,218177,1,0,0:0:0:0:
132,254,218264,6,0,P|177:252|228:225,1,90,2|0,0:0|0:0,0:0:0:0:
375,99,218439,5,0,0:0:0:0:
414,171,218526,1,0,1:0:0:0:
37,100,218700,5,8,0:0:0:0:
54,97,218788,1,0,0:0:0:0:
71,94,218875,1,0,0:0:0:0:
88,92,218962,1,0,0:0:0:0:
152,140,219049,6,0,L|167:216,1,67.5000025749208,0|0,1:0|0:0,0:0:0:0:
53,267,219224,2,0,L|38:343,1,67.5000025749208,0|0,0:0|0:0,0:0:0:0:
210,346,219398,6,0,P|245:344|291:324,1,67.5000025749208,8|0,0:0|0:0,0:0:0:0:
483,171,219573,1,0,0:0:0:0:
483,171,219660,2,0,L|490:278,1,67.5000025749208,2|0,0:0|0:0,0:0:0:0:
392,275,219834,1,0,0:0:0:0:
392,275,219921,2,0,L|399:382,1,67.5000025749208,0|0,1:0|0:0,0:0:0:0:
294,135,220096,5,8,0:0:0:0:
277,138,220184,1,0,0:0:0:0:
260,141,220271,1,0,0:0:0:0:
243,143,220358,1,0,0:0:0:0:
168,169,220445,6,0,P|170:125|188:84,1,90,0|0,1:0|0:0,0:0:0:0:
370,110,220619,2,0,P|368:154|350:195,1,90,0|0,0:0|0:0,0:0:0:0:
38,41,220793,6,0,L|168:22,1,90,8|0,0:0|0:0,0:0:0:0:
350,195,220968,1,0,0:0:0:0:
311,263,221055,2,0,B|277:293|277:293|263:250,1,90,2|0,0:0|0:0,0:0:0:0:
188,84,221230,1,0,0:0:0:0:
227,16,221317,2,0,B|260:-14|260:-14|274:28,1,90,0|0,1:0|0:0,0:0:0:0:
78,197,221491,5,8,0:0:0:0:
81,180,221579,1,0,0:0:0:0:
84,163,221666,1,0,0:0:0:0:
86,146,221753,1,0,0:0:0:0:
22,76,221840,6,0,B|-5:130|-5:130|19:286,1,180,0|0,1:0|0:0,0:0:0:0:
143,78,222014,2,0,B|170:132|170:132|151:250,1,180,0|0,0:0|0:0,0:0:0:0:
19,356,222189,6,0,B|60:324|60:324|115:364|115:364|241:310,1,180,8|0,0:0|0:0,0:0:0:0:
369,251,222363,5,0,0:0:0:0:
448,299,222450,2,0,L|220:266,1,180,2|0,0:0|0:0,0:0:0:0:
88,136,222625,5,0,0:0:0:0:
9,184,222712,2,0,L|237:151,1,180,0|0,1:0|0:0,0:0:0:0:
331,13,222886,5,8,0:0:0:0:
331,13,223235,6,0,P|325:-3|324:13,1,45,0|0,1:0|0:0,0:0:0:0:
296,313,223497,5,0,0:0:0:0:
311,326,223584,2,0,B|349:223|265:262|305:140,1,180,8|0,0:0|0:0,0:0:0:0:
446,77,223846,6,0,P|402:73|359:108,1,90,2|0,0:0|0:0,0:0:0:0:
188,116,224020,5,0,0:0:0:0:
194,35,224107,2,0,P|236:45|266:91,1,90,0|0,1:0|0:0,0:0:0:0:
22,159,224282,6,0,L|-10:154,3,22.5,8|0|0|0,0:0|0:0|0:0|0:0,0:0:0:0:
25,237,224631,6,0,B|68:237|90:198|90:198|110:218|151:217,1,135,0|0,1:0|0:0,0:0:0:0:
162,139,224805,6,0,L|138:144,1,22.5
141,216,224980,6,0,B|163:191|163:191|141:78|141:78|94:63,1,180,8|0,0:0|0:0,0:0:0:0:
59,4,225241,2,0,B|21:26|21:26|34:84,1,90,2|0,0:0|0:0,0:0:0:0:
54,351,225416,5,0,0:0:0:0:
54,351,225503,2,0,B|28:370|28:370|151:343,1,135,0|0,1:0|0:0,0:0:0:0:
265,334,225677,1,8,0:0:0:0:
274,314,225764,1,0,0:0:0:0:
283,294,225852,1,0,0:0:0:0:
292,274,225939,1,0,0:0:0:0:
378,281,226026,6,0,P|406:323|393:380,1,90,0|0,1:0|0:0,0:0:0:0:
213,249,226200,2,0,P|255:277|312:264,1,90,0|0,0:0|0:0,0:0:0:0:
482,173,226375,6,0,B|364:148|364:148|339:230,1,180,8|0,0:0|0:0,0:0:0:0:
344,70,226636,6,0,L|332:-3,1,67.5000025749208,2|0,0:0|0:0,0:0:0:0:
137,216,226898,6,0,B|115:198|89:207|89:207|109:221|133:219,1,90,0|0,1:0|0:0,0:0:0:0:
284,142,227073,1,8,0:0:0:0:
277,135,227160,1,0,0:0:0:0:
284,129,227247,1,0,0:0:0:0:
290,135,227334,1,0,0:0:0:0:
251,53,227421,6,0,B|207:38|207:38|162:75,1,90,0|0,1:0|0:0,0:0:0:0:
251,53,227596,2,0,B|217:80|217:80|173:65,1,90,0|0,0:0|0:0,0:0:0:0:
101,24,227770,6,0,B|90:4|68:-3|68:-3|94:72|177:65,1,180,8|0,0:0|0:0,0:0:0:0:
327,153,228032,6,0,B|326:108|326:108|288:136,1,90,2|0,0:0|0:0,0:0:0:0:
37,361,228293,6,0,L|132:344,1,90,0|0,1:0|0:0,0:0:0:0:
298,310,228468,6,0,L|307:252,1,45.0000017166138,8|0,0:0|0:0,0:0:0:0:
309,245,228700,1,0,0:0:0:0:
259,382,228817,6,0,B|202:361|202:361|229:213|229:213|173:193,1,270,0|0,1:0|0:0,0:0:0:0:
59,94,229166,6,0,B|62:156|62:156|189:199,1,180,8|0,0:0|0:0,0:0:0:0:
203,32,229427,6,0,B|156:16|156:16|102:55,1,90,2|0,0:0|0:0,0:0:0:0:
27,276,229602,5,0,0:0:0:0:
27,276,229689,2,0,P|113:199|191:196,1,180,0|8,1:0|0:0,0:0:0:0:
464,228,229950,5,0,0:0:0:0:
418,159,230037,5,0,0:0:0:0:
338,180,230124,5,0,0:0:0:0:
333,263,230212,6,0,B|353:225|353:225|339:179,1,90,0|0,1:0|0:0,0:0:0:0:
317,22,230386,2,0,B|297:60|297:60|311:106,1,90,0|0,0:0|0:0,0:0:0:0:
257,212,230561,6,0,B|226:205|226:205|222:205|222:205|224:204|224:204|173:192,1,90,8|0,0:0|0:0,0:0:0:0:
264,353,230735,5,0,0:0:0:0:
264,353,230823,2,0,P|333:292|423:315,1,180,2|0,0:0|0:0,0:0:0:0:
173,192,231084,6,0,B|142:185|142:185|138:185|138:185|140:184|140:184|89:172,1,90,0|0,1:0|0:0,0:0:0:0:
28,347,231259,5,8,0:0:0:0:
103,375,231346,5,0,0:0:0:0:
178,345,231433,5,0,0:0:0:0:
203,268,231520,5,0,0:0:0:0:
173,192,231607,6,0,P|174:146|201:97,1,90,0|0,1:0|0:0,0:0:0:0:
259,6,231782,2,0,P|218:24|173:25,1,90,0|0,0:0|0:0,0:0:0:0:
30,95,231956,2,0,B|138:118|71:170|175:192,1,180,8|0,0:0|0:0,0:0:0:0:
280,89,232218,6,0,L|387:112,1,90,2|0,0:0|0:0,0:0:0:0:
466,31,232392,1,0,0:0:0:0:
475,21,232480,2,0,B|432:32|432:32|459:132,1,135,0|0,1:0|0:0,0:0:0:0:
476,202,232654,6,0,B|466:164|466:164|467:158|467:158|465:159|465:159|450:101,1,90,8|0,0:0|0:0,0:0:0:0:
259,6,232828,2,0,B|269:46|269:46|271:44|271:44|270:50|270:50|279:88,1,90,0|0,0:0|0:0,0:0:0:0:
455,119,233003,6,0,P|369:88|272:91,1,180,0|0,1:0|0:0,0:0:0:0:
238,226,233264,5,0,0:0:0:0:
238,226,233352,2,0,B|223:157|223:157|202:143|202:143|183:48,1,180,8|0,0:0|0:0,0:0:0:0:
124,216,233613,6,0,L|153:207,1,22.5,2|0,0:0|0:0,0:0:0:0:
381,301,233788,5,0,0:0:0:0:
381,301,233875,2,0,B|337:311|337:311|292:275,1,90,0|0,1:0|0:0,0:0:0:0:
384,0,234049,6,0,B|366:5|366:5|356:31,1,33.7500012874604,8|0,0:0|0:0,0:0:0:0:
363,41,234224,6,0,B|376:54|376:54|403:49,1,33.7500012874604,0|0,0:0|0:0,0:0:0:0:
409,38,234398,6,0,B|413:19|413:19|392:0,1,45,0|0,0:0|0:0,0:0:0:0:
70,49,234573,5,0,0:0:0:0:
70,49,234660,2,0,B|154:17|154:17|227:83,1,180,0|0,3:0|0:0,0:0:0:0:
50,128,234921,6,0,L|6:116,1,45,8|0,0:0|0:0,0:0:0:0:
191,378,235183,6,0,P|196:267|134:201,1,180,0|0,3:0|0:0,0:0:0:0:
51,213,235445,6,0,P|28:284|63:216,1,225,8|0,0:0|0:0,0:0:0:0:
32,0,238628,6,0,P|88:-1|4:38,1,315,0|0,0:0|0:0,0:0:0:0:
244,217,240023,6,0,B|295:197|364:224|385:283|385:283|369:219|405:169|464:160|464:160|486:129|520:123|520:123|444:130|418:91|354:51|344:-14|444:-62|524:-14|494:79|411:100|411:100|363:114|283:96|344:32|240:34|212:52|212:52|264:79|300:106|300:106|198:84|108:171|132:263|180:305|234:309,1,1464.74995529938,0|0,0:0|0:0,0:0:0:0:
34,276,242901,6,0,B|54:330|85:368|155:399|212:405|282:365|282:365|238:241|118:266|118:266|157:319|229:308,1,641.25,0|0,0:0|0:0,0:0:0:0:
315,232,245561,6,0,B|360:227|360:227|397:252|397:252|446:246,1,135,0|0,0:0|0:0,0:0:0:0:
442,247,246171,1,2,0:0:0:0:
315,232,246346,1,0,0:0:0:0:
315,232,246433,1,0,0:0:0:0:
190,83,246956,6,0,B|145:78|145:78|108:103|108:103|59:97,1,135,0|0,0:0|0:0,0:0:0:0:
63,98,247566,1,2,0:0:0:0:
190,83,247741,1,0,0:0:0:0:
190,83,247828,1,0,0:0:0:0:
334,47,248352,6,0,B|369:42|399:63|399:63|427:83|462:75,2,135,0|0|0,0:0|0:0|0:0,0:0:0:0:
344,125,248962,2,0,P|364:151|355:233,1,90,2|0,0:0|0:0,0:0:0:0:
295,185,249224,1,0,0:0:0:0:
161,188,249747,6,0,B|125:183|96:204|96:204|68:224|32:216,2,135,0|0|0,0:0|0:0|0:0,0:0:0:0:
150,266,250357,2,0,P|126:303|126:347,1,90,2|0,0:0|0:0,0:0:0:0:
200,326,250619,1,0,0:0:0:0:
119,106,251143,6,0,L|29:99,1,90,0|0,0:0|0:0,0:0:0:0:
29,15,251404,2,0,P|61:73|119:106,1,135,0|0,0:0|0:0,0:0:0:0:
200,141,251753,1,2,0:0:0:0:
200,141,251841,6,0,L|200:96,2,45,0|0|0,0:0|0:0|0:0,0:0:0:0:
384,334,252538,6,0,L|473:327,1,90,0|0,0:0|0:0,0:0:0:0:
475,243,252799,2,0,P|442:301|384:334,1,135,0|0,0:0|0:0,0:0:0:0:
303,369,253148,1,2,0:0:0:0:
303,369,253236,6,0,L|303:324,2,45,0|0|0,0:0|0:0|0:0,0:0:0:0:
165,141,253933,6,0,B|121:132|121:132|61:154,1,90,0|0,0:0|0:0,0:0:0:0:
106,289,254195,2,0,B|136:313|136:313|126:208,1,135,0|0,0:0|0:0,0:0:0:0:
48,226,254543,1,2,0:0:0:0:
207,214,254718,1,0,0:0:0:0:
207,214,254805,1,0,0:0:0:0:
347,141,255328,6,0,B|391:132|391:132|451:154,1,90,0|0,0:0|0:0,0:0:0:0:
406,289,255590,2,0,B|376:313|376:313|386:208,1,135,0|0,0:0|0:0,0:0:0:0:
464,226,255939,2,0,L|403:220,1,45,2|0,0:0|0:0,0:0:0:0:
305,214,256113,1,0,0:0:0:0:
305,214,256200,1,0,0:0:0:0:
301,241,256288,1,0,0:0:0:0:
284,267,256375,1,0,0:0:0:0:
252,285,256462,1,0,0:0:0:0:
211,286,256549,1,0,0:0:0:0:
172,263,256636,1,0,0:0:0:0:
133,217,256724,6,0,L|55:235,3,53.9999983520508,0|0|0|0,1:0|0:0|0:0|0:0,0:0:0:0:
139,133,257073,1,0,0:0:0:0:
139,133,257160,2,0,L|71:90,1,53.9999983520508,0|0,0:0|0:0,0:0:0:0:
219,99,257334,2,0,L|201:20,1,53.9999983520508,2|0,0:0|0:0,0:0:0:0:
240,192,257509,1,0,0:3:0:0:
240,192,257596,2,0,L|258:270,1,53.9999983520508,0|0,1:3|0:0,0:0:0:0:
303,124,257770,1,0,0:0:0:0:
329,120,257857,1,0,0:0:0:0:
355,116,257945,1,0,0:0:0:0:
381,112,258032,1,0,0:0:0:0:
407,108,258119,5,0,1:0:0:0:
407,108,258206,2,0,B|420:132|420:132|405:173,2,53.9999983520508,0|0|0,0:0|0:0|0:0,0:0:0:0:
311,200,258468,2,0,B|298:224|298:224|313:265,2,53.9999983520508,0|0|0,0:0|0:0|0:0,0:0:0:0:
425,263,258730,2,0,B|410:239|410:239|367:232,1,53.9999983520508,2|0,0:0|0:0,0:0:0:0:
312,336,258904,1,0,0:3:0:0:
312,336,258991,2,0,B|339:335|339:335|356:314,1,53.9999983520508,0|0,1:0|0:0,0:0:0:0:
227,249,259166,1,0,0:0:0:0:
200,248,259253,1,0,0:0:0:0:
173,247,259340,1,0,0:0:0:0:
154,267,259427,1,0,0:0:0:0:
136,287,259514,6,0,P|146:313|135:350,2,58.4999973220826,0|0|0,1:0|0:0|0:0,0:0:0:0:
59,200,259776,1,0,0:0:0:0:
59,200,259863,2,0,P|49:225|60:262,2,58.4999973220826,0|0|0,0:0|0:0|0:0,0:0:0:0:
119,136,260125,2,0,P|147:129|174:138,1,58.4999973220826,2|0,0:0|0:0,0:0:0:0:
292,198,260299,1,0,0:3:0:0:
292,198,260386,2,0,P|264:207|236:200,1,58.4999973220826,0|0,1:0|0:0,0:0:0:0:
232,73,260561,1,0,0:0:0:0:
258,60,260648,1,0,0:0:0:0:
286,54,260735,1,0,0:0:0:0:
315,57,260823,1,0,0:0:0:0:
343,67,260910,6,0,L|356:153,3,58.4999973220826,0|0|0|0,1:0|0:0|0:0|0:0,0:0:0:0:
232,131,261259,1,0,0:0:0:0:
232,131,261346,2,0,L|232:73,1,58.4999973220826,0|0,0:0|0:0,0:0:0:0:
326,206,261520,2,0,L|264:209,1,58.4999973220826,2|0,0:0|0:0,0:0:0:0:
256,47,261695,1,0,0:3:0:0:
256,47,261782,2,0,L|318:44,1,58.4999973220826,0|0,1:0|0:0,0:0:0:0:
423,64,261956,1,0,0:0:0:0:
427,92,262043,1,0,0:0:0:0:
431,121,262130,1,0,0:0:0:0:
436,150,262217,1,0,0:0:0:0:
441,179,262305,6,0,L|363:197,3,62.9999980773926,0|0|0|0,1:0|0:0|0:0|0:0,0:0:0:0:
410,312,262654,1,0,0:0:0:0:
410,312,262741,2,0,L|342:269,1,62.9999980773926,0|0,0:0|0:0,0:0:0:0:
223,230,262916,2,0,L|161:244,1,62.9999980773926,2|0,0:0|0:0,0:0:0:0:
238,348,263090,1,0,0:3:0:0:
238,348,263177,2,0,L|280:280,1,62.9999980773926,0|0,1:3|0:0,0:0:0:0:
354,165,263352,1,0,0:0:0:0:
323,172,263439,1,0,0:0:0:0:
292,179,263526,1,0,0:0:0:0:
261,186,263613,1,0,0:0:0:0:
231,193,263700,5,0,1:0:0:0:
256,192,263788,12,0,267712,0:0:0:0:
211,290,267886,6,0,P|264:280|342:327,1,135.000005149842,2|0,0:0|0:0,0:0:0:0:
434,327,268148,2,0,P|381:337|318:298,1,107.999996704102,0|0,0:0|0:0,0:0:0:0:
472,259,268410,2,0,P|494:275|511:310,1,53.9999983520508,0|0,0:0|0:0,0:0:0:0:
393,236,268584,5,0,0:0:0:0:
381,205,268671,1,0,0:0:0:0:
377,172,268759,1,0,0:0:0:0:
394,145,268846,1,0,0:0:0:0:
419,124,268933,2,0,L|341:119,1,53.9999983520508,8|0,0:0|0:0,0:0:0:0:
255,61,269107,2,0,L|177:56,1,53.9999983520508,0|0,0:0|0:0,0:0:0:0:
22,140,269282,6,0,B|-1:72|-1:72|24:-2,1,135.000005149842,2|0,0:0|0:0,0:0:0:0:
115,107,269543,2,0,B|131:156|131:156|108:211,1,107.999996704102,0|0,0:0|0:0,0:0:0:0:
40,271,269805,2,0,P|82:299|96:302,1,53.9999983520508,0|0,0:0|0:0,0:0:0:0:
295,317,269980,5,0,0:0:0:0:
259,305,270067,1,0,0:0:0:0:
221,308,270154,1,0,0:0:0:0:
187,325,270241,1,0,0:0:0:0:
171,359,270328,2,0,L|164:290,1,53.9999983520508,0|0,0:0|0:0,0:0:0:0:
108,211,270503,2,0,L|115:142,1,53.9999983520508,0|0,0:0|0:0,0:0:0:0:
171,42,270677,6,0,B|273:34|273:34|226:55,1,135.000005149842,2|0,0:0|0:0,0:0:0:0:
238,72,270939,2,0,L|359:64,1,107.999996704102,0|0,0:0|0:0,0:0:0:0:
437,91,271200,2,0,P|443:45|428:11,1,53.9999983520508,0|0,0:0|0:0,0:0:0:0:
480,199,271375,5,0,0:0:0:0:
441,179,271462,1,0,0:0:0:0:
398,174,271549,1,0,0:0:0:0:
357,188,271636,1,0,0:0:0:0:
325,218,271724,2,0,L|329:286,1,53.9999983520508,8|0,0:0|0:0,0:0:0:0:
471,343,271898,2,0,L|467:289,1,53.9999983520508,0|0,0:0|0:0,0:0:0:0:
309,205,272073,6,0,B|284:274|284:274|318:361,1,135.000005149842,2|0,0:0|0:0,0:0:0:0:
351,131,272334,2,0,P|288:124|234:163,1,116.999994644165,0|0,0:0|0:0,0:0:0:0:
195,224,272596,2,0,P|160:230|129:221,1,58.4999973220826,0|0,0:0|0:0,0:0:0:0:
62,154,272770,5,0,0:0:0:0:
50,102,272857,1,0,0:0:0:0:
62,50,272945,1,0,0:0:0:0:
105,20,273032,1,0,0:0:0:0:
157,14,273119,2,0,L|241:21,1,58.4999973220826,0|0,0:0|0:0,0:0:0:0:
292,135,273293,2,0,L|350:130,1,58.4999973220826,0|0,0:0|0:0,0:0:0:0:
470,13,273468,5,2,0:0:0:0:
470,13,273817,1,0,0:0:0:0:
468,42,273904,1,0,0:0:0:0:
465,76,273991,2,0,L|471:148,1,53.9999983520508,0|0,0:0|0:0,0:0:0:0:
504,229,274166,5,2,0:0:0:0:
469,235,274253,1,0,0:0:0:0:
434,230,274340,1,0,0:0:0:0:
404,211,274427,1,0,0:0:0:0:
362,139,274514,5,8,0:0:0:0:
327,129,274602,1,0,0:0:0:0:
292,135,274689,1,0,0:0:0:0:
262,154,274776,1,0,0:0:0:0:
324,212,274863,6,0,B|322:165|363:138|363:138|348:118|348:118|384:57|340:-4,1,233.999989288331,2|0,0:0|0:0,0:0:0:0:
263,63,275299,1,0,0:0:0:0:
263,63,275386,2,0,L|199:62,1,58.4999973220826,0|0,0:0|0:0,0:0:0:0:
130,6,275561,5,2,0:0:0:0:
109,41,275648,1,0,0:0:0:0:
109,81,275735,1,0,0:0:0:0:
122,119,275823,1,0,0:0:0:0:
153,145,275910,5,0,0:0:0:0:
175,179,275997,1,0,0:0:0:0:
180,219,276084,1,0,0:0:0:0:
168,258,276171,1,0,0:0:0:0:
129,328,276259,6,0,P|133:235|273:245,1,251.999992309571,2|0,0:0|0:0,0:0:0:0:
261,327,276695,1,0,0:0:0:0:
225,336,276782,2,0,P|203:314|197:284,1,62.9999980773926,0|0,0:0|0:0,0:0:0:0:
325,128,276956,5,2,0:0:0:0:
341,87,277043,1,0,0:0:0:0:
338,42,277131,1,0,0:0:0:0:
316,3,277218,1,0,0:0:0:0:
236,5,277305,5,8,0:0:0:0:
214,44,277392,1,0,0:0:0:0:
211,89,277480,1,0,0:0:0:0:
227,130,277567,1,0,0:0:0:0:
272,193,277654,6,0,P|326:212|359:51,1,270.000010299683,2|0,0:0|0:0,0:0:0:0:
214,44,278090,1,0,0:0:0:0:
214,44,278177,2,0,L|219:120,1,67.5000025749208,0|0,0:0|0:0,0:0:0:0:
470,268,278352,5,2,0:0:0:0:
422,265,278440,1,0,0:0:0:0:
374,264,278527,1,0,0:0:0:0:
326,262,278614,1,0,0:0:0:0:
284,277,278700,5,0,0:0:0:0:
236,274,278788,1,0,0:0:0:0:
188,273,278875,1,0,0:0:0:0:
140,271,278962,1,0,0:0:0:0:
16,285,279049,6,0,B|31:314|31:314|44:187,1,144,8|0,0:0|0:0,0:0:0:0:
140,271,279311,2,0,L|134:356,1,72,0|8,0:0|0:0,0:0:0:0:
49,210,279485,1,0,0:0:0:0:
49,210,279573,2,0,L|54:138,1,72,0|0,0:0|0:0,0:0:0:0:
94,35,279747,5,8,0:0:0:0:
142,21,279834,1,0,0:0:0:0:
191,31,279921,1,0,0:0:0:0:
221,71,280009,1,0,0:0:0:0:
258,141,280096,5,8,0:0:0:0:
298,170,280183,1,0,0:0:0:0:
346,184,280270,1,0,0:0:0:0:
395,174,280357,1,0,0:0:0:0:
376,70,280445,6,0,B|352:67|303:47|303:47|336:62|358:103,1,153.000002918243,8|0,0:0|0:0,0:0:0:0:
452,107,280706,2,0,P|460:69|454:32,1,76.5000014591217,0|8,0:0|0:0,0:0:0:0:
350,188,280881,1,0,0:0:0:0:
350,188,280968,2,0,P|342:223|352:262,1,76.5000014591217,0|0,0:0|0:0,0:0:0:0:
419,376,281142,5,8,0:0:0:0:
446,329,281230,1,0,0:0:0:0:
451,275,281317,1,0,0:0:0:0:
431,225,281404,1,0,0:0:0:0:
350,188,281491,5,8,0:0:0:0:
325,140,281578,1,0,0:0:0:0:
326,85,281666,1,0,0:0:0:0:
365,49,281753,1,0,0:0:0:0:
441,42,281840,6,0,B|408:30|365:50|365:50|354:44|354:44|311:64|276:47,1,161.999995056153,8|0,0:0|0:0,0:0:0:0:
410,119,282102,6,0,P|458:123|509:90,1,80.9999975280763,0|8,0:0|0:0,0:0:0:0:
290,56,282276,1,0,0:0:0:0:
290,56,282363,2,0,P|252:42|212:47,1,80.9999975280763,0|0,0:0|0:0,0:0:0:0:
81,106,282538,5,8,0:0:0:0:
52,154,282625,1,0,0:0:0:0:
49,210,282712,1,0,0:0:0:0:
71,261,282799,1,0,0:0:0:0:
155,280,282886,5,8,0:0:0:0:
205,253,282974,1,0,0:0:0:0:
261,260,283061,1,0,0:0:0:0:
300,300,283148,1,0,0:0:0:0:
222,334,283235,6,0,B|219:274|219:274|205:252|205:252|217:237|217:237|214:154,1,170.999995433807,8|0,0:0|0:0,0:0:0:0:
306,138,283497,2,0,P|311:180|293:229,1,85.4999977169037,0|8,0:0|0:0,0:0:0:0:
139,220,283671,1,0,0:0:0:0:
139,220,283759,2,0,P|126:179|131:137,1,85.4999977169037,0|0,0:0|0:0,0:0:0:0:
266,64,283933,5,8,0:0:0:0:
325,58,284020,1,0,0:0:0:0:
375,90,284107,1,0,0:0:0:0:
387,148,284195,1,0,0:0:0:0:
355,220,284282,5,8,0:0:0:0:
330,274,284369,1,0,0:0:0:0:
339,332,284456,1,0,0:0:0:0:
389,364,284543,1,0,0:0:0:0:
472,359,284631,6,0,P|446:304|399:283,1,90,8|0,0:0|0:0,0:0:0:0:
490,341,284805,2,0,P|454:291|404:278,1,90,8|0,0:0|0:0,0:0:0:0:
306,144,284980,6,0,L|405:149,1,80.9999975280763,8|0,0:0|0:0,0:0:0:0:
295,154,285154,2,0,L|394:159,1,80.9999975280763,8|0,0:0|0:0,0:0:0:0:
484,28,285328,6,0,L|397:33,1,72,8|0,0:0|0:0,0:0:0:0:
474,40,285503,2,0,L|387:45,1,72,8|0,0:0|0:0,0:0:0:0:
211,149,285677,6,0,L|148:145,1,62.9999980773926,8|0,0:0|0:0,0:0:0:0:
199,133,285852,2,0,L|136:129,1,62.9999980773926,8|0,0:0|0:0,0:0:0:0:
81,35,286026,5,8,0:0:0:0:
75,14,286200,1,8,0:0:0:0:
54,20,286375,1,8,0:0:0:0:
60,41,286549,1,8,0:0:0:0:
81,35,286724,5,2,0:2:0:0:
64,69,286811,1,2,0:2:0:0:
62,106,286898,1,2,0:2:0:0:
72,142,286985,1,0,0:0:0:0:
101,166,287073,5,0,0:0:0:0:
126,208,287160,1,0,0:0:0:0:
138,254,287247,1,0,0:0:0:0:
129,301,287334,1,0,0:0:0:0:
67,352,287421,6,0,P|50:315|64:253,1,90
256,192,288817,12,0,289863,0:0:0:0:
375,75,290212,6,0,B|408:31|408:31|474:107|401:207,1,207.000003948212,0|0,1:0|0:0,0:0:0:0:
344,273,290474,6,0,L|289:279,1,49.5000015106202,0|0,1:0|0:0,0:0:0:0:
86,320,290735,6,0,B|241:306|241:306|237:302|237:302|250:306|250:306|465:288,1,377.999988464356,8|0,0:0|0:0,0:0:0:0:
105,98,291084,2,0,B|64:126|64:126|92:199,1,125.999996154785,0|0,1:0|0:0,0:0:0:0:
191,187,291259,6,0,L|215:-17,1,180,8|0,0:0|0:0,0:0:0:0:
404,197,291520,1,0,0:0:0:0:
396,192,291607,6,0,B|232:159|313:318|110:262,1,270.000010299683,0|0,1:0|0:0,0:0:0:0:
27,46,291869,6,0,L|20:17,1,26.9999991760254,0|0,1:0|0:0,0:0:0:0:
74,135,292131,6,0,P|31:160|21:199,1,90,8|0,0:0|0:0,0:0:0:0:
49,355,292305,1,0,0:0:0:0:
57,353,292392,1,0,0:0:0:0:
66,351,292480,2,0,L|84:240,1,90,0|0,1:0|0:0,0:0:0:0:
288,27,292654,1,8,0:0:0:0:
358,100,292828,6,0,L|363:76,1,13.4999995880127,0|0,0:0|0:0,0:0:0:0:
74,135,293003,6,0,L|280:110,1,207.000003948212,0|0,1:0|0:0,0:0:0:0:
442,84,293264,6,0,L|435:116,1,26.9999991760254,0|0,1:0|0:0,0:0:0:0:
458,271,293526,6,0,P|415:272|375:307,1,90,8|0,0:0|0:0,0:0:0:0:
258,345,293700,1,0,0:0:0:0:
269,344,293788,1,0,0:0:0:0:
279,342,293875,2,0,L|297:245,1,90,0|0,1:0|0:0,0:0:0:0:
284,150,294049,6,0,L|125:168,1,144,8|0,0:0|0:0,0:0:0:0:
0,312,294224,2,0,P|75:285|61:205,1,144,0|0,0:0|0:0,0:0:0:0:
186,71,294398,6,0,B|141:25|61:65|65:140|65:140|71:111|98:98,1,225,0|0,1:0|0:0,0:0:0:0:
284,150,294921,6,0,L|304:11,1,112.5,8|0,0:0|0:0,0:0:0:0:
454,166,295096,6,0,B|481:134|481:134|354:161,1,161.999995056153,0|0,0:0|0:0,0:0:0:0:
400,239,295270,2,0,L|427:33,1,161.999995056153,0|0,1:0|0:0,0:0:0:0:
242,380,295445,6,0,P|304:376|372:302,3,125.999996154785,8|0|0|0,0:0|0:0|0:0|0:0,0:0:0:0:
400,239,295793,2,0,L|190:270,1,180,0|0,1:0|0:0,0:0:0:0:
74,344,296055,2,0,B|124:313|139:258|139:258|138:318|187:338,1,180,0|0,1:0|0:0,0:0:0:0:
353,338,296317,6,0,P|309:340|273:365,1,90,8|0,0:0|0:0,0:0:0:0:
493,381,296491,1,0,0:0:0:0:
493,381,296578,1,0,0:0:0:0:
493,381,296666,2,0,P|451:352|439:308,1,90,0|0,1:0|0:0,0:0:0:0:
400,239,296840,2,0,L|426:111,1,90,8|0,0:0|0:0,0:0:0:0:
184,128,297014,1,0,0:0:0:0:
194,123,297102,1,0,0:0:0:0:
265,94,297189,6,0,B|399:49|373:177|523:132,1,261.000007965088,0|0,1:0|0:0,0:0:0:0:
498,36,297450,6,0,P|484:41|472:51,1,26.9999991760254,0|0,1:0|0:0,0:0:0:0:
259,278,297712,6,0,P|308:239|325:171,1,112.5,8|0,0:0|0:0,0:0:0:0:
343,48,297886,1,0,0:0:0:0:
340,43,297973,1,0,0:0:0:0:
338,38,298060,1,0,0:0:0:0:
335,33,298147,1,0,0:0:0:0:
333,28,298235,1,8,0:0:0:0:
179,127,298410,6,0,L|205:123,1,18,0|0,0:0|0:0,0:0:0:0:
375,124,298584,6,0,B|317:133|317:133|310:128|310:128|305:135|305:135|133:162,1,225,0|0,1:0|0:0,0:0:0:0:
81,166,298846,1,0,1:0:0:0:
375,124,299020,5,0,1:0:0:0:
470,115,299107,2,0,B|484:68|484:68|480:65|480:65|487:61|487:61|506:-10,1,125.999996154785,8|0,0:0|0:0,0:0:0:0:
441,224,299282,6,0,L|424:177,1,33.7500012874604,0|0,0:0|0:0,0:0:0:0:
402,34,299456,1,0,1:0:0:0:
382,275,299631,1,8,0:0:0:0:
380,283,299805,1,0,1:0:0:0:
182,370,299980,6,0,B|126:303|232:224|295:312|295:312|350:394|433:350,1,377.999988464356,0|0,1:0|0:0,0:0:0:0:
441,224,300328,2,0,P|375:197|317:226,1,125.999996154785,8|0,0:0|0:0,0:0:0:0:
487,292,300503,5,8,0:3:0:0:
487,292,300590,2,0,L|517:303,2,22.5,0|0|0,0:0|0:0|0:0,0:0:0:0:
256,84,300852,5,2,0:0:0:0:
254,72,300939,2,0,L|237:-12,1,67.5000025749208,0|0,0:0|0:0,0:0:0:0:
443,127,301113,5,0,0:0:0:0:
459,126,301200,1,0,0:0:0:0:
469,114,301288,1,0,0:0:0:0:
461,102,301375,6,0,B|319:45|357:210|178:154,1,251.999992309571,0|0,1:0|0:0,0:0:0:0:
38,103,301636,6,0,B|-2:64|-2:64|101:18|175:127,1,251.999992309571,0|0,1:0|0:0,0:0:0:0:
63,345,301898,2,0,L|-17:374,1,67.5,8|0,0:0|0:0,0:0:0:0:
287,18,302247,6,0,B|338:32|338:32|319:129,1,144,0|0,1:0|0:0,0:0:0:0:
77,359,302421,2,0,L|12:382,1,54,8|0,0:0|0:0,0:0:0:0:
480,115,302770,6,0,P|393:114|220:257,1,315.000003004074,0|0,1:0|0:0,0:0:0:0:
187,107,303032,6,0,L|176:72,1,26.9999991760254,0|0,1:0|0:0,0:0:0:0:
43,117,303293,6,0,P|72:151|125:153,1,90,8|0,0:0|0:0,0:0:0:0:
317,1,303468,1,0,0:0:0:0:
317,1,303555,1,0,0:0:0:0:
317,1,303642,2,0,P|273:9|244:54,1,90,0|0,1:0|0:0,0:0:0:0:
294,195,303817,6,0,L|332:55,1,112.5,8|0,0:0|0:0,0:0:0:0:
211,212,303991,1,0,0:0:0:0:
201,215,304078,1,0,0:0:0:0:
120,236,304166,6,0,B|252:188|204:329|375:264,1,225,0|0,1:0|0:0,0:0:0:0:
451,183,304427,6,0,P|416:196|385:228,1,67.5000025749208,0|0,1:0|0:0,0:0:0:0:
393,384,304689,6,0,P|413:321|398:286,1,90,8|0,0:0|0:0,0:0:0:0:
204,369,304863,1,0,0:0:0:0:
204,369,304950,1,0,0:0:0:0:
204,369,305038,2,0,P|259:362|300:388,1,90,0|0,1:0|0:0,0:0:0:0:
294,195,305212,6,0,L|324:59,1,112.5,8|0,0:0|0:0,0:0:0:0:
16,266,305386,6,0,P|75:260|158:321,1,144,0|0,0:0|0:0,0:0:0:0:
483,222,305561,6,0,B|423:192|367:243|367:243|365:253|365:253|298:308|212:256,1,270,0|0,1:0|0:0,0:0:0:0:
164,166,305910,6,0,L|160:139,1,18,0|0,0:0|0:0,0:0:0:0:
117,21,306084,6,0,L|144:167,1,135.000005149842,8|0,0:0|0:0,0:0:0:0:
214,68,306346,1,0,0:0:0:0:
219,64,306433,2,0,L|308:43,1,67.5000025749208,0|0,1:0|0:0,0:0:0:0:
347,0,306607,1,8,0:0:0:0:
367,79,306695,6,0,B|351:115|351:115|281:134,2,112.5,0|0|0,0:0|0:0|0:0,0:0:0:0:
484,168,306956,6,0,P|395:203|342:326,1,225,0|0,1:0|0:0,0:0:0:0:
484,334,307218,2,0,L|502:256,1,67.5000025749208,0|0,1:0|0:0,0:0:0:0:
183,220,307480,6,0,L|81:249,1,90,8|0,0:0|0:0,0:0:0:0:
70,353,307654,6,0,P|130:271|71:115,1,270.000010299683,0|0,1:0|0:0,0:0:0:0:
20,207,307916,2,0,P|7:251|26:294,1,85.4999977169037,0|0,1:0|0:0,0:0:0:0:
391,154,308177,6,0,L|426:33,1,112.5,8|0,0:0|0:0,0:0:0:0:
465,254,308352,6,0,P|335:180|163:237,1,315.000003004074,0|0,1:0|0:0,0:0:0:0:
269,282,308613,2,0,P|334:286|358:246,1,99.0000030212403,0|0,1:0|0:0,0:0:0:0:
298,62,308875,6,0,P|240:48|173:115,1,135.000005149842,8|0,0:0|0:0,0:0:0:0:
108,200,309049,6,0,L|482:256,1,360,0|0,1:0|0:0,0:0:0:0:
487,95,309311,2,0,L|517:-18,1,99.0000030212403,0|0,1:0|0:0,0:0:0:0:
20,230,309573,6,0,P|61:278|152:285,1,157.500001502037,8|0,0:0|0:0,0:0:0:0:
320,145,309747,6,0,B|374:106|374:106|268:25|110:81|100:246,1,405.000015449524,0|0,1:0|0:0,0:0:0:0:
242,298,310009,2,0,P|230:236|191:208,1,99.0000030212403,0|0,1:0|0:0,0:0:0:0:
498,234,310270,6,0,P|425:225|298:300,1,180,8|0,0:0|0:0,0:0:0:0:
103,359,310445,6,0,P|246:383|515:203,1,450,0|0,1:0|0:0,0:0:0:0:
281,29,310706,2,0,P|275:91|320:145,1,135.000005149842,0|0,1:0|0:0,0:0:0:0:
481,380,310968,6,0,P|402:282|224:313,1,300,8|0,0:0|0:0,0:0:0:0:
485,68,311142,6,0,L|503:-12,1,81,0|0,3:0|0:0,0:0:0:0:
443,130,312014,6,0,B|389:112|389:112|522:81,1,180,0|0,0:0|0:0,0:0:0:0:
130,355,312538,6,0,B|41:385|-5:311|-5:311|69:239|144:292,1,300,0|0,1:0|0:0,0:0:0:0:
347,293,312799,2,0,B|436:323|482:249|482:249|408:177|333:230,1,300,0|0,1:0|0:0,0:0:0:0:
275,29,313061,6,0,L|71:49,1,200,8|0,0:0|0:0,0:0:0:0:
387,81,313410,6,0,L|356:85,1,18,0|0,1:0|0:0,0:0:0:0:
286,35,313584,6,0,L|82:55,1,200,8|0,0:0|0:0,0:0:0:0:
255,294,313933,6,0,L|261:341,1,36,0|0,1:0|0:0,0:0:0:0:
248,331,314195,2,0,L|243:295,1,36,0|0,1:0|0:0,0:0:0:0:
200,203,314456,6,0,B|248:216|248:216|304:194,1,100,8|0,0:0|0:0,0:0:0:0:
291,180,314631,2,0,B|245:199|245:199|197:186,1,100,0|0,0:0|0:0,0:0:0:0:
240,117,314805,2,0,L|234:13,1,100,0|0,1:0|0:0,0:0:0:0:
401,27,314980,5,8,0:0:0:0:
467,82,315154,1,0,0:0:0:0:
467,82,315241,1,0,0:0:0:0:
467,82,315328,2,0,P|491:174|393:203,1,200,0|0,0:0|0:0,0:0:0:0:
352,337,315590,2,0,P|435:297|409:209,1,200,0|0,1:0|0:0,0:0:0:0:
345,164,315852,2,0,L|228:177,1,100,8|0,0:0|0:0,0:0:0:0:
149,103,316026,1,0,0:0:0:0:
163,92,316113,1,0,0:0:0:0:
152,79,316200,1,0,0:0:0:0:
157,69,316288,1,0,0:0:0:0:
150,62,316375,6,0,B|145:112|145:112|158:163,1,100,8|0,0:0|0:0,0:0:0:0:
162,337,316549,2,0,B|149:288|149:288|154:238,1,100,0|0,0:0|0:0,0:0:0:0:
62,30,316724,6,0,L|17:36,1,33.7500012874604,8|0,0:0|0:0,0:0:0:0:
296,110,316985,6,0,L|230:120,1,45,8|0,0:0|0:0,0:0:0:0:
60,266,317247,6,0,L|-28:278,1,56.25,8|0,0:0|0:0,0:0:0:0:
373,362,317509,6,0,L|280:376,1,67.5000025749208,8|0,0:0|0:0,0:0:0:0:
477,123,317770,6,0,L|7:173,1,450,8|0,0:0|0:0,0:0:0:0:
19,154,318119,6,0,L|63:150,1,36,0|0,1:0|0:0,0:0:0:0:
499,139,318381,2,0,L|463:142,1,36,0|0,1:0|0:0,0:0:0:0:
215,260,318642,6,0,B|261:246|261:246|316:261,1,100,8|0,0:0|0:0,0:0:0:0:
130,314,318817,5,0,0:0:0:0:
138,292,318904,1,0,0:0:0:0:
157,299,318991,1,0,1:0:0:0:
151,318,319078,1,0,0:0:0:0:
215,260,319166,6,0,B|261:246|261:246|316:261,1,100,8|0,0:0|0:0,0:0:0:0:
252,173,319340,1,0,0:0:0:0:
250,158,319427,1,0,0:0:0:0:
157,99,319514,6,0,B|251:129|251:129|345:91,1,200,0|0,1:0|0:0,0:0:0:0:
410,255,319776,6,0,P|403:234|405:212,1,36,0|0,1:0|0:0,0:0:0:0:
512,139,320038,6,0,P|404:163|402:269,1,225,8|0,0:0|0:0,0:0:0:0:
292,361,320212,6,0,L|292:337,1,22.5,0|0,0:0|0:0,0:0:0:0:
284,289,320386,2,0,L|284:311,1,22.5,0|0,0:0|0:0,0:0:0:0:
203,372,320561,6,0,B|288:236|288:236|57:186|57:186|110:324,1,540,8|0,0:0|0:0,0:0:0:0:
414,180,320910,6,0,L|200:129,1,200,0|0,1:0|0:0,0:0:0:0:
124,107,321171,1,0,1:0:0:0:
132,116,321346,5,0,1:0:0:0:
132,116,321433,2,0,L|-5:87,1,100,8|0,0:0|0:0,0:0:0:0:
34,95,321607,6,0,L|208:64,1,150,0|0,0:0|0:0,0:0:0:0:
181,68,321782,2,0,L|205:223,1,150,0|0,1:0|0:0,0:0:0:0:
103,305,321956,6,0,L|131:184,1,100,8|0,0:0|0:0,0:0:0:0:
321,265,322131,2,0,L|272:175,1,100,0|0,0:0|0:0,0:0:0:0:
222,335,322305,6,0,L|218:304,1,27,0|0,1:0|0:0,0:0:0:0:
204,217,322654,5,2,0:0:0:0:
383,35,322828,5,8,0:0:0:0:
383,35,322916,1,0,0:0:0:0:
432,64,323003,1,0,0:0:0:0:
420,123,323090,5,0,0:0:0:0:
420,123,323178,1,2,0:0:0:0:
80,147,323526,6,0,P|67:145|58:149,1,18,0|0,0:0|0:0,0:0:0:0:
44,137,323700,6,0,B|264:69|191:353|458:277,1,450,0|0,1:0|0:0,0:0:0:0:
342,201,323962,6,0,B|351:158|351:158|333:86,1,90,0|0,1:0|0:0,0:0:0:0:
393,105,324224,6,0,L|335:114,1,54,8|0,0:0|0:0,0:0:0:0:
250,35,324573,6,0,B|233:83|233:83|243:138,1,100,0|0,1:0|0:0,0:0:0:0:
189,139,324747,6,0,L|247:130,1,54,8|0,0:0|0:0,0:0:0:0:
446,193,325096,6,0,B|226:125|299:409|32:333,1,450,0|0,1:0|0:0,0:0:0:0:
14,275,325357,5,0,1:0:0:0:
14,275,325619,2,0,B|21:223|21:223|10:166,1,100,8|0,0:0|0:0,0:0:0:0:
130,29,325793,6,0,L|127:57,1,18,0|0,0:0|0:0,0:0:0:0:
128,141,325968,2,0,L|126:123,1,18,0|0,1:0|0:0,0:0:0:0:
208,84,326142,6,0,B|252:90|252:90|267:85|267:85|317:89,1,100,8|0,0:0|0:0,0:0:0:0:
385,90,326317,1,0,0:0:0:0:
403,82,326404,1,0,0:0:0:0:
507,165,326491,6,0,B|287:97|360:381|93:305,1,450,0|0,1:0|0:0,0:0:0:0:
274,330,326753,6,0,P|313:326|371:338,1,90,0|0,1:0|0:0,0:0:0:0:
209,108,327014,6,0,B|223:156|223:156|210:211,1,100,8|0,0:0|0:0,0:0:0:0:
49,198,327189,2,0,B|37:149|37:149|51:101,1,100,0|0,0:0|0:0,0:0:0:0:
138,167,327363,1,0,1:0:0:0:
143,182,327450,1,0,0:0:0:0:
228,203,327538,6,0,B|239:154|239:154|225:106,1,100,8|0,0:0|0:0,0:0:0:0:
31,103,327712,2,0,B|17:151|17:151|28:199,1,100,0|0,0:0|0:0,0:0:0:0:
366,142,327886,6,0,L|475:150,1,90,0|0,1:0|0:0,0:0:0:0:
493,221,328148,1,0,1:0:0:0:
500,228,328323,5,0,1:0:0:0:
500,228,328410,2,0,L|327:214,1,150,8|0,0:0|0:0,0:0:0:0:
372,248,328584,1,0,0:0:0:0:
410,249,328671,1,0,0:0:0:0:
425,263,328759,1,0,1:0:0:0:
463,257,328846,1,0,0:0:0:0:
500,228,328933,6,0,L|-20:189,1,499.499998094559,8|0,0:0|0:0,0:0:0:0:
94,164,329282,6,0,L|213:171,1,90,0|0,1:0|0:0,0:0:0:0:
273,174,329543,2,0,L|183:168,1,90,0|0,1:0|0:0,0:0:0:0:
443,172,329805,6,0,B|452:120|452:120|437:57,1,100,8|0,0:0|0:0,0:0:0:0:
343,126,329980,1,0,0:0:0:0:
361,137,330067,1,0,0:0:0:0:
375,125,330154,1,0,1:0:0:0:
359,113,330241,1,0,3:0:0:0:
274,76,330328,2,0,B|263:121|263:121|272:173,1,100,8|0,0:0|0:0,0:0:0:0:
219,251,330503,1,0,0:0:0:0:
190,251,330590,1,0,0:0:0:0:
150,225,330677,6,0,P|205:314|313:277,1,200,0|0,1:0|0:0,0:0:0:0:
145,149,330939,6,0,L|101:152,1,36,0|0,1:0|0:0,0:0:0:0:
124,231,331200,6,0,P|179:328|300:305,1,225,8|0,0:0|0:0,0:0:0:0:
280,321,331375,6,0,P|304:75|144:82,1,450,0|0,0:0|0:0,0:0:0:0:
32,249,331724,5,8,0:0:0:0:
32,249,332073,6,0,B|124:286|124:286|230:242,1,200,0|0,1:0|0:0,0:0:0:0:
66,166,332334,1,0,1:0:0:0:
72,172,332509,5,0,1:0:0:0:
72,172,332596,2,0,L|74:51,1,100,8|0,0:0|0:0,0:0:0:0:
174,106,332770,1,0,0:0:0:0:
170,89,332857,1,0,0:0:0:0:
176,68,332945,1,0,1:0:0:0:
171,43,333032,1,0,0:0:0:0:
277,32,333119,2,0,L|278:131,1,100,8|0,0:0|0:0,0:0:0:0:
292,152,333293,2,0,L|293:52,1,100,0|0,0:0|0:0,0:0:0:0:
160,213,333468,6,0,B|153:241|153:241|162:281,1,54,0|0,1:0|0:0,0:0:0:0:
17,341,333817,6,0,B|63:336|63:336|73:349|73:349|119:341|119:341|131:353|131:353|202:344,1,180,0|0,0:0|0:0,0:0:0:0:
337,200,333991,5,8,0:0:0:0:
352,213,334427,2,0,B|362:250|362:250|354:297,1,72,8|0,0:0|0:0,0:0:0:0:
316,368,334863,6,0,B|393:357|393:357|494:379|494:379|468:304|468:304|425:292,1,297.000009063721,0|0,1:0|0:0,0:0:0:0:
234,249,335212,2,0,L|242:290,1,33.7500012874604,0|0,3:0|3:0,0:0:0:0:
316,368,335386,2,0,L|308:327,3,33.7500012874604,0|0|0|0,3:0|3:0|3:0|3:0,0:0:0:0:
376,180,335735,6,0,B|351:189|351:189|279:177,1,90,0|0,0:0|0:0,0:0:0:0:
57,148,335910,2,0,B|102:115|102:115|83:241,1,180,8|0,0:0|0:0,0:0:0:0:
78,266,336171,1,0,0:0:0:0:
153,319,336259,6,0,B|185:304|217:324|217:324|249:344|284:331,1,135,0|0,1:0|0:0,0:0:0:0:
348,232,336607,2,0,P|301:237|257:257,1,90,8|0,0:0|0:0,0:0:0:0:
458,356,336782,1,0,0:0:0:0:
447,330,336869,1,0,0:0:0:0:
450,303,336956,1,0,0:0:0:0:
453,276,337043,1,0,0:0:0:0:
424,189,337131,6,0,B|437:146|437:146|467:182,1,90,0|0,1:0|0:0,0:0:0:0:
432,35,337305,2,0,B|391:46|391:46|362:134|362:134|317:144,1,180,8|0,0:0|0:0,0:0:0:0:
284,150,337567,1,0,0:0:0:0:
152,27,337654,6,0,B|66:34|66:34|121:85|121:85|300:68,1,337.5,0|0,1:0|0:0,0:0:0:0:
386,59,338003,2,0,L|296:68,1,90,8|0,0:0|0:0,0:0:0:0:
89,94,338177,5,0,0:0:0:0:
94,129,338264,1,0,0:0:0:0:
191,109,338352,1,0,0:0:0:0:
176,142,338439,1,0,0:0:0:0:
233,205,338526,6,0,P|268:199|299:195,1,67.5000025749208,0|0,1:0|0:0,0:0:0:0:
434,177,338700,1,8,0:0:0:0:
178,317,338875,1,0,0:0:0:0:
162,294,338962,1,0,0:0:0:0:
46,315,339049,6,0,B|77:329|77:329|188:315,1,135,0|0,1:0|0:0,0:0:0:0:
291,272,339398,2,0,P|269:312|272:359,1,90,8|0,0:0|0:0,0:0:0:0:
73,206,339573,2,0,L|64:164,3,33.7500012874604,0|0|0|0,0:0|0:0|0:0|0:0,0:0:0:0:
136,129,339921,6,0,B|162:167|162:167|156:218,1,90,0|0,1:0|0:0,0:0:0:0:
90,349,340096,2,0,B|166:338|166:338|196:354|196:354|268:345,1,180,8|0,0:0|0:0,0:0:0:0:
288,322,340357,1,0,0:0:0:0:
432,356,340445,6,0,B|484:332|500:280|484:232|484:232|360:216|360:216|396:276,1,337.5,0|0,1:0|0:0,0:0:0:0:
432,356,340793,1,8,0:0:0:0:
462,96,340968,1,0,0:0:0:0:
422,117,341055,1,0,0:0:0:0:
377,112,341142,1,0,0:0:0:0:
332,105,341230,1,0,0:0:0:0:
280,32,341317,6,0,B|258:50|258:50|224:54|224:54|193:41,1,90,0|0,1:0|0:0,0:0:0:0:
95,125,341491,2,0,B|117:107|117:107|151:103|151:103|196:124|196:124|215:157|215:157|209:192,1,180,8|0,0:0|0:0,0:0:0:0:
224,215,341753,1,0,0:0:0:0:
136,324,341840,6,0,B|155:290|155:290|142:234|142:234|103:212,1,135,0|0,1:0|0:0,0:0:0:0:
56,288,342189,2,0,P|20:287|50:307,1,90,8|0,0:0|0:0,0:0:0:0:
246,356,342363,5,0,0:0:0:0:
281,350,342450,1,0,0:0:0:0:
318,271,342538,1,0,0:0:0:0:
352,280,342625,1,0,0:0:0:0:
318,271,342712,6,0,P|314:236|309:200,1,67.5000025749208,0|0,1:0|0:0,0:0:0:0:
360,52,342886,2,0,B|304:47|276:17|276:17|260:54|211:74,1,180,8|0,0:0|0:0,0:0:0:0:
176,63,343148,1,0,0:0:0:0:
294,129,343235,6,0,B|336:159|336:159|424:137|424:137|440:101|440:101|506:65|506:65|478:141,1,337.5,0|0,1:0|0:0,0:0:0:0:
430,234,343584,2,0,P|438:278|444:329,1,90,8|0,0:0|0:0,0:0:0:0:
443,322,343759,6,0,L|396:321,1,33.7500012874604,0|0,0:0|0:0,0:0:0:0:
430,234,343933,2,0,L|382:232,1,33.7500012874604,0|0,0:0|0:0,0:0:0:0:
176,190,344107,6,0,B|163:216|163:216|167:293,1,90,0|0,1:0|0:0,0:0:0:0:
69,346,344282,2,0,P|65:259|58:150,1,180,8|0,0:0|0:0,0:0:0:0:
56,129,344543,1,0,0:0:0:0:
183,55,344631,6,0,L|179:124|175:193,1,135,0|0,1:0|0:0,0:0:0:0:
253,277,344980,2,0,B|294:261|294:261|339:267,1,90,8|0,0:0|0:0,0:0:0:0:
149,350,345154,1,0,0:0:0:0:
122,344,345241,1,0,0:0:0:0:
95,338,345328,1,0,0:0:0:0:
69,346,345416,1,0,0:0:0:0:
18,276,345503,6,0,B|31:232|31:232|67:261,1,90,0|0,1:0|0:0,0:0:0:0:
252,277,345677,2,0,B|212:239|212:239|150:234|150:234|103:191,1,180,8|0,0:0|0:0,0:0:0:0:
111,146,345939,1,0,0:0:0:0:
39,35,346026,6,0,P|44:60|48:84,1,45,0|0,1:0|0:0,0:0:0:0:
103,191,346288,6,0,P|106:168|111:146,1,45,0|0,1:0|0:0,0:0:0:0:
427,73,346549,6,0,B|365:106|307:62|307:62|251:16|191:55|191:55|228:80|232:132,1,337.5,8|0,0:0|0:0,0:0:0:0:
306,170,346898,2,0,B|290:210|290:210|337:191,1,90,0|0,1:0|0:0,0:0:0:0:
438,265,347073,5,8,0:0:0:0:
461,277,347160,1,0,0:0:0:0:
450,301,347247,1,0,0:0:0:0:
425,289,347334,1,0,0:0:0:0:
459,166,347421,6,0,P|456:228|449:303,1,135,0|0,1:0|0:0,0:0:0:0:
279,343,347770,2,0,P|329:341|370:341,1,90,8|0,0:0|0:0,0:0:0:0:
368,340,347945,6,0,L|375:293,1,33.7500012874604,0|0,0:0|0:0,0:0:0:0:
186,314,348119,2,0,L|192:361,1,33.7500012874604,0|0,0:0|0:0,0:0:0:0:
326,235,348293,6,0,P|276:237|229:239,1,90,0|0,1:0|0:0,0:0:0:0:
95,336,348468,2,0,B|104:261|104:261|113:194|177:191,1,180,8|0,0:0|0:0,0:0:0:0:
165,159,348730,1,0,0:0:0:0:
186,314,348817,6,0,B|99:338|99:338|24:289|24:289|34:230|34:230|46:178|86:150,1,337.5,0|0,1:0|0:0,0:0:0:0:
109,253,349166,5,8,0:0:0:0:
398,300,349340,1,0,0:0:0:0:
430,293,349427,1,0,0:0:0:0:
411,218,349514,1,0,0:0:0:0:
443,211,349601,1,0,0:0:0:0:
357,148,349689,6,0,P|343:117|339:83,1,67.5000025749208,0|0,1:0|0:0,0:0:0:0:
482,38,349863,2,0,P|475:133|440:215,1,180,8|0,0:0|0:0,0:0:0:0:
411,218,350125,1,0,0:0:0:0:
251,236,350212,6,0,P|190:222|119:210,1,135,0|0,1:0|0:0,0:0:0:0:
182,139,350561,2,0,P|228:137|278:132,1,90,8|0,0:0|0:0,0:0:0:0:
316,54,350735,1,0,0:0:0:0:
402,77,350823,1,0,0:0:0:0:
382,107,350910,1,0,0:0:0:0:
388,142,350997,1,0,0:0:0:0:
411,218,351084,6,0,P|442:242|441:212,1,90,0|0,1:0|0:0,0:0:0:0:
506,132,351259,2,0,P|475:108|476:138,1,90,8|0,0:0|0:0,0:0:0:0:
486,356,351433,5,0,0:0:0:0:
441,350,351520,1,0,0:0:0:0:
408,320,351607,2,0,B|354:317|322:351|322:351|244:346|244:346|208:259|208:259|233:276|272:298,1,337.5,0|0,1:0|0:0,0:0:0:0:
485,264,351956,2,0,B|487:221|487:221|445:243,1,90,8|0,0:0|0:0,0:0:0:0:
313,160,352131,1,0,0:0:0:0:
275,135,352218,1,0,0:0:0:0:
233,152,352305,1,0,0:0:0:0:
271,174,352392,1,0,0:0:0:0:
351,83,352480,6,0,P|355:48|360:12,1,67.5000025749208,0|0,1:0|0:0,0:0:0:0:
73,31,352654,2,0,P|80:116|89:218,1,180,8|0,0:0|0:0,0:0:0:0:
70,244,352916,1,0,0:0:0:0:
280,225,353003,6,0,B|227:266|227:266|160:255,1,135,0|0,1:0|0:0,0:0:0:0:
156,63,353352,2,0,P|199:66|264:70,1,90,8|0,0:0|0:0,0:0:0:0:
335,18,353526,1,0,0:0:0:0:
332,53,353613,1,0,0:0:0:0:
351,83,353700,1,0,0:0:0:0:
439,98,353788,1,0,0:0:0:0:
385,166,353875,6,0,B|394:193|394:193|385:259,1,90,0|0,1:0|0:0,0:0:0:0:
169,145,354049,1,8,0:0:0:0:
472,178,354223,1,0,0:0:0:0:
480,213,354311,1,0,0:0:0:0:
453,290,354398,6,0,B|441:334|441:334|363:355|363:355|301:305|301:305|317:205|317:205|299:168,1,337.5,0|0,1:0|1:0,0:0:0:0:
176,351,354747,6,0,B|211:322|211:322|228:233,1,135.000005149842,8|0,0:0|0:0,0:0:0:0:
227,234,355183,5,0,1:0:0:0:
65,195,355270,2,0,P|71:238|77:289,1,90,0|0,1:0|0:0,0:0:0:0:
190,38,355445,1,8,0:0:0:0:
381,271,355619,1,0,0:0:0:0:
374,235,355706,1,0,0:0:0:0:
367,199,355793,6,0,B|386:87|386:87|464:58|464:58|485:168|485:168|431:148,1,337.5,0|0,1:0|0:0,0:0:0:0:
307,36,356142,6,0,L|285:173,1,135.000005149842,8|0,0:0|0:0,0:0:0:0:
285,169,356317,2,0,L|296:220,3,33.7500012874604,0|0|0|0,0:0|0:0|0:0|0:0,0:0:0:0:
216,100,356666,1,0,1:0:0:0:
58,230,356840,5,0,0:0:0:0:
136,252,356927,5,0,0:0:0:0:
140,223,357014,5,0,3:0:0:0:
69,260,357102,5,0,3:0:0:0:
112,337,357189,6,0,P|144:341|186:326,1,67.5,0|0,1:0|0:0,0:0:0:0:
352,320,357538,6,0,P|288:320|256:192,1,180,8|0,0:0|0:0,0:0:0:0:
288,96,357799,1,0,0:0:0:0:
301,113,357886,1,0,0:0:0:0:
309,134,357973,1,0,0:0:0:0:
311,156,358060,1,0,1:0:0:0:
307,179,358147,1,0,0:0:0:0:
234,151,358235,6,0,L|156:140,1,45,8|0,0:0|0:0,0:0:0:0:
388,172,358410,2,0,L|432:178,1,45,0|0,0:0|0:0,0:0:0:0:
216,136,358584,6,0,L|149:126,1,67.5,0|0,1:0|0:0,0:0:0:0:
28,273,358933,6,0,B|112:300|112:300|188:212,1,180,8|0,0:0|0:0,0:0:0:0:
64,114,359195,2,0,L|86:202,1,90,0|0,0:0|0:0,0:0:0:0:
324,312,359369,5,0,0:0:0:0:
332,304,359456,2,0,B|340:272|340:272|332:224,1,67.5000025749208,0|0,1:0|0:0,0:0:0:0:
171,230,359631,2,0,B|163:262|163:262|171:310,1,67.5000025749208,8|0,0:0|0:0,0:0:0:0:
252,268,359805,1,0,0:0:0:0:
253,254,359892,1,0,0:0:0:0:
260,176,359980,6,0,L|264:104,1,67.5,0|0,1:0|0:0,0:0:0:0:
132,72,360328,6,0,B|180:32|180:32|148:200,1,180,8|0,0:0|0:0,0:0:0:0:
20,268,360590,1,0,0:0:0:0:
8,248,360677,1,0,0:0:0:0:
3,227,360764,1,0,0:0:0:0:
4,204,360851,1,0,1:0:0:0:
12,183,360938,1,0,0:0:0:0:
124,216,361026,6,0,L|79:221,1,45,8|0,0:0|0:0,0:0:0:0:
132,72,361200,2,0,L|176:66,1,45,0|0,0:0|0:0,0:0:0:0:
136,228,361375,6,0,L|66:236,1,67.5,0|0,1:0|0:0,0:0:0:0:
228,244,361724,6,0,B|284:256|328:208|328:208|328:276|424:284,1,180,8|0,0:0|0:0,0:0:0:0:
488,199,361985,2,0,P|446:184|408:204,1,90,0|0,0:0|0:0,0:0:0:0:
256,164,362160,1,0,0:0:0:0:
258,147,362247,1,0,1:0:0:0:
260,130,362334,1,0,0:0:0:0:
224,60,362421,6,0,B|268:48|268:48|347:86,1,90,8|0,0:0|0:0,0:0:0:0:
292,234,362596,2,0,B|248:246|248:246|169:208,1,90,0|0,0:0|0:0,0:0:0:0:
372,136,362770,6,0,L|476:120,1,101.250003862381,0|0,1:0|0:0,0:0:0:0:
496,203,363119,6,0,P|436:219|372:135,1,180,8|0,0:0|0:0,0:0:0:0:
388,56,363381,1,0,0:0:0:0:
392,48,363468,2,0,P|423:16|467:8,1,90,0|0,0:0|0:0,0:0:0:0:
272,192,363642,6,0,L|260:128,1,45,0|0,1:0|0:0,0:0:0:0:
189,126,363817,6,0,B|221:54|297:90|297:90|305:134|233:162,1,202.500007724762,8|0,0:0|0:0,0:0:0:0:
133,186,364166,6,0,P|105:134|121:78,1,101.250003862381,0|0,1:0|0:0,0:0:0:0:
189,126,364514,6,0,L|177:318,1,180,8|0,0:0|0:0,0:0:0:0:
20,296,364776,1,0,0:0:0:0:
20,296,364863,2,0,P|58:268|136:307,1,90,0|0,0:0|0:0,0:0:0:0:
292,318,365038,6,0,L|240:326,1,33.7500012874604,0|0,1:0|0:0,0:0:0:0:
188,370,365212,6,0,P|176:338|188:278,1,67.5000025749208,8|0,0:0|0:0,0:0:0:0:
362,271,365386,2,0,P|374:303|362:363,1,67.5000025749208,0|0,0:0|0:0,0:0:0:0:
256,200,365561,6,0,L|244:96,1,101.250003862381,0|0,1:0|0:0,0:0:0:0:
384,40,365910,6,0,B|267:21|267:21|315:37|315:89,1,180,8|0,0:0|0:0,0:0:0:0:
472,16,366171,1,0,0:0:0:0:
472,16,366259,2,0,L|456:124,1,90,0|0,0:0|0:0,0:0:0:0:
428,308,366433,6,0,L|434:263,1,45,0|0,1:0|0:0,0:0:0:0:
460,192,366607,6,0,P|416:184|376:236,1,78.7500007510185,8|0,0:0|0:0,0:0:0:0:
308,168,366782,2,0,P|261:159|218:214,1,90,0|0,0:0|0:0,0:0:0:0:
147,149,366956,6,0,P|100:140|60:200,1,101.250003862381,0|0,1:0|0:0,0:0:0:0:
227,291,367305,6,0,B|269:242|228:184|228:184|211:224|180:228,1,180,8|0,0:0|0:0,0:0:0:0:
140,93,367567,1,0,0:0:0:0:
141,104,367654,2,0,L|149:172,1,45,0|0,0:0|0:0,0:0:0:0:
63,174,367828,6,0,L|43:82,1,67.5000025749208,0|0,1:0|0:0,0:0:0:0:
240,72,368003,6,0,L|234:161,1,90,8|0,0:0|0:0,0:0:0:0:
141,104,368177,5,0,0:0:0:0:
140,93,368264,1,0,0:0:0:0:
154,181,368352,6,0,L|167:270,1,90,0|0,1:0|0:0,0:0:0:0:
100,336,368613,6,0,P|48:272|84:200,1,135.000005149842,0|0,1:0|0:0,0:0:0:0:
260,164,368875,5,8,0:0:0:0:
260,164,368962,2,0,P|303:237|255:308,1,180,0|0,0:0|0:0,0:0:0:0:
167,270,369224,2,0,L|151:154,1,90,0|0,1:0|0:0,0:0:0:0:
96,96,369398,6,0,P|136:78|184:83,1,90,8|0,0:0|0:0,0:0:0:0:
296,24,369573,2,0,P|331:50|351:93,1,90,0|0,0:0|0:0,0:0:0:0:
458,161,369747,6,0,P|456:216|416:256,1,101.250003862381,0|0,1:0|0:0,0:0:0:0:
304,252,370096,6,0,B|276:224|276:200|276:200|292:220|292:304|208:316,1,180,8|0,0:0|0:0,0:0:0:0:
114,251,370357,2,0,B|79:219|79:219|151:187|203:235,1,180,0|0,0:0|0:0,0:0:0:0:
128,332,370619,1,0,1:0:0:0:
128,332,370706,1,0,0:0:0:0:
128,332,370793,6,0,P|94:331|64:317,1,67.5000025749208,8|0,0:0|0:0,0:0:0:0:
260,120,370968,2,0,P|293:120|323:134,1,67.5000025749208,0|0,0:0|0:0,0:0:0:0:
114,251,371142,6,0,P|86:219|98:155,1,101.250003862381,0|0,1:0|0:0,0:0:0:0:
168,88,371491,6,0,L|16:76,1,135.000005149842,8|0,0:0|0:0,0:0:0:0:
196,248,371753,1,0,0:0:0:0:
196,248,371840,2,0,L|204:160,1,67.5000025749208,0|0,0:0|0:0,0:0:0:0:
186,8,372014,6,0,P|134:12|94:84,1,90,0|0,1:0|0:0,0:0:0:0:
292,232,372189,2,0,P|328:148|264:56,1,180,8|0,0:0|0:0,0:0:0:0:
40,160,372450,1,0,0:0:0:0:
40,160,372538,6,0,L|28:268,1,101.250003862381,0|0,1:0|0:0,0:0:0:0:
196,340,372886,6,0,P|164:268|208:188,1,135.000005149842,8|0,0:0|0:0,0:0:0:0:
88,320,373148,1,0,0:0:0:0:
88,320,373235,2,0,P|44:344|-20:324,1,67.5000025749208,0|0,0:0|0:0,0:0:0:0:
252,272,373410,2,0,P|284:276|352:252,1,67.5000025749208,0|0,1:0|0:0,0:0:0:0:
28,260,373584,6,0,L|0:172,1,90,8|0,0:0|0:0,0:0:0:0:
284,192,373759,2,0,L|280:100,1,90,0|0,0:0|0:0,0:0:0:0:
116,40,373933,6,0,B|123:83|123:83|137:107|137:107|135:133|135:133|145:176,1,135,0|0,1:0|0:0,0:0:0:0:
188,316,374282,6,0,B|188:284|220:260|220:260|168:228|112:256|104:316,1,180,8|0,0:0|0:0,0:0:0:0:
272,332,374543,1,0,0:0:0:0:
272,332,374631,2,0,P|308:296|368:320,1,90,0|0,0:0|0:0,0:0:0:0:
428,352,374805,6,0,L|420:300,1,33.7500012874604,0|0,1:0|0:0,0:0:0:0:
320,152,374980,6,0,B|308:184|308:184|316:236,1,67.5000025749208,8|0,0:0|0:0,0:0:0:0:
480,228,375154,6,0,P|444:192|384:216,1,90,0|0,0:0|0:0,0:0:0:0:
156,160,375328,6,0,P|252:152|268:44,1,180,0|0,1:0|0:0,0:0:0:0:
191,25,375590,1,0,0:0:0:0:
191,25,375677,2,0,L|200:92,1,67.5000025749208,8|0,0:0|0:0,0:0:0:0:
234,321,375852,5,0,0:0:0:0:
236,340,375939,2,0,L|224:251,1,90,0|0,0:0|0:0,0:0:0:0:
92,96,376113,1,0,0:0:0:0:
92,96,376200,6,0,P|68:144|92:212,1,90,0|0,1:0|0:0,0:0:0:0:
336,180,376375,2,0,P|344:116|300:56,1,135.000005149842,8|0,0:0|0:0,0:0:0:0:
120,252,376549,6,0,P|180:288|296:220,1,180,0|0,0:0|0:0,0:0:0:0:
236,16,376724,6,0,L|120:8,1,101.250003862381,0|0,1:0|0:0,0:0:0:0:
248,32,377073,6,0,L|132:24,1,90,8|0,0:0|0:0,0:0:0:0:
260,48,377334,6,0,L|144:40,1,78.7500007510185,0|0,0:0|0:0,0:0:0:0:
108,332,377509,1,0,0:0:0:0:
112,336,377596,2,0,P|156:332|196:288,1,78.7500007510185,0|0,3:0|0:0,0:0:0:0:
144,120,377770,6,0,B|112:108|96:67|96:67|121:137|104:186|104:186|130:217|130:217|124:241|122:265,1,270,8|0,0:0|0:0,0:0:0:0:
344,148,378119,6,0,L|210:169,1,135.000005149842,0|0,3:0|0:0,0:0:0:0:
200,184,378381,6,0,L|284:170,1,67.5000025749208,2|0,0:0|0:0,0:0:0:0:
424,124,378642,6,0,L|420:180,1,33.7500012874604,0|0,0:0|0:0,0:0:0:0:
412,264,378817,2,0,L|413:241,5,22.5000008583069,0|0|0|0|0|0,0:0|0:0|0:0|0:0|0:0|0:0,0:0:0:0:
412,276,379166,6,0,L|411:287,10,11.2500004291535,0|0|0|0|0|0|0|0|0|0|0,0:0|0:0|0:0|0:0|0:0|0:0|0:0|0:0|0:0|0:0|0:0,0:0:0:0:
405,363,379514,5,0,0:0:0:0:
