osu file format v14

[General]
AudioFilename: audio.mp3
AudioLeadIn: 0
PreviewTime: -1
Countdown: 0
SampleSet: None
StackLeniency: 0.7
Mode: 0
LetterboxInBreaks: 0
WidescreenStoryboard: 0

[Editor]
DistanceSpacing: 0.4
BeatDivisor: 4
GridSize: 4
TimelineZoom: 1

[Metadata]
Title:BDM Deluxe - Kodigo vs Dref Killah
TitleUnicode:BDM Deluxe - Kodigo vs Dref Killah
Artist:Kodigo vs Dref Killah
ArtistUnicode:Kodigo vs Dref Killah
Creator:Linkel
Version:AR9 TEMPO
Source:
Tags:
BeatmapID:1067834
BeatmapSetID:501792

[Difficulty]
HPDrainRate:7
CircleSize:4
OverallDifficulty:7
ApproachRate:9
SliderMultiplier:1.4
SliderTickRate:1

[Events]
//Background and Video events
//Break Periods
2,51350,58050
2,175625,192375
//Storyboard Layer 0 (Background)
//Storyboard Layer 1 (Fail)
//Storyboard Layer 2 (Pass)
//Storyboard Layer 3 (Foreground)
//Storyboard Sound Samples

[TimingPoints]
0,300,4,2,0,100,1,0

[HitObjects]
256,192,46199,12,0,47624,0:0:0:0:
156,136,49875,5,0,0:0:0:0:
212,160,50249,1,0,0:0:0:0:
248,176,50699,1,0,0:0:0:0:
300,176,51150,1,0,0:0:0:0:
80,120,58650,5,0,0:0:0:0:
124,200,58950,1,0,0:0:0:0:
256,148,59250,1,0,0:0:0:0:
92,80,59625,1,0,0:0:0:0:
248,216,59925,1,0,0:0:0:0:
220,60,60225,1,0,0:0:0:0:
124,188,60600,1,0,0:0:0:0:
380,168,61050,1,0,0:0:0:0:
376,40,61425,1,0,0:0:0:0:
440,188,61725,1,0,0:0:0:0:
340,280,62175,5,0,0:0:0:0:
80,124,62550,1,0,0:0:0:0:
412,140,62850,1,0,0:0:0:0:
240,272,63225,1,0,0:0:0:0:
224,68,63525,1,0,0:0:0:0:
92,128,63975,1,0,0:0:0:0:
300,204,64275,1,0,0:0:0:0:
144,184,64650,1,0,0:0:0:0:
356,52,65025,1,0,0:0:0:0:
368,236,65400,1,0,0:0:0:0:
140,212,65700,5,0,0:0:0:0:
352,124,66000,1,0,0:0:0:0:
124,80,66375,1,0,0:0:0:0:
188,240,66675,1,0,0:0:0:0:
380,180,67050,1,0,0:0:0:0:
184,88,67275,1,0,0:0:0:0:
204,240,67650,1,0,0:0:0:0:
368,180,68025,1,0,0:0:0:0:
212,144,68250,1,0,0:0:0:0:
272,252,68550,1,0,0:0:0:0:
180,208,69075,5,0,0:0:0:0:
400,152,69375,1,0,0:0:0:0:
152,104,69750,1,0,0:0:0:0:
236,240,70050,1,0,0:0:0:0:
260,88,70350,1,0,0:0:0:0:
300,236,70725,1,0,0:0:0:0:
172,168,71025,1,0,0:0:0:0:
352,144,71400,1,0,0:0:0:0:
344,276,71700,1,0,0:0:0:0:
192,292,72000,2,0,L|136:308,1,35
68,244,72450,5,0,0:0:0:0:
24,180,72750,1,0,0:0:0:0:
48,92,73050,1,0,0:0:0:0:
260,88,73350,1,0,0:0:0:0:
340,256,73725,1,0,0:0:0:0:
432,116,74025,1,0,0:0:0:0:
172,184,74400,1,0,0:0:0:0:
260,288,74775,1,0,0:0:0:0:
292,108,75075,2,0,L|232:100,1,35
120,80,75375,1,0,0:0:0:0:
128,252,75675,5,0,0:0:0:0:
380,172,76050,1,0,0:0:0:0:
240,84,76425,1,0,0:0:0:0:
260,264,76725,1,0,0:0:0:0:
128,188,77100,1,0,0:0:0:0:
344,140,77400,1,0,0:0:0:0:
316,264,77775,1,0,0:0:0:0:
160,164,77925,1,0,0:0:0:0:
256,144,78150,1,0,0:0:0:0:
332,144,78225,2,0,L|388:192,1,70
268,220,78975,5,0,0:0:0:0:
104,192,79350,1,0,0:0:0:0:
328,124,79725,1,0,0:0:0:0:
184,168,80025,1,0,0:0:0:0:
204,240,80175,1,0,0:0:0:0:
276,272,80400,1,0,0:0:0:0:
328,132,80775,1,0,0:0:0:0:
264,88,81000,1,0,0:0:0:0:
220,104,81075,1,0,0:0:0:0:
216,192,81375,1,0,0:0:0:0:
328,216,81750,5,0,0:0:0:0:
236,284,82050,1,0,0:0:0:0:
116,204,82425,1,0,0:0:0:0:
348,136,82725,1,0,0:0:0:0:
308,236,83100,1,0,0:0:0:0:
168,128,83475,1,0,0:0:0:0:
372,124,83775,1,0,0:0:0:0:
328,240,84075,1,0,0:0:0:0:
276,92,84375,1,0,0:0:0:0:
240,212,84675,1,0,0:0:0:0:
144,128,85050,5,0,0:0:0:0:
124,240,85425,1,0,0:0:0:0:
244,248,85725,1,0,0:0:0:0:
288,152,86025,1,0,0:0:0:0:
360,224,86400,1,0,0:0:0:0:
180,184,86700,1,0,0:0:0:0:
392,132,87000,1,0,0:0:0:0:
196,160,87300,1,0,0:0:0:0:
232,268,87600,1,0,0:0:0:0:
336,112,87900,1,0,0:0:0:0:
152,100,88275,5,0,0:0:0:0:
344,224,88500,1,0,0:0:0:0:
216,196,89100,1,0,0:0:0:0:
412,116,89400,1,0,0:0:0:0:
128,124,89775,1,0,0:0:0:0:
228,256,90075,1,0,0:0:0:0:
280,96,90375,1,0,0:0:0:0:
208,216,90675,1,0,0:0:0:0:
356,252,91050,1,0,0:0:0:0:
220,168,91350,1,0,0:0:0:0:
340,184,91650,5,0,0:0:0:0:
216,264,91950,1,0,0:0:0:0:
120,192,92250,1,0,0:0:0:0:
372,184,92550,1,0,0:0:0:0:
260,248,92850,1,0,0:0:0:0:
232,92,93150,1,0,0:0:0:0:
388,128,93450,1,0,0:0:0:0:
104,160,93750,1,0,0:0:0:0:
352,228,94125,1,0,0:0:0:0:
172,292,94500,1,0,0:0:0:0:
404,204,94800,5,0,0:0:0:0:
212,128,95100,1,0,0:0:0:0:
392,72,95475,1,0,0:0:0:0:
160,216,95775,1,0,0:0:0:0:
280,264,96150,1,0,0:0:0:0:
268,124,96450,1,0,0:0:0:0:
124,128,96750,1,0,0:0:0:0:
332,196,97125,1,0,0:0:0:0:
172,176,97425,1,0,0:0:0:0:
184,280,97725,1,0,0:0:0:0:
328,144,97950,5,0,0:0:0:0:
208,112,98175,1,0,0:0:0:0:
108,108,98400,1,0,0:0:0:0:
80,188,98550,1,0,0:0:0:0:
116,272,98925,1,0,0:0:0:0:
312,220,99450,1,0,0:0:0:0:
172,128,99825,1,0,0:0:0:0:
368,120,100125,1,0,0:0:0:0:
188,248,100425,1,0,0:0:0:0:
80,136,100725,1,0,0:0:0:0:
292,116,101100,5,0,0:0:0:0:
288,236,101325,1,0,0:0:0:0:
164,132,101700,1,0,0:0:0:0:
352,104,102075,1,0,0:0:0:0:
260,244,102375,1,0,0:0:0:0:
136,164,102675,1,0,0:0:0:0:
300,136,103050,1,0,0:0:0:0:
288,268,103350,1,0,0:0:0:0:
416,176,103650,1,0,0:0:0:0:
216,168,103950,1,0,0:0:0:0:
400,152,104250,5,0,0:0:0:0:
376,272,104550,1,0,0:0:0:0:
204,168,104850,1,0,0:0:0:0:
96,88,105225,1,0,0:0:0:0:
144,256,105600,1,0,0:0:0:0:
328,204,105900,1,0,0:0:0:0:
304,80,106200,1,0,0:0:0:0:
152,132,106425,1,0,0:0:0:0:
244,248,106800,1,0,0:0:0:0:
400,152,107100,1,0,0:0:0:0:
228,96,107400,5,0,0:0:0:0:
328,240,107700,1,0,0:0:0:0:
180,200,108000,1,0,0:0:0:0:
368,160,108225,1,0,0:0:0:0:
240,232,108450,1,0,0:0:0:0:
220,100,108750,1,0,0:0:0:0:
312,116,108975,1,0,0:0:0:0:
232,172,109275,1,0,0:0:0:0:
328,204,109650,1,0,0:0:0:0:
192,192,109875,1,0,0:0:0:0:
260,188,110100,5,0,0:0:0:0:
128,192,110400,1,0,0:0:0:0:
320,208,110700,1,0,0:0:0:0:
164,236,111075,1,0,0:0:0:0:
228,92,111300,1,0,0:0:0:0:
376,144,111675,1,0,0:0:0:0:
324,240,111975,1,0,0:0:0:0:
172,192,112275,1,0,0:0:0:0:
356,176,112575,1,0,0:0:0:0:
192,260,112875,1,0,0:0:0:0:
292,148,113250,5,0,0:0:0:0:
128,152,113550,1,0,0:0:0:0:
324,216,113925,1,0,0:0:0:0:
244,140,114225,1,0,0:0:0:0:
152,168,114525,1,0,0:0:0:0:
160,236,114825,1,0,0:0:0:0:
312,240,115125,1,0,0:0:0:0:
396,144,115425,1,0,0:0:0:0:
340,68,115725,1,0,0:0:0:0:
204,64,115950,1,0,0:0:0:0:
164,200,116325,5,0,0:0:0:0:
248,264,116625,1,0,0:0:0:0:
352,212,116925,1,0,0:0:0:0:
244,184,117225,1,0,0:0:0:0:
376,152,117525,1,0,0:0:0:0:
112,152,117825,1,0,0:0:0:0:
364,224,118125,1,0,0:0:0:0:
228,292,118350,1,0,0:0:0:0:
264,124,118575,1,0,0:0:0:0:
120,112,118800,1,0,0:0:0:0:
156,208,119025,5,0,0:0:0:0:
360,236,119250,1,0,0:0:0:0:
176,108,119700,1,0,0:0:0:0:
360,160,120075,1,0,0:0:0:0:
156,228,120375,1,0,0:0:0:0:
288,272,120750,1,0,0:0:0:0:
128,148,121050,1,0,0:0:0:0:
384,128,121425,1,0,0:0:0:0:
204,256,121650,1,0,0:0:0:0:
216,68,121950,1,0,0:0:0:0:
344,224,122250,5,0,0:0:0:0:
140,184,122550,1,0,0:0:0:0:
368,144,122850,1,0,0:0:0:0:
276,264,123150,1,0,0:0:0:0:
192,144,123450,1,0,0:0:0:0:
336,164,123750,1,0,0:0:0:0:
196,244,123975,1,0,0:0:0:0:
256,124,124275,1,0,0:0:0:0:
372,168,124575,1,0,0:0:0:0:
360,264,124950,1,0,0:0:0:0:
184,236,125250,5,0,0:0:0:0:
60,188,125700,1,0,0:0:0:0:
48,124,126000,1,0,0:0:0:0:
48,52,126300,1,0,0:0:0:0:
92,32,126600,1,0,0:0:0:0:
200,40,126900,1,0,0:0:0:0:
320,100,127200,1,0,0:0:0:0:
380,204,127500,1,0,0:0:0:0:
348,272,127800,1,0,0:0:0:0:
160,240,128175,1,0,0:0:0:0:
360,148,128475,5,0,0:0:0:0:
144,132,128775,1,0,0:0:0:0:
328,244,129075,1,0,0:0:0:0:
204,112,129450,1,0,0:0:0:0:
380,96,129750,1,0,0:0:0:0:
196,236,130050,1,0,0:0:0:0:
264,92,130425,1,0,0:0:0:0:
336,236,130725,1,0,0:0:0:0:
140,144,131025,1,0,0:0:0:0:
364,128,131325,1,0,0:0:0:0:
156,176,131625,5,0,0:0:0:0:
288,228,132000,1,0,0:0:0:0:
136,256,132300,1,0,0:0:0:0:
312,160,132600,1,0,0:0:0:0:
112,152,132900,1,0,0:0:0:0:
280,248,133200,1,0,0:0:0:0:
372,120,133575,1,0,0:0:0:0:
172,132,133875,1,0,0:0:0:0:
248,264,134175,1,0,0:0:0:0:
372,192,134475,1,0,0:0:0:0:
216,144,134850,5,0,0:0:0:0:
208,280,135150,1,0,0:0:0:0:
104,268,135450,1,0,0:0:0:0:
56,200,135750,1,0,0:0:0:0:
60,128,136050,1,0,0:0:0:0:
228,176,136350,1,0,0:0:0:0:
312,264,136650,1,0,0:0:0:0:
352,136,137025,1,0,0:0:0:0:
168,136,137325,1,0,0:0:0:0:
192,276,137625,1,0,0:0:0:0:
376,204,137925,5,0,0:0:0:0:
112,176,138225,1,0,0:0:0:0:
360,176,138450,1,0,0:0:0:0:
96,240,138675,1,0,0:0:0:0:
344,272,138900,1,0,0:0:0:0:
232,124,139125,1,0,0:0:0:0:
132,208,139500,1,0,0:0:0:0:
232,276,139875,1,0,0:0:0:0:
384,184,140175,1,0,0:0:0:0:
256,80,140550,1,0,0:0:0:0:
332,248,140850,5,0,0:0:0:0:
152,216,141150,1,0,0:0:0:0:
368,160,141525,1,0,0:0:0:0:
280,288,141825,1,0,0:0:0:0:
144,184,142125,1,0,0:0:0:0:
360,168,142425,1,0,0:0:0:0:
340,288,142800,1,0,0:0:0:0:
216,156,143100,1,0,0:0:0:0:
352,120,143400,1,0,0:0:0:0:
240,224,143700,1,0,0:0:0:0:
104,176,144000,5,0,0:0:0:0:
360,192,144150,1,0,0:0:0:0:
136,256,144525,1,0,0:0:0:0:
284,132,144900,1,0,0:0:0:0:
296,252,145200,1,0,0:0:0:0:
124,164,145575,1,0,0:0:0:0:
328,156,145875,1,0,0:0:0:0:
260,272,146175,1,0,0:0:0:0:
120,216,146325,1,0,0:0:0:0:
320,188,146550,1,0,0:0:0:0:
272,280,146850,5,0,0:0:0:0:
140,192,147150,1,0,0:0:0:0:
352,120,147450,1,0,0:0:0:0:
292,280,147750,1,0,0:0:0:0:
136,184,148050,1,0,0:0:0:0:
372,172,148275,1,0,0:0:0:0:
176,284,148500,1,0,0:0:0:0:
192,112,148725,1,0,0:0:0:0:
300,272,148950,1,0,0:0:0:0:
180,212,149100,1,0,0:0:0:0:
320,204,149400,5,0,0:0:0:0:
184,256,149850,1,0,0:0:0:0:
76,164,150225,1,0,0:0:0:0:
320,160,150600,1,0,0:0:0:0:
288,272,150900,1,0,0:0:0:0:
160,144,151275,1,0,0:0:0:0:
324,144,151575,1,0,0:0:0:0:
324,264,151875,1,0,0:0:0:0:
184,184,152175,1,0,0:0:0:0:
364,196,152550,1,0,0:0:0:0:
320,320,152850,5,0,0:0:0:0:
344,136,153150,1,0,0:0:0:0:
380,268,153450,1,0,0:0:0:0:
160,232,153675,1,0,0:0:0:0:
352,140,153900,1,0,0:0:0:0:
256,256,154125,1,0,0:0:0:0:
240,316,154275,1,0,0:0:0:0:
148,120,154500,1,0,0:0:0:0:
312,208,154800,1,0,0:0:0:0:
324,288,155100,1,0,0:0:0:0:
140,212,155400,5,0,0:0:0:0:
328,116,155700,1,0,0:0:0:0:
340,248,156000,1,0,0:0:0:0:
172,160,156300,1,0,0:0:0:0:
332,92,156600,1,0,0:0:0:0:
280,252,156900,1,0,0:0:0:0:
220,140,157200,1,0,0:0:0:0:
364,172,157500,1,0,0:0:0:0:
344,284,157800,1,0,0:0:0:0:
224,208,158100,1,0,0:0:0:0:
392,176,158325,5,0,0:0:0:0:
264,300,158550,1,0,0:0:0:0:
112,192,158775,1,0,0:0:0:0:
232,136,159000,1,0,0:0:0:0:
404,260,159225,1,0,0:0:0:0:
200,144,159525,1,0,0:0:0:0:
352,148,159900,1,0,0:0:0:0:
192,248,160200,1,0,0:0:0:0:
96,136,160500,1,0,0:0:0:0:
320,104,160800,1,0,0:0:0:0:
304,256,161100,5,0,0:0:0:0:
168,152,161400,1,0,0:0:0:0:
340,152,161700,1,0,0:0:0:0:
328,296,162000,1,0,0:0:0:0:
208,204,162300,1,0,0:0:0:0:
296,124,162600,1,0,0:0:0:0:
300,288,162900,1,0,0:0:0:0:
160,188,163200,1,0,0:0:0:0:
356,168,163575,1,0,0:0:0:0:
344,288,163800,1,0,0:0:0:0:
160,188,164025,1,0,0:0:0:0:
336,120,164175,1,0,0:0:0:0:
344,248,164400,1,0,0:0:0:0:
192,252,164700,1,0,0:0:0:0:
140,116,165075,1,0,0:0:0:0:
292,64,165375,1,0,0:0:0:0:
304,220,165750,1,0,0:0:0:0:
464,184,166050,1,0,0:0:0:0:
408,304,166425,1,0,0:0:0:0:
400,112,166725,1,0,0:0:0:0:
224,140,167025,5,0,0:0:0:0:
116,180,167325,1,0,0:0:0:0:
164,312,167625,1,0,0:0:0:0:
384,236,167925,1,0,0:0:0:0:
196,108,168225,1,0,0:0:0:0:
300,276,168600,1,0,0:0:0:0:
376,144,168825,1,0,0:0:0:0:
172,200,169050,1,0,0:0:0:0:
356,264,169275,1,0,0:0:0:0:
228,156,169500,1,0,0:0:0:0:
352,148,169875,5,0,0:0:0:0:
260,264,170175,1,0,0:0:0:0:
256,192,170850,12,0,175425,0:0:0:0:
176,288,192975,5,0,0:0:0:0:
216,204,193350,5,0,0:0:0:0:
328,200,193575,1,0,0:0:0:0:
120,212,193800,1,0,0:0:0:0:
304,144,194025,1,0,0:0:0:0:
288,296,194250,1,0,0:0:0:0:
116,168,194475,1,0,0:0:0:0:
328,152,194700,1,0,0:0:0:0:
232,280,194925,1,0,0:0:0:0:
176,176,195150,1,0,0:0:0:0:
272,164,195300,1,0,0:0:0:0:
356,236,195525,5,0,0:0:0:0:
128,224,195825,1,0,0:0:0:0:
328,124,196050,1,0,0:0:0:0:
272,268,196275,1,0,0:0:0:0:
192,132,196500,1,0,0:0:0:0:
336,132,196650,1,0,0:0:0:0:
308,264,196800,1,0,0:0:0:0:
124,192,197025,1,0,0:0:0:0:
272,96,197325,1,0,0:0:0:0:
328,200,197550,1,0,0:0:0:0:
140,196,197775,5,0,0:0:0:0:
360,144,198000,1,0,0:0:0:0:
344,224,198225,1,0,0:0:0:0:
232,124,198450,1,0,0:0:0:0:
356,132,198750,1,0,0:0:0:0:
288,288,198975,1,0,0:0:0:0:
168,176,199200,1,0,0:0:0:0:
368,152,199425,1,0,0:0:0:0:
232,216,199650,1,0,0:0:0:0:
216,36,199875,1,0,0:0:0:0:
344,232,200100,5,0,0:0:0:0:
144,208,200400,1,0,0:0:0:0:
376,120,200625,1,0,0:0:0:0:
272,276,200850,1,0,0:0:0:0:
200,112,201150,1,0,0:0:0:0:
376,204,201375,1,0,0:0:0:0:
216,272,201600,1,0,0:0:0:0:
208,144,201825,1,0,0:0:0:0:
324,108,202050,1,0,0:0:0:0:
364,284,202275,1,0,0:0:0:0:
180,208,202500,5,0,0:0:0:0:
424,148,202725,1,0,0:0:0:0:
116,168,202950,1,0,0:0:0:0:
304,240,203250,1,0,0:0:0:0:
232,104,203475,1,0,0:0:0:0:
72,148,203775,1,0,0:0:0:0:
260,240,204000,1,0,0:0:0:0:
332,132,204225,1,0,0:0:0:0:
100,120,204450,1,0,0:0:0:0:
196,240,204675,1,0,0:0:0:0:
136,140,204900,5,0,0:0:0:0:
252,152,205125,1,0,0:0:0:0:
316,236,205350,1,0,0:0:0:0:
360,176,205575,1,0,0:0:0:0:
328,296,205950,1,0,0:0:0:0:
164,152,206100,1,0,0:0:0:0:
356,156,206250,1,0,0:0:0:0:
188,296,206400,1,0,0:0:0:0:
256,84,206550,1,0,0:0:0:0:
328,296,206700,1,0,0:0:0:0:
164,152,206850,5,0,0:0:0:0:
356,156,207000,1,0,0:0:0:0:
188,296,207150,1,0,0:0:0:0:
256,84,207300,1,0,0:0:0:0:
328,296,207450,1,0,0:0:0:0:
164,152,207600,1,0,0:0:0:0:
356,156,207750,1,0,0:0:0:0:
188,296,207900,1,0,0:0:0:0:
256,84,208050,5,0,0:0:0:0:
328,296,208200,1,0,0:0:0:0:
164,152,208350,1,0,0:0:0:0:
356,156,208500,1,0,0:0:0:0:
188,296,208650,1,0,0:0:0:0:
256,84,208800,1,0,0:0:0:0:
328,296,208950,1,0,0:0:0:0:
164,152,209100,1,0,0:0:0:0:
356,156,209250,1,0,0:0:0:0:
188,296,209400,1,0,0:0:0:0:
256,84,209550,5,0,0:0:0:0:
328,296,209700,1,0,0:0:0:0:
164,152,209850,1,0,0:0:0:0:
356,156,210000,1,0,0:0:0:0:
188,296,210150,1,0,0:0:0:0:
256,84,210300,1,0,0:0:0:0:
116,280,210450,1,0,0:0:0:0:
328,288,210600,1,0,0:0:0:0:
236,112,210750,1,0,0:0:0:0:
328,288,210900,1,0,0:0:0:0:
112,288,211050,5,0,0:0:0:0:
236,112,211200,1,0,0:0:0:0:
412,152,211350,1,0,0:0:0:0:
256,32,211500,1,0,0:0:0:0:
96,152,211650,1,0,0:0:0:0:
260,320,211800,1,0,0:0:0:0:
412,152,211950,1,0,0:0:0:0:
256,32,212100,1,0,0:0:0:0:
96,152,212250,1,0,0:0:0:0:
260,320,212400,5,0,0:0:0:0:
412,152,212550,1,0,0:0:0:0:
256,32,212700,1,0,0:0:0:0:
96,152,212850,1,0,0:0:0:0:
260,320,213000,1,0,0:0:0:0:
412,152,213150,1,0,0:0:0:0:
256,32,213300,1,0,0:0:0:0:
96,152,213450,1,0,0:0:0:0:
260,320,213600,1,0,0:0:0:0:
412,152,213750,1,0,0:0:0:0:
256,32,213900,5,0,0:0:0:0:
96,152,214050,1,0,0:0:0:0:
260,320,214200,1,0,0:0:0:0:
412,152,214350,1,0,0:0:0:0:
256,32,214500,1,0,0:0:0:0:
96,152,214650,1,0,0:0:0:0:
260,320,214800,1,0,0:0:0:0:
412,152,214950,1,0,0:0:0:0:
256,32,215100,1,0,0:0:0:0:
96,152,215250,5,0,0:0:0:0:
260,320,215400,1,0,0:0:0:0:
72,88,215550,1,0,0:0:0:0:
400,192,215700,1,0,0:0:0:0:
80,312,215850,1,0,0:0:0:0:
72,88,216000,1,0,0:0:0:0:
420,64,216150,1,0,0:0:0:0:
232,304,216300,1,0,0:0:0:0:
96,240,216450,1,0,0:0:0:0:
212,176,216600,1,0,0:0:0:0:
232,304,216750,5,0,0:0:0:0:
96,240,216900,1,0,0:0:0:0:
212,176,217050,1,0,0:0:0:0:
232,304,217200,1,0,0:0:0:0:
96,240,217350,1,0,0:0:0:0:
212,176,217500,1,0,0:0:0:0:
232,304,217650,1,0,0:0:0:0:
96,240,217800,1,0,0:0:0:0:
212,176,217950,1,0,0:0:0:0:
232,304,218100,1,0,0:0:0:0:
96,240,218250,5,0,0:0:0:0:
404,168,218850,5,0,0:0:0:0:
164,164,219300,1,0,0:0:0:0:
312,236,219525,1,0,0:0:0:0:
232,92,219825,1,0,0:0:0:0:
112,152,220050,1,0,0:0:0:0:
144,304,220350,1,0,0:0:0:0:
352,276,220575,1,0,0:0:0:0:
364,132,220800,1,0,0:0:0:0:
188,152,221025,1,0,0:0:0:0:
256,288,221250,1,0,0:0:0:0:
372,228,221475,5,0,0:0:0:0:
280,88,221775,1,0,0:0:0:0:
112,152,222000,1,0,0:0:0:0:
224,264,222225,1,0,0:0:0:0:
356,248,222450,1,0,0:0:0:0:
384,96,222750,1,0,0:0:0:0:
160,180,222975,1,0,0:0:0:0:
264,308,223200,1,0,0:0:0:0:
312,192,223425,1,0,0:0:0:0:
196,112,223725,1,0,0:0:0:0:
152,268,223950,5,0,0:0:0:0:
332,268,224250,1,0,0:0:0:0:
296,112,224475,1,0,0:0:0:0:
248,272,224700,1,0,0:0:0:0:
136,132,225000,1,0,0:0:0:0:
364,176,225300,1,0,0:0:0:0:
356,296,225600,1,0,0:0:0:0:
144,288,225825,1,0,0:0:0:0:
212,144,226050,1,0,0:0:0:0:
312,260,226275,1,0,0:0:0:0:
128,240,226725,5,0,0:0:0:0:
304,164,226950,1,0,0:0:0:0:
320,240,227175,1,0,0:0:0:0:
252,288,227400,1,0,0:0:0:0:
144,148,227625,1,0,0:0:0:0:
380,92,227850,1,0,0:0:0:0:
368,232,228150,1,0,0:0:0:0:
216,204,228375,1,0,0:0:0:0:
272,136,228525,1,0,0:0:0:0:
240,288,228675,1,0,0:0:0:0:
108,252,228825,5,0,0:0:0:0:
96,100,228975,1,0,0:0:0:0:
312,176,229125,1,0,0:0:0:0:
384,280,229350,1,0,0:0:0:0:
348,116,229500,1,0,0:0:0:0:
244,84,229650,1,0,0:0:0:0:
188,256,229875,1,0,0:0:0:0:
232,328,230025,1,0,0:0:0:0:
72,180,230250,1,0,0:0:0:0:
304,152,230475,1,0,0:0:0:0:
360,268,230700,5,0,0:0:0:0:
