osu file format v14

[General]
AudioFilename: audio.mp3
AudioLeadIn: 0
PreviewTime: 56177
Countdown: 0
SampleSet: Soft
StackLeniency: 0.7
Mode: 0
LetterboxInBreaks: 0
WidescreenStoryboard: 1

[Editor]
DistanceSpacing: 1
BeatDivisor: 4
GridSize: 4
TimelineZoom: 2.999999

[Metadata]
Title:Mikansei Stride
TitleUnicode:未完成ストライド
Artist:Kodama Saori
ArtistUnicode:こだまさおり
Creator:ImAplayerMapper
Version:Normal
Source:氷菓
Tags:Hyouka Opening 2
BeatmapID:1480384
BeatmapSetID:694098

[Difficulty]
HPDrainRate:4
CircleSize:3.3
OverallDifficulty:4
ApproachRate:5
SliderMultiplier:1.2
SliderTickRate:1

[Events]
//Background and Video events
0,0,"Hyouka.jpg",0,0
Video,0,"Hyouka OP2 Full - Mikansei Stride (convert-video-online.com).mp4"
//Break Periods
//Storyboard Layer 0 (Background)
//Storyboard Layer 1 (Fail)
//Storyboard Layer 2 (Pass)
//Storyboard Layer 3 (Foreground)
//Storyboard Sound Samples

[TimingPoints]
1108.9873690846,410.958904109589,4,2,3,50,1,0
7684,-100,4,2,3,65,0,0
14259,-100,4,2,2,40,0,0
27410,-100,4,2,3,55,0,0
40561,-100,4,2,2,35,0,0
40561,-100,4,2,2,45,0,0
50424,-100,4,2,3,50,0,0
56999,-100,4,2,3,75,0,1
70150,-100,4,2,3,75,0,1
83300,-100,4,2,3,65,0,0
86588,-100,4,2,2,40,0,0
87204,-100,4,2,2,35,0,0
87204,-100,4,2,3,35,0,0
87821,-100,4,2,2,30,0,0
88437,-100,4,2,3,25,0,0
89054,-100,4,2,3,20,0,0
89465,-100,4,2,3,70,0,0

[Colours]
Combo1 : 255,0,0
Combo2 : 0,0,255
Combo3 : 0,255,0
Combo4 : 128,64,0
Combo5 : 128,0,255
Combo6 : 0,0,0

[HitObjects]
324,300,7684,6,0,L|458:282,2,120,4|8|0,0:0|0:0|0:0,0:0:0:0:
210,258,8917,2,0,L|197:193,1,60,8|0,0:0|0:0,0:0:0:0:
234,151,9328,2,0,L|357:132,2,120,0|8|0,0:0|0:0|0:0,0:0:0:0:
114,135,10561,2,0,L|97:64,1,60,8|0,0:0|0:0,0:0:0:0:
127,23,10972,6,0,L|249:0,2,120,0|8|0,0:0|0:0|0:0,0:0:0:0:
14,65,12204,1,8,0:0:0:0:
24,184,12615,2,0,P|115:312|161:173,1,360,0|8,0:0|0:0,0:0:0:0:
136,70,14259,6,0,P|196:62|259:82,1,120,6|2,0:0|0:0,0:0:0:0:
292,123,14876,1,0,0:0:0:0:
324,173,15081,2,0,L|312:306,1,120,2|2,0:0|0:0,0:0:0:0:
270,334,15698,1,0,0:0:0:0:
219,366,15903,2,0,P|162:371|84:336,2,120,2|2|2,0:0|0:0|0:0,0:0:0:0:
181,251,17136,2,0,L|189:181,1,60,2|0,0:0|0:0,0:0:0:0:
224,143,17547,6,0,P|280:129|345:142,1,120,2|2,0:0|0:0,0:0:0:0:
386,178,18163,1,0,0:0:0:0:
417,229,18369,2,0,P|421:295|395:355,1,120,2|2,0:0|0:0,0:0:0:0:
286,376,19191,2,0,L|151:332,2,120,2|2|2,0:0|0:0|0:0,0:0:0:0:
311,258,20424,1,2,0:0:0:0:
267,146,20835,6,0,B|216:136|216:136|135:152,1,120,2|2,0:0|0:0,0:0:0:0:
98,181,21451,1,0,0:0:0:0:
56,224,21656,2,0,L|73:348,1,120,2|2,0:0|0:0,0:0:0:0:
189,369,22478,2,0,B|253:372|253:372|316:345,1,120,2|2,0:0|0:0,0:0:0:0:
354,316,23095,1,0,0:0:0:0:
392,270,23300,2,0,L|367:143,1,120,2|2,0:0|0:0,0:0:0:0:
287,63,24122,6,0,P|226:57|164:85,1,120,2|2,0:0|0:0,0:0:0:0:
98,172,24944,2,0,P|96:241|122:289,1,120,2|2,0:0|0:0,0:0:0:0:
218,351,25766,2,0,P|279:357|341:329,2,120,2|2|2,0:0|0:0|0:0,0:0:0:0:
259,237,26999,1,2,0:0:0:0:
371,196,27410,6,0,L|403:68,1,120,2|8,0:0|0:0,0:0:0:0:
361,33,28026,1,0,0:0:0:0:
303,50,28232,2,0,L|176:59,1,120,0|8,0:0|0:0,0:0:0:0:
77,116,29054,2,0,P|72:178|93:255,1,120,0|8,0:0|0:0,0:0:0:0:
117,283,29670,1,0,0:0:0:0:
162,322,29876,2,0,P|224:327|301:306,1,120,0|8,0:0|0:0,0:0:0:0:
372,237,30698,6,0,L|346:106,1,120,0|8,0:0|0:0,0:0:0:0:
316,68,31314,1,0,0:0:0:0:
262,41,31519,2,0,L|138:56,1,120,0|8,0:0|0:0,0:0:0:0:
95,93,32136,1,0,0:0:0:0:
59,141,32341,2,0,L|79:268,2,120,0|8|0,0:0|0:0|0:0,0:0:0:0:
163,201,33574,2,0,L|173:266,1,60,8|0,0:0|0:0,0:0:0:0:
207,308,33985,6,0,P|266:314|331:290,1,120,0|8,0:0|0:0,0:0:0:0:
364,251,34602,1,0,0:0:0:0:
397,201,34807,2,0,L|378:74,1,120,0|8,0:0|0:0,0:0:0:0:
265,42,35629,2,0,L|281:168,1,120,0|8,0:0|0:0,0:0:0:0:
259,217,36245,1,0,0:0:0:0:
218,261,36451,2,0,P|161:279|75:269,1,120,0|8,0:0|0:0,0:0:0:0:
51,243,37067,1,0,0:0:0:0:
5,203,37273,6,0,L|-15:23,2,180,0|0|8,0:0|0:0|0:0,0:0:0:0:
95,135,38917,1,0,0:0:0:0:
182,217,39328,1,8,0:0:0:0:
279,146,39739,2,0,L|404:152,1,120,0|8,0:0|0:0,0:0:0:0:
484,236,40561,6,0,P|460:326|388:369,2,180,6|2|2,0:0|0:0|0:0,0:0:0:0:
364,248,42204,2,0,P|385:156|461:120,2,180,2|2|2,0:0|0:0|0:0,0:0:0:0:
249,210,43848,6,0,P|225:299|150:343,2,180,2|2|2,0:0|0:0|0:0,0:0:0:0:
128,217,45492,2,0,L|94:86,1,120,2|0,0:0|0:0,0:0:0:0:
128,48,46108,2,0,L|253:15,1,120,2|0,0:0|0:0,0:0:0:0:
299,40,46725,2,0,L|328:110,1,60,2|0,0:0|0:0,0:0:0:0:
351,148,47136,6,0,B|374:194|374:194|359:323,2,180,2|2|2,0:0|0:0|0:0,0:0:0:0:
253,218,48780,2,0,B|230:172|230:172|245:43,2,180,2|2|2,0:0|0:0|0:0,0:0:0:0:
205,328,50424,6,0,L|79:301,1,120,2|2,0:0|0:0,0:0:0:0:
43,261,51040,1,0,0:0:0:0:
21,205,51245,2,0,L|64:80,1,120,2|2,0:0|0:0,0:0:0:0:
106,53,51862,2,0,P|164:56|235:87,1,120
290,176,52684,1,0,0:0:0:0:
309,232,52889,2,0,L|286:354,1,120,2|2,0:0|0:0,0:0:0:0:
395,298,53711,6,0,L|418:176,1,120,2|2,0:0|0:0,0:0:0:0:
391,125,54328,1,0,0:0:0:0:
348,83,54533,2,0,L|215:61,2,120,2|2|2,0:0|0:0|0:0,0:0:0:0:
229,63,56999,6,0,P|196:108|197:184,1,120,4|8,0:0|0:0,0:0:0:0:
225,220,57615,1,0,0:0:0:0:
268,261,57821,2,0,P|326:273|385:249,1,120,0|8,0:0|0:0,0:0:0:0:
428,214,58437,1,0,0:0:0:0:
468,169,58643,6,0,L|446:39,1,120,0|8,0:0|0:0,0:0:0:0:
335,8,59465,2,0,P|304:7|264:19,1,60
231,53,59876,2,0,P|195:57|157:52,1,60,8|0,0:0|0:0,0:0:0:0:
113,39,60287,2,0,L|126:170,1,120,0|8,0:0|0:0,0:0:0:0:
146,276,61108,2,0,P|178:289|228:293,1,60
255,264,61519,1,8,0:0:0:0:
342,181,61930,2,0,P|409:179|477:205,1,120,0|8,0:0|0:0,0:0:0:0:
439,313,62752,2,0,P|409:304|379:304,1,60
334,342,63163,2,0,P|308:351|262:351,1,60,8|0,0:0|0:0,0:0:0:0:
218,333,63574,6,0,B|175:338|175:338|94:311,1,120,4|8,0:0|0:0,0:0:0:0:
52,279,64191,1,0,0:0:0:0:
18,228,64396,2,0,L|37:98,1,120,0|8,0:0|0:0,0:0:0:0:
73,62,65013,1,0,0:0:0:0:
123,30,65218,6,0,B|160:23|160:23|256:37,1,120,0|8,0:0|0:0,0:0:0:0:
352,80,66040,2,0,P|360:108|355:138,1,60
322,188,66451,2,0,P|316:222|322:252,1,60,8|0,0:0|0:0,0:0:0:0:
334,305,66862,2,0,P|286:338|220:343,1,120,0|8,0:0|0:0,0:0:0:0:
183,301,67478,2,0,L|167:156,2,120
137,340,68506,2,0,P|73:334|25:294,1,120,0|8,0:0|0:0,0:0:0:0:
39,181,69328,2,0,P|75:187|99:184,1,60
153,161,69739,2,0,P|198:150|230:151,1,60,8|0,0:0|0:0,0:0:0:0:
271,157,70150,6,0,P|329:167|396:137,1,120,4|8,0:0|0:0,0:0:0:0:
429,105,70766,2,0,P|474:152|473:222,1,120
447,255,71382,1,8,0:0:0:0:
407,300,71588,2,0,L|283:319,1,120
229,305,72204,2,0,L|153:317,1,60,8|0,0:0|0:0,0:0:0:0:
79,235,72821,2,0,L|95:154,1,60,0|8,0:0|0:0,0:0:0:0:
115,121,73232,6,0,P|157:92|243:89,2,120
202,204,74465,1,0,0:0:0:0:
317,170,74876,2,0,P|352:129|355:52,1,120
313,25,75492,2,0,L|240:27,1,60,8|0,0:0|0:0,0:0:0:0:
224,79,75903,2,0,L|152:80,1,60
138,134,76314,2,0,L|67:134,1,60,8|0,0:0|0:0,0:0:0:0:
26,164,76725,6,0,P|2:218|6:284,2,120,4|8|0,0:0|0:0|0:0,0:0:0:0:
121,237,77958,1,8,0:0:0:0:
170,269,78163,2,0,P|229:278|291:261,1,120
333,225,78780,1,8,0:0:0:0:
369,177,78985,2,0,P|378:114|355:50,1,120
316,21,79602,1,8,0:0:0:0:
257,7,79807,6,0,L|135:31,1,120
99,75,80424,1,8,0:0:0:0:
65,124,80629,2,0,L|88:244,1,120
135,278,81245,1,8,0:0:0:0:
189,302,81451,2,0,L|306:274,1,120
391,189,82273,2,0,P|404:129|395:67,1,120
351,31,82889,2,0,L|271:29,1,60
234,51,83300,6,0,L|223:182,1,120,4|0,0:0|0:0,0:0:0:0:
257,220,83917,2,0,L|246:348,1,120,4|0,0:0|0:0,0:0:0:0:
192,365,84533,2,0,P|137:353|66:362,1,120,4|0,0:0|0:0,0:0:0:0:
27,320,85150,2,0,L|38:192,1,120,4|0,0:0|0:0,0:0:0:0:
93,178,85766,2,0,P|148:190|219:181,1,120,4|0,0:0|0:0,0:0:0:0:
278,84,86588,5,2,0:0:0:0:
255,262,87204,1,2,0:0:0:0:
386,138,87821,1,2,0:0:0:0:
361,316,88437,1,0,0:0:0:0:
491,191,89054,1,0,0:0:0:0:
484,310,89465,5,0,0:0:0:0:
