osu file format v14

[General]
AudioFilename: audio.mp3
AudioLeadIn: 0
PreviewTime: 56177
Countdown: 0
SampleSet: Soft
StackLeniency: 0.7
Mode: 0
LetterboxInBreaks: 0
WidescreenStoryboard: 1

[Editor]
DistanceSpacing: 1
BeatDivisor: 3
GridSize: 4
TimelineZoom: 2.999999

[Metadata]
Title:Mikansei Stride
TitleUnicode:未完成ストライド
Artist:Kodama Saori
ArtistUnicode:こだまさおり
Creator:ImAplayerMapper
Version:Hard
Source:氷菓
Tags:Hyouka Opening 2
BeatmapID:1474352
BeatmapSetID:694098

[Difficulty]
HPDrainRate:5
CircleSize:3.5
OverallDifficulty:5
ApproachRate:7.2
SliderMultiplier:1.5
SliderTickRate:1

[Events]
//Background and Video events
0,0,"Hyouka.jpg",0,0
Video,0,"Hyouka OP2 Full - Mikansei Stride (convert-video-online.com).mp4"
//Break Periods
//Storyboard Layer 0 (Background)
//Storyboard Layer 1 (Fail)
//Storyboard Layer 2 (Pass)
//Storyboard Layer 3 (Foreground)
//Storyboard Sound Samples

[TimingPoints]
1108.9873690846,410.958904109589,4,2,3,50,1,0
3985,-83.3333333333333,4,2,3,50,0,0
4293,-83.3333333333333,4,2,3,10,0,0
4396,-100,4,2,3,50,0,0
7684,-100,4,2,3,65,0,0
14259,-111.111111111111,4,2,2,40,0,0
27410,-111.111111111111,4,2,3,55,0,0
37684,-111.111111111111,4,2,3,55,0,0
40561,-125,4,2,2,45,0,0
40561,-125,4,2,2,35,0,0
50424,-117.647058823529,4,2,3,50,0,0
56172,-83.3333333333333,4,2,3,60,0,0
56999,-100,4,2,3,75,0,1
69328,-83.3333333333333,4,2,3,75,0,1
70047,-66.6666666666667,4,2,3,50,0,0
70150,-100,4,2,3,75,0,1
83300,-100,4,2,3,65,0,0
86451,-100,4,2,3,25,0,0
86588,-100,4,2,2,40,0,0
87204,-100,4,2,3,35,0,0
87204,-100,4,2,2,35,0,0
87821,-100,4,2,2,30,0,0
88437,-100,4,2,3,25,0,0
89054,-100,4,2,3,20,0,0
89465,-100,4,2,3,70,0,0

[Colours]
Combo1 : 255,0,0
Combo2 : 0,0,255
Combo3 : 0,255,0
Combo4 : 128,64,0
Combo5 : 128,0,255
Combo6 : 0,0,0

[HitObjects]
341,257,1108,6,0,L|363:348,2,75
159,123,2136,2,0,L|137:32,2,75
341,257,3985,2,0,P|296:280|208:261,1,134.999995880127
183,245,4396,6,0,P|144:240|107:246,2,75
362,108,5424,2,0,P|401:113|438:107,2,75
234,28,6245,1,0,0:0:0:0:
234,28,6451,2,0,L|249:114,1,75
262,213,6862,2,0,L|238:246,2,37.5
352,145,7273,2,0,L|385:169,2,37.5
362,257,7684,6,0,P|366:302|358:340,1,75,4|0,0:0|0:0,0:0:0:0:
255,372,8095,2,0,L|163:364,1,75,8|0,0:0|0:0,0:0:0:0:
112,275,8506,2,0,L|204:283,1,75
33,220,8917,2,0,P|21:256|22:296,1,75,8|0,0:0|0:0,0:0:0:0:
129,185,9328,6,0,P|139:100|108:24,1,150,0|8,0:0|0:0,0:0:0:0:
230,51,9944,1,0,0:0:0:0:
230,51,10150,2,0,P|265:37|316:40,1,75
325,146,10561,2,0,P|290:160|239:157,1,75,8|0,0:0|0:0,0:0:0:0:
399,82,10972,6,0,P|429:124|432:162,1,75
384,247,11382,2,0,L|484:243,1,75,8|0,0:0|0:0,0:0:0:0:
399,339,11793,2,0,L|317:344,1,75
228,269,12204,2,0,P|207:304|202:338,1,75,8|0,0:0|0:0,0:0:0:0:
122,256,12615,6,0,L|139:217,3,37.5
63,182,13026,2,0,L|83:139,3,37.5,8|0|0|0,0:0|0:0|0:0|0:0,0:0:0:0:
117,75,13437,1,0,0:0:0:0:
254,136,13643,2,0,L|294:135,2,37.5,0|0|8,0:0|0:0|0:0,0:0:0:0:
369,40,14054,1,0,0:0:0:0:
369,40,14156,1,0,0:0:0:0:
369,40,14259,6,0,L|445:40,1,67.4999979400635,6|0,0:0|0:0,0:0:0:0:
401,120,14670,2,0,L|325:120,1,67.4999979400635,2|0,0:0|0:0,0:0:0:0:
372,198,15081,2,0,L|448:198,1,67.4999979400635,2|0,0:0|0:0,0:0:0:0:
499,261,15492,1,2,0:0:0:0:
499,261,15698,6,0,L|500:356,1,67.4999979400635,0|2,0:0|0:0,0:0:0:0:
417,359,16108,2,0,L|416:283,1,67.4999979400635,0|2,0:0|0:0,0:0:0:0:
333,262,16519,2,0,B|301:280|301:280|199:281,1,134.999995880127
128,233,17136,1,2,0:0:0:0:
103,148,17341,1,0,0:0:0:0:
42,212,17547,6,0,P|42:258|49:287,1,67.4999979400635,2|0,0:0|0:0,0:0:0:0:
91,354,17958,1,2,0:0:0:0:
91,354,18163,2,0,L|166:356,1,67.4999979400635,0|2,0:0|0:0,0:0:0:0:
231,306,18574,1,0,0:0:0:0:
313,336,18780,1,2,0:0:0:0:
313,336,18985,6,0,L|312:188,1,134.999995880127
308,112,19602,1,2,0:0:0:0:
381,159,19807,2,0,L|455:171,1,67.4999979400635,0|2,0:0|0:0,0:0:0:0:
489,92,20218,2,0,L|415:80,1,67.4999979400635,0|2,0:0|0:0,0:0:0:0:
360,18,20629,1,0,0:0:0:0:
279,53,20835,6,0,B|246:49|246:49|199:58,1,67.4999979400635,2|0,0:0|0:0,0:0:0:0:
183,152,21245,2,0,B|216:156|216:156|263:147,1,67.4999979400635,2|0,0:0|0:0,0:0:0:0:
116,69,21656,1,2,0:0:0:0:
61,154,21862,1,0,0:0:0:0:
125,231,22067,1,2,0:0:0:0:
68,315,22273,6,0,L|140:329,1,67.4999979400635,0|2,0:0|0:0,0:0:0:0:
191,243,22684,2,0,L|119:229,1,67.4999979400635,0|2,0:0|0:0,0:0:0:0:
239,325,23095,2,0,P|281:272|268:189,1,134.999995880127
198,145,23711,1,2,0:0:0:0:
198,145,23917,1,0,0:0:0:0:
296,142,24122,6,0,L|275:218,1,67.4999979400635,2|0,0:0|0:0,0:0:0:0:
374,175,24533,2,0,L|395:99,1,67.4999979400635,2|0,0:0|0:0,0:0:0:0:
462,183,24944,2,0,L|441:259,1,67.4999979400635,2|0,0:0|0:0,0:0:0:0:
359,304,25355,1,2,0:0:0:0:
359,304,25561,6,0,L|284:286,1,67.4999979400635,0|2,0:0|0:0,0:0:0:0:
192,300,25972,1,0,0:0:0:0:
192,300,26177,2,0,L|165:371,1,67.4999979400635,2|0,0:0|0:0,0:0:0:0:
83,307,26588,1,2,0:0:0:0:
129,217,26793,1,0,0:0:0:0:
53,149,26999,1,2,0:0:0:0:
117,70,27204,1,0,0:0:0:0:
117,70,27307,1,0,0:0:0:0:
117,70,27410,6,0,P|146:60|193:53,1,67.4999979400635,4|0,0:0|0:0,0:0:0:0:
289,67,27821,1,8,0:0:0:0:
362,145,28026,2,0,L|356:217,1,67.4999979400635
278,287,28437,1,0,0:0:0:0:
255,181,28643,1,8,0:0:0:0:
353,233,28848,6,0,L|491:233,1,134.999995880127
432,318,29465,2,0,L|351:318,1,67.4999979400635,8|0,0:0|0:0,0:0:0:0:
278,287,29876,1,0,0:0:0:0:
191,350,30081,2,0,L|176:278,1,67.4999979400635,0|8,0:0|0:0,0:0:0:0:
91,217,30492,1,0,0:0:0:0:
141,121,30698,6,0,P|174:109|223:111,1,67.4999979400635
291,173,31108,1,8,0:0:0:0:
363,92,31314,2,0,L|341:18,1,67.4999979400635
447,58,31725,2,0,L|470:125,1,67.4999979400635,0|8,0:0|0:0,0:0:0:0:
418,209,32136,1,0,0:0:0:0:
418,209,32341,6,0,L|426:355,1,134.999995880127,0|8,0:0|0:0,0:0:0:0:
330,327,32958,2,0,L|325:230,1,67.4999979400635
322,164,33369,1,0,0:0:0:0:
227,216,33574,1,8,0:0:0:0:
230,107,33780,1,0,0:0:0:0:
230,107,33882,1,0,0:0:0:0:
230,107,33985,6,0,B|220:70|220:70|230:32,1,67.4999979400635
327,1,34396,1,8,0:0:0:0:
421,52,34602,2,0,B|431:89|431:89|421:127,1,67.4999979400635
338,184,35013,1,0,0:0:0:0:
423,117,35218,1,8,0:0:0:0:
483,198,35424,1,0,0:0:0:0:
410,267,35629,6,0,P|351:292|280:278,1,134.999995880127,0|8,0:0|0:0,0:0:0:0:
207,211,36245,1,0,0:0:0:0:
113,250,36451,2,0,P|79:263|39:258,2,67.4999979400635,0|0|8,0:0|0:0|0:0,0:0:0:0:
72,155,37067,1,0,0:0:0:0:
118,64,37273,6,0,B|156:54|156:54|262:62,1,134.999995880127,0|8,0:0|0:0,0:0:0:0:
359,88,37889,1,0,0:0:0:0:
359,88,38095,2,0,L|348:163,1,67.4999979400635
258,213,38506,1,8,0:0:0:0:
208,117,38711,1,0,0:0:0:0:
123,184,38917,6,0,L|106:262,1,67.4999979400635
160,344,39328,2,0,L|245:355,1,67.4999979400635,8|0,0:0|0:0,0:0:0:0:
332,327,39739,1,0,0:0:0:0:
436,353,39944,1,0,0:0:0:0:
506,270,40150,2,0,L|512:229,2,33.7499989700318,10|2|2,0:0|0:0|0:0,0:0:0:0:
506,270,40561,6,0,P|448:251|382:260,1,120,2|0,0:0|0:0,0:0:0:0:
390,257,41382,2,0,L|400:188,1,60
330,148,41793,2,0,L|320:215,1,60
248,163,42204,6,0,L|261:28,1,120,2|0,0:0|0:0,0:0:0:0:
171,24,42821,1,0,0:0:0:0:
171,24,43026,2,0,P|134:35|103:59,1,60
119,128,43437,2,0,P|156:117|187:93,1,60
45,89,43848,6,0,P|35:138|71:197,1,120,2|0,0:0|0:0,0:0:0:0:
134,240,44465,2,0,L|203:237,1,60
260,278,44876,2,0,L|334:276,1,60
392,248,45287,1,0,0:0:0:0:
392,248,45492,6,0,B|403:184|403:184|379:116,1,120,2|0,0:0|0:0,0:0:0:0:
311,66,46108,2,0,B|300:130|300:130|324:198,1,120,2|0,0:0|0:0,0:0:0:0:
318,181,46725,1,2,0:0:0:0:
152,206,47136,6,0,P|119:256|121:340,1,120,2|0,0:0|0:0,0:0:0:0:
114,314,47958,2,0,P|142:318|177:315,1,60
248,292,48369,2,0,P|277:289|307:293,1,60
386,322,48780,6,0,L|389:190,1,120,2|0,0:0|0:0,0:0:0:0:
388,202,49602,1,0,0:0:0:0:
325,137,49807,1,0,0:0:0:0:
295,222,50013,1,0,0:0:0:0:
233,156,50218,1,0,0:0:0:0:
166,241,50424,6,0,L|90:252,1,63.7500012159348,6|0,0:0|0:0,0:0:0:0:
32,176,50835,2,0,L|108:165,1,63.7500012159348,2|0,0:0|0:0,0:0:0:0:
142,76,51245,2,0,L|66:87,1,63.7500012159348,2|0,0:0|0:0,0:0:0:0:
198,10,51656,1,2,0:0:0:0:
198,10,51862,2,0,L|271:1,1,63.7500012159348,0|2,0:0|0:0,0:0:0:0:
327,71,52273,6,0,L|408:61,1,63.7500012159348,0|2,0:0|0:0,0:0:0:0:
472,113,52684,1,0,0:0:0:0:
472,113,52889,2,0,P|485:156|489:186,1,63.7500012159348,2|0,0:0|0:0,0:0:0:0:
393,193,53300,2,0,P|390:232|377:263,1,63.7500012159348,2|0,0:0|0:0,0:0:0:0:
287,236,53711,6,0,P|262:289|201:335,1,127.50000243187,2|2,0:0|0:0,0:0:0:0:
113,339,54328,1,0,0:0:0:0:
47,270,54533,2,0,L|50:199,1,63.7500012159348,2|0,0:0|0:0,0:0:0:0:
134,161,54944,2,0,L|131:232,1,63.7500012159348,2|0,0:0|0:0,0:0:0:0:
59,126,55355,6,0,L|47:76,3,31.8750006079674
89,65,55766,2,0,L|79:30,3,31.8750006079674
192,39,56177,2,0,L|243:47,2,44.999998626709
301,118,56588,2,0,L|399:132,1,89.999997253418
440,205,56896,1,0,0:0:0:0:
440,205,56999,6,0,P|438:278|346:283,1,150,4|8,0:0|0:0,0:0:0:0:
236,238,57615,2,0,P|199:221|141:219,1,75
86,326,58026,2,0,P|123:343|181:345,1,75,0|8,0:0|0:0,0:0:0:0:
80,235,58437,1,0,0:0:0:0:
181,143,58643,6,0,L|163:227,1,75
74,116,59054,2,0,L|92:32,1,75,8|0,0:0|0:0,0:0:0:0:
221,13,59465,1,0,0:0:0:0:
181,143,59670,1,0,0:0:0:0:
306,93,59876,1,8,0:0:0:0:
296,227,60081,1,0,0:0:0:0:
415,162,60287,6,0,P|442:195|457:235,1,75
379,336,60698,1,8,0:0:0:0:
379,336,60903,1,0,0:0:0:0:
296,227,61108,2,0,L|201:235,1,75
89,207,61519,1,8,0:0:0:0:
89,207,61725,2,0,P|84:244|103:295,1,75
221,234,62136,5,0,0:0:0:0:
196,366,62341,2,0,P|236:369|289:354,1,75,8|0,0:0|0:0,0:0:0:0:
345,250,62752,2,0,L|390:224,2,37.5
459,321,63163,1,8,0:0:0:0:
460,185,63369,1,0,0:0:0:0:
417,57,63574,6,0,L|338:67,1,75,4|0,0:0|0:0,0:0:0:0:
214,22,63985,1,8,0:0:0:0:
168,149,64191,2,0,L|250:133,1,75
367,183,64602,1,0,0:0:0:0:
279,285,64807,2,0,L|183:312,1,75,8|0,0:0|0:0,0:0:0:0:
88,239,65218,6,0,P|65:200|54:145,1,75
136,81,65629,2,0,P|159:120|170:175,1,75,8|0,0:0|0:0,0:0:0:0:
39,69,66040,1,0,0:0:0:0:
56,171,66245,1,0,0:0:0:0:
136,81,66451,1,8,0:0:0:0:
171,177,66656,1,0,0:0:0:0:
263,77,66862,6,0,B|300:73|300:73|350:79,1,75
462,129,67273,1,8,0:0:0:0:
462,129,67478,2,0,L|455:222,1,75
338,252,67889,2,0,L|348:165,1,75,0|8,0:0|0:0,0:0:0:0:
444,288,68300,1,0,0:0:0:0:
444,288,68506,6,0,P|420:329|390:350,1,75
231,280,68917,2,0,P|255:321|285:342,1,75,8|0,0:0|0:0,0:0:0:0:
338,252,69225,1,0,0:0:0:0:
338,252,69328,2,0,L|346:166,2,44.999998626709
259,110,69739,2,0,L|163:123,1,89.999997253418,8|0,0:0|0:0,0:0:0:0:
58,106,70047,1,0,0:0:0:0:
58,106,70150,6,0,P|93:37|163:7,1,150,4|8,0:0|0:0,0:0:0:0:
195,164,70766,1,0,0:0:0:0:
55,211,70972,2,0,P|87:277|153:309,1,150,0|8,0:0|0:0,0:0:0:0:
281,239,71588,1,0,0:0:0:0:
434,336,71793,6,0,L|442:234,1,75
376,124,72204,2,0,L|371:210,1,75,8|0,0:0|0:0,0:0:0:0:
275,314,72615,2,0,L|282:229,1,75
282,88,73026,1,8,0:0:0:0:
371,198,73232,1,0,0:0:0:0:
225,163,73437,6,0,L|148:161,1,75
29,251,73848,2,0,L|116:253,1,75,8|0,0:0|0:0,0:0:0:0:
220,348,74259,2,0,L|137:348,1,75
225,195,74670,1,8,0:0:0:0:
315,346,74876,1,0,0:0:0:0:
315,346,75081,6,0,P|352:315|368:277,1,75
309,151,75492,1,8,0:0:0:0:
364,291,75698,1,0,0:0:0:0:
402,185,75903,1,0,0:0:0:0:
264,243,76108,1,0,0:0:0:0:
257,55,76314,1,8,0:0:0:0:
309,151,76519,1,0,0:0:0:0:
361,50,76725,6,0,L|441:58,1,75,4|0,0:0|0:0,0:0:0:0:
402,185,77136,2,0,L|453:251,1,75,8|0,0:0|0:0,0:0:0:0:
264,243,77547,2,0,L|235:323,1,75
79,332,77958,1,8,0:0:0:0:
141,196,78163,2,0,L|159:271,1,75
36,180,78574,5,0,0:0:0:0:
158,268,78780,1,8,0:0:0:0:
201,124,78985,2,0,L|290:115,1,75
425,103,79396,1,0,0:0:0:0:
345,230,79602,1,8,0:0:0:0:
453,333,79807,2,0,L|367:343,1,75
237,289,80218,5,0,0:0:0:0:
361,205,80424,1,8,0:0:0:0:
258,96,80629,2,0,L|162:106,1,75
34,126,81040,1,0,0:0:0:0:
157,210,81245,1,8,0:0:0:0:
74,335,81451,2,0,L|164:325,1,75
270,221,81862,6,0,L|230:294,1,75,0|8,0:0|0:0,0:0:0:0:
157,210,82273,2,0,L|143:160,2,37.5
211,111,82684,2,0,L|220:152,2,37.5,0|0|8,0:0|0:0|0:0,0:0:0:0:
296,120,83095,1,0,0:0:0:0:
296,120,83198,1,0,0:0:0:0:
296,120,83300,6,0,B|317:237|317:237|282:225,1,150,4|0,0:0|0:0,0:0:0:0:
399,244,83917,2,0,B|378:127|378:127|413:139,1,150,4|0,0:0|0:0,0:0:0:0:
490,213,84533,2,0,P|488:275|419:339,1,150,4|0,0:0|0:0,0:0:0:0:
236,242,85150,2,0,P|237:179|307:116,1,150,4|0,0:0|0:0,0:0:0:0:
363,229,85766,2,0,L|323:310,1,75,4|0,0:0|0:0,0:0:0:0:
304,324,86074,1,0,0:0:0:0:
271,342,86177,2,0,L|227:345,4,25,4|0|0|0|0,0:0|0:0|0:0|0:0|0:0,0:0:0:0:
172,319,86588,5,2,0:0:0:0:
139,96,87204,1,2,0:0:0:0:
362,66,87821,1,2,0:0:0:0:
391,288,88437,1,0,0:0:0:0:
167,262,89054,1,0,0:0:0:0:
291,178,89465,5,4,0:0:0:0:
