osu file format v14

[General]
AudioFilename: audio.mp3
AudioLeadIn: 0
PreviewTime: 56177
Countdown: 0
SampleSet: Soft
StackLeniency: 0.7
Mode: 0
LetterboxInBreaks: 0
WidescreenStoryboard: 0

[Editor]
DistanceSpacing: 1.5
BeatDivisor: 4
GridSize: 4
TimelineZoom: 2.999999

[Metadata]
Title:Mikansei Stride
TitleUnicode:未完成ストライド
Artist:Kodama Saori
ArtistUnicode:こだまさおり
Creator:ImAplayerMapper
Version:Across The Future
Source:氷菓
Tags:Hyouka Opening 2
BeatmapID:1468571
BeatmapSetID:694098

[Difficulty]
HPDrainRate:6.3
CircleSize:3.8
OverallDifficulty:7.8
ApproachRate:9
SliderMultiplier:1.8
SliderTickRate:1

[Events]
//Background and Video events
0,0,"Hyouka.jpg",0,0
Video,0,"Hyouka OP2 Full - Mikansei Stride (convert-video-online.com).mp4"
//Break Periods
//Storyboard Layer 0 (Background)
//Storyboard Layer 1 (Fail)
//Storyboard Layer 2 (Pass)
//Storyboard Layer 3 (Foreground)
//Storyboard Sound Samples

[TimingPoints]
1108.9873690846,410.958904109589,4,2,3,50,1,0
3985,-83.3333333333333,4,2,3,50,0,0
4293,-83.3333333333333,4,2,3,10,0,0
4396,-100,4,2,3,50,0,0
7684,-100,4,2,3,65,0,0
13848,-111.111111111111,4,2,3,65,0,0
14259,-111.111111111111,4,2,2,40,0,0
27410,-111.111111111111,4,2,3,55,0,0
37581,-111.111111111111,4,2,3,5,0,0
37684,-111.111111111111,4,2,3,55,0,0
40561,-125,4,2,2,35,0,0
50424,-117.647058823529,4,2,3,50,0,0
55663,-117.647058823529,4,2,3,5,0,0
55766,-117.647058823529,4,2,3,50,0,0
55869,-117.647058823529,4,2,3,5,0,0
55972,-117.647058823529,4,2,3,50,0,0
56074,-117.647058823529,4,2,3,5,0,0
56172,-83.3333333333333,4,2,3,60,0,0
56485,-83.3333333333333,4,2,3,5,0,0
56588,-83.3333333333333,4,2,3,60,0,0
56691,-83.3333333333333,4,2,3,15,0,0
56999,-100,4,2,3,75,0,1
69328,-83.3333333333333,4,2,3,75,0,1
69430,-83.3333333333333,4,2,3,20,0,0
69533,-83.3333333333333,4,2,3,50,0,0
69636,-83.3333333333333,4,2,3,10,0,0
69739,-83.3333333333333,4,2,3,50,0,0
69841,-66.6666666666667,4,2,3,10,0,0
69944,-66.6666666666667,4,2,3,50,0,0
70150,-100,4,2,3,75,0,1
83300,-100,4,2,3,65,0,0
86485,-100,4,2,3,25,0,0
86588,-83.3333333333333,4,2,2,40,0,0
86793,-100,4,2,3,5,0,0
87204,-83.3333333333333,4,2,2,35,0,0
87410,-83.3333333333333,4,2,3,5,0,0
87821,-83.3333333333333,4,2,2,30,0,0
88026,-83.3333333333333,4,2,3,5,0,0
88437,-100,4,2,3,25,0,0
88540,-100,4,2,3,5,0,0
89054,-100,4,2,3,20,0,0
89156,-100,4,2,3,5,0,0
89465,-100,4,2,3,70,0,0

[Colours]
Combo1 : 255,0,0
Combo2 : 0,0,255
Combo3 : 0,255,0
Combo4 : 128,64,0
Combo5 : 128,0,255
Combo6 : 0,0,0

[HitObjects]
118,118,1108,5,0,0:0:0:0:
77,247,1314,1,0,0:0:0:0:
208,218,1519,1,0,0:0:0:0:
93,125,2136,5,0,0:0:0:0:
52,254,2342,1,0,0:0:0:0:
183,225,2547,1,0,0:0:0:0:
93,126,3985,2,0,P|85:55|156:63,1,161.999995056153
209,126,4396,5,0,0:0:0:0:
320,49,4602,1,0,0:0:0:0:
336,200,4807,1,0,0:0:0:0:
345,217,5424,5,0,0:0:0:0:
320,49,5629,1,0,0:0:0:0:
193,151,5835,1,0,0:0:0:0:
435,111,6245,5,0,0:0:0:0:
443,264,6451,2,0,B|429:293|429:293|361:318,1,90,8|0,0:0|0:0,0:0:0:0:
359,229,6759,1,0,0:0:0:0:
317,245,6862,1,0,0:0:0:0:
290,280,6965,1,0,0:0:0:0:
285,324,7067,1,0,0:0:0:0:
174,218,7273,1,0,0:0:0:0:
187,175,7376,1,0,0:0:0:0:
178,131,7478,1,0,0:0:0:0:
150,97,7581,1,0,0:0:0:0:
109,79,7684,6,0,L|222:60,1,90,4|0,0:0|0:0,0:0:0:0:
275,160,8095,2,0,L|185:175,1,90,8|0,0:0|0:0,0:0:0:0:
277,266,8506,2,0,L|366:249,1,90
469,113,8917,1,8,0:0:0:0:
394,235,9122,1,0,0:0:0:0:
343,71,9328,6,0,P|302:53|248:54,1,90
182,218,9739,2,0,L|202:309,1,90,8|0,0:0|0:0,0:0:0:0:
201,305,10047,1,0,0:0:0:0:
201,305,10150,1,0,0:0:0:0:
66,218,10355,1,0,0:0:0:0:
47,353,10561,1,8,0:0:0:0:
182,218,10766,1,0,0:0:0:0:
297,330,10972,6,0,B|343:337|343:337|391:319,1,90
445,184,11382,2,0,P|486:206|516:248,1,90,8|0,0:0|0:0,0:0:0:0:
463,366,11793,1,0,0:0:0:0:
333,247,11999,1,0,0:0:0:0:
449,148,12204,2,0,L|435:46,1,90,8|0,0:0|0:0,0:0:0:0:
311,57,12615,5,0,0:0:0:0:
311,57,12718,2,0,L|319:109,1,45
159,86,12924,2,0,L|151:41,1,45,0|8,0:0|0:0,0:0:0:0:
239,144,13129,1,0,0:0:0:0:
212,180,13232,1,0,0:0:0:0:
168,193,13335,1,0,0:0:0:0:
123,194,13437,6,0,L|54:176,1,45
104,316,13643,6,0,L|173:334,1,45
226,285,13848,1,0,0:0:0:0:
263,271,13950,1,0,0:0:0:0:
303,276,14053,1,0,0:0:0:0:
336,299,14156,1,0,0:0:0:0:
355,336,14259,6,0,L|439:348,1,80.9999975280763,6|0,0:0|0:0,0:0:0:0:
483,274,14670,2,0,L|399:262,1,80.9999975280763,2|0,0:0|0:0,0:0:0:0:
317,196,15081,2,0,L|299:295,1,80.9999975280763,2|0,0:0|0:0,0:0:0:0:
418,176,15492,1,2,0:0:0:0:
358,89,15698,1,0,0:0:0:0:
259,124,15903,6,0,L|179:103,1,80.9999975280763,2|0,0:0|0:0,0:0:0:0:
79,171,16314,2,0,L|169:199,1,80.9999975280763,2|0,0:0|0:0,0:0:0:0:
208,305,16725,2,0,L|125:287,1,80.9999975280763,2|0,0:0|0:0,0:0:0:0:
249,221,17136,1,2,0:0:0:0:
351,312,17341,1,0,0:0:0:0:
442,184,17547,6,0,P|448:231|439:275,1,80.9999975280763,2|0,0:0|0:0,0:0:0:0:
349,216,17958,2,0,P|343:169|352:125,1,80.9999975280763,2|0,0:0|0:0,0:0:0:0:
348,30,18369,2,0,P|388:32|423:51,2,80.9999975280763,2|0|2,0:0|0:0|0:0,0:0:0:0:
282,113,18985,1,0,0:0:0:0:
203,42,19191,6,0,P|157:44|108:69,1,80.9999975280763,2|0,0:0|0:0,0:0:0:0:
66,163,19602,1,2,0:0:0:0:
13,53,19807,1,0,0:0:0:0:
124,57,20013,2,0,P|148:83|157:126,1,80.9999975280763,2|0,0:0|0:0,0:0:0:0:
76,240,20424,2,0,P|62:203|66:163,1,80.9999975280763,2|0,0:0|0:0,0:0:0:0:
233,168,20835,6,0,P|198:201|153:208,1,80.9999975280763,2|0,0:0|0:0,0:0:0:0:
286,266,21245,2,0,P|268:299|224:333,1,80.9999975280763,2|0,0:0|0:0,0:0:0:0:
95,348,21656,1,2,0:0:0:0:
153,203,21862,1,0,0:0:0:0:
220,315,22067,1,2,0:0:0:0:
271,167,22273,1,0,0:0:0:0:
386,255,22478,6,0,L|302:256,1,80.9999975280763,2|0,0:0|0:0,0:0:0:0:
386,134,22889,2,0,L|471:134,1,80.9999975280763,2|0,0:0|0:0,0:0:0:0:
344,27,23300,2,0,L|257:28,1,80.9999975280763,2|0,0:0|0:0,0:0:0:0:
185,170,23711,1,2,0:0:0:0:
274,114,23917,1,0,0:0:0:0:
165,69,24122,6,0,L|83:78,1,80.9999975280763,2|0,0:0|0:0,0:0:0:0:
17,228,24533,2,0,L|98:218,1,80.9999975280763,2|0,0:0|0:0,0:0:0:0:
258,223,24944,1,2,0:0:0:0:
118,126,25150,1,0,0:0:0:0:
179,262,25355,2,0,L|161:348,1,80.9999975280763,2|0,0:0|0:0,0:0:0:0:
1,352,25766,6,0,L|22:264,1,80.9999975280763,2|0,0:0|0:0,0:0:0:0:
161,353,26177,2,0,L|244:344,1,80.9999975280763,2|0,0:0|0:0,0:0:0:0:
373,209,26588,1,2,0:0:0:0:
397,375,26793,1,0,0:0:0:0:
266,237,26999,1,2,0:0:0:0:
460,271,27204,1,0,0:0:0:0:
460,271,27307,1,0,0:0:0:0:
460,271,27410,6,0,P|478:232|481:185,1,80.9999975280763,4|0,0:0|0:0,0:0:0:0:
396,85,27821,1,8,0:0:0:0:
349,199,28026,1,0,0:0:0:0:
224,111,28232,2,0,L|314:103,1,80.9999975280763
446,172,28643,1,8,0:0:0:0:
332,20,28848,6,0,L|251:28,1,80.9999975280763
126,103,29259,2,0,L|130:197,1,80.9999975280763,0|8,0:0|0:0,0:0:0:0:
240,279,29670,1,0,0:0:0:0:
100,285,29876,1,0,0:0:0:0:
171,195,30081,1,0,0:0:0:0:
187,358,30287,1,8,0:0:0:0:
337,306,30492,1,0,0:0:0:0:
330,139,30698,6,0,L|312:242,1,80.9999975280763
272,366,31108,1,8,0:0:0:0:
429,265,31314,2,0,L|525:278,1,80.9999975280763
415,145,31725,2,0,L|319:132,1,80.9999975280763,0|8,0:0|0:0,0:0:0:0:
221,213,32136,1,0,0:0:0:0:
239,20,32341,6,0,L|247:128,1,80.9999975280763
124,129,32752,1,8,0:0:0:0:
244,100,32958,1,0,0:0:0:0:
30,107,33163,2,0,L|48:198,1,80.9999975280763
154,124,33574,1,8,0:0:0:0:
127,266,33780,1,0,0:0:0:0:
127,266,33882,1,0,0:0:0:0:
127,266,33985,6,0,P|156:295|210:317,1,80.9999975280763
321,248,34396,1,8,0:0:0:0:
241,147,34602,2,0,L|208:230,1,80.9999975280763
273,336,35013,1,0,0:0:0:0:
211,222,35218,1,8,0:0:0:0:
142,325,35424,1,0,0:0:0:0:
321,248,35629,6,0,P|360:246|410:258,1,80.9999975280763
479,334,36040,1,8,0:0:0:0:
493,202,36245,2,0,L|507:114,1,80.9999975280763
396,164,36656,1,0,0:0:0:0:
431,0,36862,2,0,L|415:85,1,80.9999975280763,8|0,0:0|0:0,0:0:0:0:
283,59,37273,6,0,B|245:54|245:54|150:76,1,121.499996292114
136,89,37684,1,8,0:0:0:0:
244,185,37889,2,0,L|237:271,1,80.9999975280763
111,340,38300,1,0,0:0:0:0:
75,198,38506,2,0,L|156:233,1,80.9999975280763,8|0,0:0|0:0,0:0:0:0:
275,332,38917,5,0,0:0:0:0:
260,171,39122,1,0,0:0:0:0:
404,276,39328,1,8,0:0:0:0:
386,99,39533,1,0,0:0:0:0:
307,250,39739,1,0,0:0:0:0:
462,175,39944,1,0,0:0:0:0:
488,363,40150,1,10,0:0:0:0:
484,335,40252,1,2,0:0:0:0:
479,306,40355,1,2,0:0:0:0:
374,334,40561,6,0,L|228:332,1,144,6|0,0:0|0:0,0:0:0:0:
143,295,41177,1,0,0:0:0:0:
224,260,41382,2,0,L|230:342,1,72
137,223,41793,2,0,L|143:295,1,72
215,170,42204,6,0,B|248:154|248:154|369:141,1,144,2|0,0:0|0:0,0:0:0:0:
448,136,42821,1,0,0:0:0:0:
390,227,43026,1,0,0:0:0:0:
354,142,43232,1,0,0:0:0:0:
481,218,43437,1,0,0:0:0:0:
378,252,43643,1,0,0:0:0:0:
457,117,43848,6,0,P|406:61|336:49,1,144,2|0,0:0|0:0,0:0:0:0:
269,56,44465,2,0,L|347:47,1,72
279,137,44876,2,0,L|198:147,1,72
132,89,45287,1,0,0:0:0:0:
90,172,45492,6,0,L|119:328,1,144,2|0,0:0|0:0,0:0:0:0:
205,342,46108,2,0,L|178:201,1,144,2|0,0:0|0:0,0:0:0:0:
205,95,46725,1,0,0:0:0:0:
177,200,46930,1,0,0:0:0:0:
280,168,47136,6,0,B|307:195|307:195|325:324,1,144,6|0,0:0|0:0,0:0:0:0:
255,366,47752,1,0,0:0:0:0:
321,299,47958,2,0,L|394:291,1,72
449,365,48369,2,0,L|372:377,1,72
483,277,48780,6,0,L|452:125,1,144,2|0,0:0|0:0,0:0:0:0:
376,70,49396,1,0,0:0:0:0:
454,135,49602,1,0,0:0:0:0:
357,163,49807,1,0,0:0:0:0:
465,41,50013,1,0,0:0:0:0:
482,158,50218,1,0,0:0:0:0:
339,46,50424,6,0,L|256:55,1,76.5000014591217,2|0,0:0|0:0,0:0:0:0:
192,144,50835,2,0,L|272:133,1,76.5000014591217
182,61,51245,2,0,L|99:70,1,76.5000014591217,2|0,0:0|0:0,0:0:0:0:
38,157,51656,2,0,L|124:148,1,76.5000014591217
0,86,52067,5,2,0:0:0:0:
3,234,52273,2,0,L|21:319,1,76.5000014591217
121,360,52684,1,0,0:0:0:0:
121,245,52889,2,0,L|211:266,1,76.5000014591217,2|0,0:0|0:0,0:0:0:0:
326,326,53300,2,0,L|234:352,1,76.5000014591217
279,195,53711,6,0,L|189:175,1,76.5000014591217,2|0,0:0|0:0,0:0:0:0:
50,178,54122,1,0,0:0:0:0:
204,178,54328,1,0,0:0:0:0:
121,79,54533,2,0,P|152:61|207:56,1,76.5000014591217,2|0,0:0|0:0,0:0:0:0:
381,83,54944,1,0,0:0:0:0:
191,54,55150,1,0,0:0:0:0:
314,230,55355,5,2,0:0:0:0:
314,230,55458,1,0,0:0:0:0:
314,230,55561,2,0,L|256:226,1,38.2500007295609
214,312,55766,2,0,L|275:317,1,38.2500007295609
346,322,55972,2,0,L|343:374,1,38.2500007295609
387,148,56177,5,2,0:0:0:0:
387,148,56280,1,0,0:0:0:0:
387,148,56382,2,0,L|325:144,1,53.9999983520508
168,0,56588,2,0,L|227:4,1,53.9999983520508,2|0,0:0|0:0,0:0:0:0:
47,132,56793,1,0,0:0:0:0:
47,132,56896,1,0,0:0:0:0:
47,132,56999,6,0,B|32:180|32:180|56:307,1,180,4|8,0:0|0:0,0:0:0:0:
233,363,57615,1,0,0:0:0:0:
238,191,57821,2,0,P|287:197|334:222,1,90
438,353,58232,1,8,0:0:0:0:
406,176,58437,1,0,0:0:0:0:
257,277,58643,6,0,L|233:367,1,90
382,262,59054,2,0,L|409:169,1,90,8|0,0:0|0:0,0:0:0:0:
292,13,59465,1,0,0:0:0:0:
304,192,59670,1,0,0:0:0:0:
396,16,59876,1,8,0:0:0:0:
407,175,60081,1,0,0:0:0:0:
223,98,60287,6,0,L|131:123,1,90
28,288,60698,2,0,L|121:258,1,90,8|0,0:0|0:0,0:0:0:0:
48,142,61108,1,0,0:0:0:0:
211,218,61314,1,0,0:0:0:0:
107,303,61519,1,8,0:0:0:0:
151,122,61725,6,0,P|194:105|254:111,1,90
398,218,62136,1,0,0:0:0:0:
217,307,62341,2,0,L|210:215,1,90,8|0,0:0|0:0,0:0:0:0:
336,60,62752,1,0,0:0:0:0:
336,60,62855,1,0,0:0:0:0:
336,60,62958,1,0,0:0:0:0:
128,119,63163,1,8,0:0:0:0:
310,235,63369,1,0,0:0:0:0:
122,339,63574,6,0,P|112:296|123:253,1,90,4|0,0:0|0:0,0:0:0:0:
210,158,63985,1,8,0:0:0:0:
335,295,64191,2,0,L|241:295,1,90
308,109,64602,2,0,P|320:155|300:220,1,90,0|8,0:0|0:0,0:0:0:0:
135,231,65013,1,0,0:0:0:0:
198,55,65218,6,0,L|211:157,1,90
225,324,65629,2,0,B|193:343|193:343|125:345,1,90,8|0,0:0|0:0,0:0:0:0:
31,178,66040,1,0,0:0:0:0:
5,372,66245,1,0,0:0:0:0:
129,226,66451,1,8,0:0:0:0:
140,344,66656,1,0,0:0:0:0:
214,179,66862,6,0,P|177:148|130:132,1,90
55,293,67273,1,8,0:0:0:0:
246,314,67478,2,0,P|292:312|335:289,1,90
310,125,67889,1,0,0:0:0:0:
435,269,68095,1,8,0:0:0:0:
457,79,68300,1,0,0:0:0:0:
272,232,68506,5,0,0:0:0:0:
356,17,68711,1,0,0:0:0:0:
491,178,68917,1,8,0:0:0:0:
220,74,69122,1,0,0:0:0:0:
220,74,69225,1,0,0:0:0:0:
220,74,69328,2,0,L|154:95,1,53.9999983520508
18,229,69533,2,0,L|76:240,1,53.9999983520508
239,359,69739,2,0,L|173:374,1,53.9999983520508,8|0,0:0|0:0,0:0:0:0:
245,176,69944,1,0,0:0:0:0:
245,176,70047,1,0,0:0:0:0:
245,176,70150,6,0,P|288:170|348:191,1,90,4|0,0:0|0:0,0:0:0:0:
482,324,70561,1,8,0:0:0:0:
283,257,70766,1,0,0:0:0:0:
365,102,70972,2,0,P|405:136|417:177,1,90
257,282,71382,1,8,0:0:0:0:
246,84,71588,1,0,0:0:0:0:
485,124,71793,6,0,P|497:166|486:215,1,90
332,181,72204,1,8,0:0:0:0:
334,334,72410,1,0,0:0:0:0:
457,291,72615,2,0,P|482:255|485:196,1,90
230,274,73026,1,8,0:0:0:0:
305,90,73232,1,0,0:0:0:0:
347,225,73437,6,0,B|359:269|359:269|353:338,1,90
107,314,73848,2,0,B|99:267|99:267|118:197,1,90,8|0,0:0|0:0,0:0:0:0:
183,12,74259,1,0,0:0:0:0:
230,185,74465,1,0,0:0:0:0:
331,36,74670,1,8,0:0:0:0:
126,106,74876,6,0,P|172:99|238:99,1,90
410,132,75287,1,0,0:0:0:0:
277,301,75492,1,8,0:0:0:0:
215,97,75698,1,0,0:0:0:0:
388,265,75903,1,0,0:0:0:0:
338,46,76108,1,0,0:0:0:0:
184,211,76314,2,0,P|225:192|274:187,1,90,8|0,0:0|0:0,0:0:0:0:
264,328,76725,5,4,0:0:0:0:
201,103,76930,1,0,0:0:0:0:
419,245,77136,1,8,0:0:0:0:
154,192,77341,1,0,0:0:0:0:
443,152,77547,1,0,0:0:0:0:
213,266,77752,1,0,0:0:0:0:
377,80,77958,1,8,0:0:0:0:
312,336,78163,2,0,P|356:346|412:320,1,90
245,189,78574,6,0,P|196:183|149:207,1,90,0|8,0:0|0:0,0:0:0:0:
31,301,78985,1,0,0:0:0:0:
203,354,79191,2,0,P|217:312|212:261,1,90
159,15,79602,1,8,0:0:0:0:
33,190,79807,1,0,0:0:0:0:
274,254,80013,6,0,P|260:198|229:155,1,90
57,74,80424,1,8,0:0:0:0:
134,253,80629,1,0,0:0:0:0:
293,147,80835,6,0,P|269:101|235:68,1,90
44,182,81245,1,8,0:0:0:0:
138,346,81451,2,0,P|177:337|213:294,1,90
135,166,81862,2,0,P|126:208|135:257,1,90,0|8,0:0|0:0,0:0:0:0:
268,210,82273,1,0,0:0:0:0:
268,210,82376,1,0,0:0:0:0:
268,210,82478,1,0,0:0:0:0:
411,172,82684,2,0,P|416:149|414:123,1,45
328,136,82889,1,8,0:0:0:0:
421,260,83095,1,0,0:0:0:0:
421,260,83198,1,0,0:0:0:0:
421,260,83300,6,0,P|468:244|495:202,1,90,4|0,0:0|0:0,0:0:0:0:
233,136,83711,1,0,0:0:0:0:
406,84,83917,2,0,P|417:128|408:179,1,90,4|0,0:0|0:0,0:0:0:0:
201,116,84328,1,0,0:0:0:0:
315,236,84533,2,0,B|280:260|280:260|276:188|329:136,1,180,4|0,0:0|0:0,0:0:0:0:
180,269,85150,6,0,P|218:343|309:361,1,180,4|0,0:0|0:0,0:0:0:0:
421,233,85766,1,4,0:0:0:0:
281,259,85972,1,0,0:0:0:0:
281,259,86074,1,0,0:0:0:0:
281,259,86177,2,0,L|293:205,1,45,4|0,0:0|0:0,0:0:0:0:
183,98,86382,2,0,L|173:141,1,45
56,264,86588,6,0,B|43:215|62:186|62:186|53:159,1,107.999996704102,2|0,0:0|0:0,0:0:0:0:
352,138,87204,6,0,B|361:94|344:62|344:62|352:9,1,107.999996704102,2|0,0:0|0:0,0:0:0:0:
248,341,87821,6,0,B|294:347|294:347|322:336|322:336|387:345,1,107.999996704102,2|0,0:0|0:0,0:0:0:0:
442,184,88437,6,0,B|422:196|402:179|375:191,1,45
213,51,89054,6,0,B|231:46|248:61|270:55,1,45
460,59,89465,5,4,0:0:0:0:
