osu file format v14

[General]
AudioFilename: audio.mp3
AudioLeadIn: 0
PreviewTime: 22295
Countdown: 1
SampleSet: Soft
StackLeniency: 0.7
Mode: 0
LetterboxInBreaks: 0
WidescreenStoryboard: 1

[Editor]
Bookmarks: 655,3278,6229,8852,16721,19672,22295,26229,35737,42950,48196,51147,58032,64262,68524,73770,75409,75737,75901,76065,76229,76557,76721
DistanceSpacing: 0.6
BeatDivisor: 6
GridSize: 4
TimelineZoom: 1.7

[Metadata]
Title:Guess Who Is Back
TitleUnicode:「Guess Who Is Back」
Artist:Koda Kumi
ArtistUnicode:Koda Kumi
Creator:Yameteeee
Version:Collab Extra
Source:
Tags:
BeatmapID:1770050
BeatmapSetID:832596

[Difficulty]
HPDrainRate:5
CircleSize:4
OverallDifficulty:5
ApproachRate:9.3
SliderMultiplier:2
SliderTickRate:1

[Events]
//Background and Video events
0,0,"background.jpg",0,0
//Break Periods
//Storyboard Layer 0 (Background)
//Storyboard Layer 1 (Fail)
//Storyboard Layer 2 (Pass)
//Storyboard Layer 3 (Foreground)
//Storyboard Sound Samples

[TimingPoints]
0,327.868852459016,4,1,1,100,1,0
0,-133.333333333333,4,2,22,80,0,0
10819,-133.333333333333,4,2,1,94,0,0
16612,-100,4,1,1,93,0,0
17950,-100,4,2,1,92,0,0
19672,-66.6666666666667,4,3,1,93,0,0
20655,-66.6666666666667,4,3,1,93,0,0
22213,-100,4,1,1,85,0,1
22568,-100,4,3,1,75,0,1
23852,-133.333333333333,4,1,1,75,0,1
24426,-100,4,1,1,75,0,1
26721,-100,4,3,1,87,0,1
27459,-100,4,1,1,96,0,1
28360,-100,4,2,1,79,0,1
29180,-100,4,2,1,100,0,1
30054,-100,4,1,1,79,0,1
32021,-100,4,2,1,58,0,0
33442,-100,4,1,1,69,0,0
34098,-100,4,2,1,64,0,0
35737,-100,4,1,1,48,0,0
37377,-100,4,2,1,71,0,0
41557,-100,4,1,1,74,0,0
42622,-100,4,2,1,91,0,0
44207,-100,4,1,1,91,0,0
47213,-66.6666666666667,4,1,1,91,0,0
47814,-250,4,1,1,91,0,0
47868,-66.6666666666667,4,3,1,100,0,0
48469,-50,4,1,1,86,0,0
48743,-133.333333333333,4,3,1,84,0,0
49781,-133.333333333333,4,1,1,84,0,0
50546,-133.333333333333,4,2,1,84,0,0
51147,-66.6666666666667,4,3,1,100,0,0
53688,-66.6666666666667,4,1,1,86,0,1
53934,-66.6666666666667,4,3,1,96,0,1
54972,-100,4,3,1,96,0,1
57923,-62.5,4,1,1,70,0,1
59234,-62.5,4,3,1,60,0,1
61475,-66.6666666666667,4,2,1,81,0,1
62540,-50,4,3,1,90,0,1
62640,-50,4,3,1,90,0,1
62950,-36.3636363636364,4,3,1,90,0,1
63114,-100,4,2,1,90,0,1
63224,-100,4,3,1,90,0,1
64180,-100,4,1,1,90,0,1
64262,-133.333333333333,4,3,1,88,0,1
64371,-133.333333333333,4,2,1,88,0,1
65519,-133.333333333333,4,1,1,88,0,1
65683,-133.333333333333,4,2,1,88,0,1
66830,-133.333333333333,4,1,1,88,0,1
66994,-133.333333333333,4,2,1,88,0,1
68142,-133.333333333333,4,1,1,88,0,1
68303,-133.333333333333,4,3,1,88,0,1
68442,-100,4,3,1,88,0,1
75027,-133.333333333333,4,1,1,87,0,1
75191,-133.333333333333,4,2,1,87,0,1
75683,-133.333333333333,4,1,1,87,0,1
75846,-133.333333333333,4,2,1,87,0,1
76338,-133.333333333333,4,1,1,87,0,1
76502,-133.333333333333,4,2,1,87,0,1
76994,-133.333333333333,4,1,1,87,0,1
77158,-133.333333333333,4,2,1,87,0,1
77650,-133.333333333333,4,1,1,87,0,1
77814,-133.333333333333,4,3,1,87,0,1
78308,-133.333333333333,4,1,1,87,0,1
78469,-133.333333333333,4,2,1,87,0,1
80273,-133.333333333333,4,1,2,79,0,1
80437,-133.333333333333,4,3,2,79,0,1
80601,-133.333333333333,4,1,2,79,0,1
80765,-133.333333333333,4,3,2,79,0,1
80928,-133.333333333333,4,1,2,79,0,1
81092,-133.333333333333,4,3,2,79,0,1
81256,-133.333333333333,4,1,2,79,0,1
81420,-133.333333333333,4,3,2,79,0,1
81584,-133.333333333333,4,1,2,79,0,1
81748,-133.333333333333,4,3,2,79,0,1
81912,-133.333333333333,4,1,2,79,0,1
82076,-133.333333333333,4,2,2,82,0,1
82950,-133.333333333333,4,2,2,78,0,1
83934,-100,4,2,2,78,0,1
84480,-33.3333333333333,4,2,2,78,0,1
85191,-100,4,1,2,75,0,1
85300,-100,4,1,2,88,0,1
85573,-66.6666666666667,4,1,1,87,0,0
87158,-66.6666666666667,4,1,22,100,0,0

[HitObjects]
160,80,601,5,0,0:0:0:0:
160,80,928,1,0,0:0:0:0:
160,80,1256,2,0,B|232:136|232:136|272:80|272:80|340:120,2,225.000008583069,8|8|8,0:0|0:0|0:0,0:0:0:0:
368,244,3169,5,0,0:0:0:0:
368,244,3497,1,0,0:0:0:0:
340,306,3825,2,0,P|314:353|246:311,1,150.000005722046
307,240,4371,2,2,P|291:180|208:173,1,150.000005722046
140,154,4863,2,2,P|136:178|181:213,2,75.0000028610231
332,208,6174,5,2,0:0:0:0:
272,260,6502,1,2,0:0:0:0:
200,300,6830,1,2,0:0:0:0:
204,304,6994,2,2,B|188:236|188:236|148:228|148:228|104:216,2,150.000005722046
280,120,8797,5,0,0:0:0:0:
359,240,9125,2,0,B|383:288|383:288|332:308|332:308,1,100.000003814697
316,116,9617,6,0,P|276:112|246:87,1,75.0000028610231
159,89,9945,2,0,P|152:152|168:168,1,75.0000028610231
218,221,10273,2,0,B|194:265|141:283|57:272|71:178,1,225.000008583069
160,112,10928,5,0,0:0:0:0:
356,72,11092,1,0,0:0:0:0:
184,228,11256,5,0,0:0:0:0:
380,160,11420,1,0,0:0:0:0:
224,316,11584,5,0,0:0:0:0:
416,232,11748,1,8,0:0:0:0:
176,216,11912,5,10,0:0:0:0:
384,320,12076,1,10,0:0:0:0:
216,140,12240,5,10,0:0:0:0:
408,240,12404,1,10,0:0:0:0:
280,88,12567,5,10,0:0:0:0:
348,256,12731,1,10,0:0:0:0:
380,104,12895,5,10,0:0:0:0:
224,244,13059,1,10,0:0:0:0:
180,80,13223,1,10,0:0:0:0:
340,200,13387,5,10,0:0:0:0:
130,188,13551,1,10,0:0:0:0:
215,41,13715,1,10,0:0:0:0:
344,188,13879,5,10,0:0:0:0:
116,268,14043,1,10,0:0:0:0:
352,328,14207,5,10,0:0:0:0:
120,200,14371,1,10,0:0:0:0:
360,260,14535,5,10,0:0:0:0:
120,340,14699,1,10,0:0:0:0:
376,328,14863,5,10,0:0:0:0:
136,224,15026,1,10,0:0:0:0:
372,244,15190,5,10,0:0:0:0:
176,136,15354,1,10,0:0:0:0:
380,160,15518,5,10,0:0:0:0:
156,292,15682,1,10,0:0:0:0:
400,232,15846,5,10,0:0:0:0:
136,224,16010,1,10,0:0:0:0:
360,296,16174,5,10,0:0:0:0:
168,160,16338,1,10,0:0:0:0:
232,156,16666,6,0,P|274:158|309:194,1,66.6666666666667,2|0,0:0|0:0,0:0:0:0:
458,252,16994,2,0,P|448:294|390:288,1,100,8|0,0:0|0:0,0:0:0:0:
263,338,17322,2,0,P|231:288|254:234,1,100,8|0,0:0|0:0,0:0:0:0:
83,198,17650,2,0,P|147:186|169:226,1,100,8|0,0:0|0:0,0:0:0:0:
384,244,17977,5,10,0:0:0:0:
324,112,18141,1,10,0:0:0:0:
272,244,18305,5,10,0:0:0:0:
324,80,18469,1,10,0:0:0:0:
396,244,18633,5,10,0:0:0:0:
324,48,18797,1,10,0:0:0:0:
272,248,18961,5,10,0:0:0:0:
304,88,19617,5,6,0:0:0:0:
396,108,19945,2,0,B|356:168|356:168|259:167|259:167,1,150.000005722046,8|0,0:0|0:0,0:0:0:0:
164,192,20273,2,0,P|212:264|278:279,1,150.000005722046,8|0,0:0|0:0,0:0:0:0:
332,277,20601,2,0,P|284:325|200:333,1,150.000005722046,8|0,0:0|0:0,0:0:0:0:
368,144,20928,5,14,0:0:0:0:
176,64,21092,1,14,0:0:0:0:
156,296,21584,5,14,0:0:0:0:
368,216,21748,1,14,0:0:0:0:
232,108,22240,5,14,0:0:0:0:
148,168,22568,2,0,L|252:241,1,100,10|0,0:0|0:0,0:0:0:0:
279,165,22896,2,0,P|276:106|225:69,1,100,10|0,0:0|0:0,0:0:0:0:
263,279,23224,2,0,L|341:360,1,100,10|0,0:0|0:0,0:0:0:0:
364,240,23551,5,0,0:0:0:0:
344,168,23715,1,0,0:0:0:0:
256,112,23879,2,0,P|201:144|214:182,2,100.000003814697
159,187,24535,1,8,0:0:0:0:
264,268,24699,1,8,0:0:0:0:
384,240,24862,5,14,0:0:0:0:
332,148,25026,1,10,0:0:0:0:
332,148,25102,1,10,0:0:0:0:
332,148,25191,2,10,P|275:157|280:216,1,100
312,264,25518,2,10,P|256:264|212:211,2,100
280,188,26010,5,0,0:0:0:0:
212,156,26174,1,0,0:0:0:0:
240,88,26338,5,0,0:0:0:0:
312,136,26502,5,0,0:0:0:0:
200,320,26666,1,0,0:0:0:0:
320,132,26830,5,0,0:0:0:0:
400,336,26994,1,0,0:0:0:0:
316,104,27158,5,0,0:0:0:0:
208,288,27322,1,10,0:0:0:0:
136,168,27486,2,0,B|109:141|109:141|134:109|134:109|169:126|169:126,2,100,12|8|8,0:0|0:0|0:0,0:0:0:0:
267,120,27977,1,0,0:0:0:0:
339,192,28142,2,0,P|359:233|313:240,1,100
149,285,28469,2,4,L|240:337,1,100
228,160,28797,2,4,P|191:113|125:115,2,100
256,272,29289,5,14,0:0:0:0:
224,288,29371,1,14,0:0:0:0:
200,296,29453,1,14,0:0:0:0:
165,224,29617,2,0,B|245:187|270:189|270:189|281:204|281:204,2,100
224,144,30108,5,14,0:0:0:0:
348,264,30272,1,8,0:0:0:0:
144,176,30436,5,8,0:0:0:0:
284,304,30600,1,8,0:0:0:0:
40,176,30764,5,8,0:0:0:0:
200,328,30928,1,8,0:0:0:0:
40,232,31092,5,8,0:0:0:0:
260,288,31256,1,8,0:0:0:0:
72,152,31420,5,12,0:0:0:0:
280,224,31584,1,8,0:0:0:0:
56,264,31748,5,8,0:0:0:0:
272,144,31912,1,8,0:0:0:0:
393,187,32049,5,2,0:0:0:0:
393,187,32131,1,2,0:0:0:0:
393,187,32213,1,2,0:0:0:0:
393,187,32295,1,2,0:0:0:0:
393,187,32377,2,2,P|394:243|382:250,1,50
330,151,32540,5,2,0:0:0:0:
330,151,32622,1,2,0:0:0:0:
330,151,32704,1,2,0:0:0:0:
330,151,32786,1,2,0:0:0:0:
329,151,32868,2,2,P|316:172|319:196,1,50
289,276,33032,6,0,L|231:270,1,50
136,218,33196,5,0,0:0:0:0:
136,218,33278,1,0,0:0:0:0:
136,218,33360,2,0,P|168:174|188:176,1,50
260,260,33524,5,0,0:0:0:0:
260,260,33606,1,0,0:0:0:0:
260,260,33688,2,0,P|252:208|228:208,1,50
145,322,33852,5,0,0:0:0:0:
145,322,33934,1,0,0:0:0:0:
145,322,34016,2,0,P|177:278|197:280,1,50
276,272,34180,6,2,L|328:252,1,50
356,184,34344,2,2,B|400:220|400:220|380:224,1,50
296,232,34508,2,2,L|276:180,1,50
212,260,34672,2,2,L|272:212,1,50
198,147,35027,6,0,L|78:101,1,100
81,178,35355,2,0,L|174:216,1,100
277,197,35683,2,0,P|315:218|270:234,1,100
241,73,36010,2,0,P|188:92|214:125,1,100
60,244,36338,2,0,B|96:272|96:272|155:276,1,100
172,197,36666,2,0,B|230:249|230:249|232:248,1,66.6666666666667
119,301,36885,6,8,L|72:251,3,66.6666666666667
368,160,37322,2,0,L|301:135,2,66.6666666666667,14|14|14,0:0|0:0|0:0,0:0:0:0:
215,276,37650,2,12,L|272:208,1,66.6666666666667
139,167,37978,2,0,B|146:125|194:136|194:136|203:135,1,66.6666666666667
286,91,38278,6,0,L|340:124,1,50
431,180,38442,2,0,L|368:208,1,50
339,297,38606,2,0,L|312:248,1,50
248,166,38770,2,0,P|176:152|176:152,1,50
104,264,38934,2,0,P|133:228|157:227,1,50
268,252,39098,2,0,P|319:226|311:202,1,50
284,336,39617,5,12,0:0:0:0:
190,299,39781,1,0,0:0:0:0:
268,65,39945,2,12,P|300:105|288:152,1,100
280,224,40273,2,12,B|241:169|241:169|184:196,2,100
258,95,40765,2,0,L|359:66,1,100
400,224,41092,2,0,L|358:126,1,100
239,233,41421,1,0,0:0:0:0:
284,96,41585,5,8,0:0:0:0:
80,168,41748,1,8,0:0:0:0:
329,166,41912,5,8,0:0:0:0:
100,244,42076,1,8,0:0:0:0:
372,240,42240,5,8,0:0:0:0:
124,332,42404,1,8,0:0:0:0:
152,144,42568,5,0,0:0:0:0:
160,228,42732,1,12,0:0:0:0:
208,308,42896,2,12,B|256:288|256:288|256:238,1,100
268,184,43223,1,12,0:0:0:0:
272,88,43387,2,12,P|208:92|183:121,2,100,12|14|12,0:0|0:0|0:0,0:0:0:0:
181,209,43879,1,0,0:0:0:0:
128,148,44043,5,12,0:0:0:0:
128,148,44125,1,8,0:0:0:0:
128,148,44207,2,0,P|100:188|128:228,1,100,8|0,0:0|0:0,0:0:0:0:
221,189,44535,1,0,0:0:0:0:
285,122,44699,1,0,0:0:0:0:
204,280,44863,2,2,B|240:224|240:224|288:220,1,100
328,136,45191,5,0,0:0:0:0:
252,120,45355,1,0,0:0:0:0:
152,152,45519,2,0,B|116:100|164:52|164:52,2,100
64,260,46010,1,8,0:0:0:0:
160,280,46174,2,8,B|332:303,1,166.666666666667
368,212,46639,2,0,P|328:164|328:164,4,50
192,104,47158,2,2,B|136:148|136:148|136:192|136:192,2,100
224,236,47650,5,10,0:0:0:0:
357,155,47814,6,0,L|374:170,3,13.3333333333333
340,248,48142,5,14,0:0:0:0:
245,331,48306,1,14,0:0:0:0:
136,248,48469,2,10,B|188:184|188:184|269:169,1,133.333333333333,14|10,0:0|0:0,0:0:0:0:
388,152,48797,5,10,0:0:0:0:
376,144,48879,1,10,0:0:0:0:
356,132,48961,2,10,P|320:104|272:116,1,75.0000028610231
168,96,49289,1,8,0:0:0:0:
92,168,49453,1,8,0:0:0:0:
200,204,49617,1,8,0:0:0:0:
80,160,49781,6,8,L|128:96,1,75.0000028610231,12|8,0:0|0:0,0:0:0:0:
268,100,50109,2,8,L|212:156,1,75.0000028610231,12|8,0:0|0:0,0:0:0:0:
97,148,50437,1,4,0:0:0:0:
141,351,50601,1,0,0:0:0:0:
172,125,50764,1,0,0:0:0:0:
223,353,50928,1,0,0:0:0:0:
350,324,51092,5,14,0:0:0:0:
258,160,51256,1,8,0:0:0:0:
185,338,51420,1,8,0:0:0:0:
353,200,51584,5,8,0:0:0:0:
174,118,51748,1,8,0:0:0:0:
145,304,51912,1,8,0:0:0:0:
310,140,52076,5,8,0:0:0:0:
109,158,52240,1,8,0:0:0:0:
287,301,52404,1,8,0:0:0:0:
316,84,52568,6,14,P|272:120|201:110,2,100.000003814697
128,88,53005,2,14,B|120:164|120:164|192:204,1,150.000005722046
258,134,53387,1,0,0:0:0:0:
298,265,53551,1,0,0:0:0:0:
176,304,53715,5,14,0:0:0:0:
343,109,53879,1,0,0:0:0:0:
370,247,54043,1,0,0:0:0:0:
258,54,54207,1,0,0:0:0:0:
290,331,54371,1,0,0:0:0:0:
177,126,54535,1,0,0:0:0:0:
185,268,54699,1,0,0:0:0:0:
329,119,54863,1,4,0:0:0:0:
268,172,55027,6,0,P|256:216|304:244,1,100,8|0,0:0|0:0,0:0:0:0:
392,228,55355,2,0,P|344:180|288:192,1,100,8|0,0:0|0:0,0:0:0:0:
160,198,55683,2,0,B|196:248|196:248|264:264,1,100,8|0,0:0|0:0,0:0:0:0:
236,316,56010,2,2,B|168:336|132:284,1,100,8|2,0:0|0:0,0:0:0:0:
188,244,56338,2,0,P|240:184|288:184,1,100,8|0,0:0|0:0,0:0:0:0:
336,152,56666,6,14,B|304:112|304:112|224:112,2,100
349,248,57158,1,0,0:0:0:0:
274,317,57322,1,0,0:0:0:0:
208,280,57486,2,0,B|144:284|144:284|112:240,1,100
124,158,57814,1,0,0:0:0:0:
195,86,57978,6,10,P|255:58|356:68,1,160,14|10,0:0|0:0,0:0:0:0:
284,128,58306,2,8,P|192:164|113:118,1,160
56,96,58633,2,8,P|56:184|146:218,1,160
124,140,58961,2,8,P|208:144|192:216,1,160
296,152,59262,5,0,0:0:0:0:
323,189,59344,1,0,0:0:0:0:
320,232,59426,1,0,0:0:0:0:
296,260,59508,1,0,0:0:0:0:
260,276,59590,1,0,0:0:0:0:
141,242,59781,6,10,P|141:318|242:349,1,175.00000166893
268,297,60109,1,8,0:0:0:0:
283,218,60273,1,0,0:0:0:0:
320,112,60437,2,10,L|489:140,1,160
450,270,60765,1,0,0:0:0:0:
344,225,60928,1,8,0:0:0:0:
241,255,61092,1,0,0:0:0:0:
128,228,61256,6,0,B|174:183|174:183|157:131|157:131|210:115|210:115|261:130,1,175.00000166893,8|0,0:0|0:0,0:0:0:0:
304,144,61584,1,8,0:0:0:0:
242,244,61748,1,14,0:0:0:0:
341,291,61912,2,8,B|381:251|381:251|315:201|315:201|325:211,1,150.000005722046
237,122,62240,2,0,B|301:62|301:62|376:124|376:124,1,150.000005722046,8|0,0:0|0:0,0:0:0:0:
288,217,62568,1,0,0:0:0:0:
180,180,62732,5,14,0:0:0:0:
180,180,62814,1,14,0:0:0:0:
180,180,62896,1,14,0:0:0:0:
200,76,63032,1,2,0:0:0:0:
332,68,63224,2,0,B|336:176|336:176,1,100
192,160,63551,2,0,B|216:212|216:212|279:240|279:240,1,100
460,104,63879,2,0,P|384:84|352:96,1,100
392,164,64180,1,4,0:0:0:0:
456,296,64372,5,8,0:0:0:0:
304,235,64536,1,8,0:0:0:0:
172,160,64700,5,8,0:0:0:0:
341,59,64864,1,8,0:0:0:0:
240,236,65027,5,8,0:0:0:0:
399,128,65191,1,8,0:0:0:0:
316,284,65355,5,8,0:0:0:0:
190,131,65519,1,12,0:0:0:0:
220,320,65683,5,8,0:0:0:0:
95,159,65847,1,8,0:0:0:0:
113,340,66011,5,8,0:0:0:0:
320,224,66175,1,8,0:0:0:0:
100,200,66339,5,8,0:0:0:0:
308,332,66503,1,8,0:0:0:0:
99,271,66667,5,8,0:0:0:0:
326,144,66831,1,12,0:0:0:0:
44,193,66995,5,8,0:0:0:0:
273,63,67159,1,8,0:0:0:0:
60,76,67323,5,8,0:0:0:0:
254,224,67486,1,8,0:0:0:0:
183,58,67650,5,8,0:0:0:0:
141,284,67814,1,8,0:0:0:0:
299,100,67978,5,8,0:0:0:0:
33,224,68142,1,12,0:0:0:0:
254,224,68306,1,8,0:0:0:0:
280,56,68442,2,0,B|296:128|296:128|336:160|336:160,1,100,8|0,0:0|0:0,0:0:0:0:
200,184,68770,2,0,B|268:200|268:200|248:252,1,100,8|0,0:0|0:0,0:0:0:0:
175,292,69098,2,0,B|77:285|103:203,1,100,8|0,0:0|0:0,0:0:0:0:
85,89,69426,2,0,B|136:81|136:81|153:137,1,100,8|4,0:0|0:0,0:0:0:0:
200,216,69781,5,10,0:3:0:0:
400,108,69944,1,0,0:3:0:0:
136,140,70108,5,0,0:3:0:0:
328,44,70272,1,0,0:3:0:0:
120,52,70436,5,10,0:3:0:0:
364,192,70600,1,0,0:3:0:0:
104,136,70764,5,0,0:3:0:0:
289,286,70928,1,0,0:3:0:0:
88,240,71092,5,10,0:3:0:0:
324,132,71256,1,0,0:3:0:0:
72,144,71420,5,0,0:3:0:0:
220,320,71584,1,0,0:3:0:0:
32,228,71748,5,10,0:3:0:0:
304,144,71912,1,0,0:0:0:0:
39,112,72076,5,0,0:0:0:0:
223,27,72240,1,0,0:0:0:0:
245,238,72404,5,10,0:0:0:0:
113,43,72567,1,0,0:0:0:0:
278,104,72731,5,0,0:0:0:0:
146,310,72895,1,0,0:0:0:0:
72,179,73059,5,10,0:0:0:0:
349,242,73223,1,0,0:0:0:0:
174,329,73387,5,0,0:0:0:0:
303,151,73551,1,0,0:0:0:0:
246,125,73715,6,10,P|157:113|157:113,1,75.0000028610231
96,136,74043,2,10,L|157:195,1,75.0000028610231
194,238,74371,2,10,L|250:161,1,75.0000028610231
298,88,74699,2,10,L|357:148,1,75.0000028610231
350,334,75026,5,14,0:0:0:0:
207,261,75190,1,10,0:0:0:0:
432,228,75354,5,0,0:0:0:0:
264,156,75518,1,0,0:0:0:0:
40,232,75682,5,14,0:0:0:0:
288,300,75846,1,0,0:0:0:0:
100,152,76010,5,0,0:0:0:0:
292,200,76174,1,0,0:0:0:0:
88,248,76338,5,14,0:0:0:0:
260,112,76502,1,0,0:0:0:0:
40,148,76666,5,0,0:0:0:0:
184,48,76830,1,0,0:0:0:0:
322,136,76994,5,14,0:0:0:0:
176,288,77158,1,0,0:0:0:0:
361,290,77322,5,0,0:0:0:0:
166,159,77486,1,0,0:0:0:0:
407,205,77649,5,4,0:0:0:0:
212,74,77813,1,0,0:0:0:0:
448,56,77977,5,0,0:0:0:0:
236,240,78141,1,0,0:0:0:0:
410,322,78305,5,14,0:0:0:0:
256,93,78469,1,0,0:0:0:0:
476,147,78633,5,0,0:0:0:0:
280,348,78797,1,0,0:0:0:0:
305,101,78961,6,0,L|357:158,1,75.0000028610231
356,220,79289,2,0,L|275:271,1,75.0000028610231
228,224,79617,2,0,L|177:153,1,75.0000028610231
248,104,79944,2,0,L|204:40,1,75.0000028610231
76,56,80273,5,6,0:0:0:0:
148,288,80436,1,0,0:0:0:0:
236,48,80600,5,6,0:0:0:0:
280,220,80764,1,2,0:0:0:0:
376,44,80928,5,6,0:0:0:0:
422,260,81092,1,2,0:0:0:0:
272,143,81256,5,6,0:0:0:0:
222,346,81420,1,2,0:0:0:0:
338,269,81584,5,6,0:0:0:0:
120,124,81748,1,2,0:0:0:0:
320,108,81912,5,6,0:0:0:0:
440,288,82076,1,2,0:0:0:0:
208,136,82240,5,14,0:0:0:0:
328,316,82404,1,10,0:0:0:0:
108,176,82567,1,14,0:0:0:0:
367,215,82731,1,10,0:0:0:0:
263,60,82896,1,8,0:0:0:0:
198,308,83060,1,8,0:0:0:0:
359,286,83224,5,8,0:0:0:0:
158,95,83387,1,8,0:0:0:0:
272,328,83551,1,8,0:0:0:0:
97,170,83715,1,8,0:0:0:0:
270,195,83879,1,8,0:0:0:0:
110,329,84043,1,8,0:0:0:0:
197,117,84207,1,8,0:0:0:0:
337,306,84371,1,8,0:0:0:0:
193,261,84535,6,0,P|64:112|64:112,1,100.000003814697
172,60,84754,2,14,B|240:212|240:212,1,100.000003814697
116,216,84972,2,14,P|188:108|216:140,1,200.000007629395
379,114,85191,6,10,B|384:92|368:180,1,66.6666666666667,14|10,0:0|0:0,0:0:0:0:
364,284,85464,1,0,0:0:0:0:
255,285,85573,5,0,0:0:0:0:
219,261,85655,1,0,0:0:0:0:
191,245,85737,2,0,L|147:217,1,50.0000019073487
263,205,85901,5,0,0:0:0:0:
227,181,85983,1,0,0:0:0:0:
199,165,86065,2,0,L|155:137,1,50.0000019073487
98,53,86284,6,0,L|92:207,1,150.000005722046
43,318,86612,2,0,B|112:276|112:276|187:292,1,150.000005722046
258,338,86967,1,0,0:0:0:0:
286,310,87049,1,0,0:0:0:0:
313,278,87159,5,4,0:0:0:0:
438,106,87323,1,8,0:0:0:0:
155,242,87486,5,8,0:0:0:0:
344,51,87650,1,8,0:2:0:0:
