osu file format v14

[General]
AudioFilename: audio.ogg
AudioLeadIn: 0
PreviewTime: 52633
Countdown: 0
SampleSet: Normal
StackLeniency: 0.7
Mode: 1
LetterboxInBreaks: 0
WidescreenStoryboard: 1

[Editor]
Bookmarks: 22223,37961,53699,87797
DistanceSpacing: 1
BeatDivisor: 4
GridSize: 32
TimelineZoom: 2.2

[Metadata]
Title:Guess Who Is Back (TV Size)
TitleUnicode:Guess Who Is Back (TV Size)
Artist:Koda Kumi
ArtistUnicode:倖田來未
Creator:radar
Version:Muzukashii
Source:ブラッククローバー
Tags:anime jpop j-pop meiqth yenmaster ryxliee Black Clover KODAKUMINET DNA AND FAN rhythm zone avex opening 4 english japanese pop rock "good faith" "hope" "love" is hidden in the leaf of the each luck" smells forth "the devil" lives fifth jrock j-rock kouda
BeatmapID:3717803
BeatmapSetID:1801217

[Difficulty]
HPDrainRate:6
CircleSize:5
OverallDifficulty:4.5
ApproachRate:5
SliderMultiplier:1.4
SliderTickRate:1

[Events]
//Background and Video events
0,0,"bg.jpg",0,-90
//Break Periods
//Storyboard Layer 0 (Background)
//Storyboard Layer 1 (Fail)
//Storyboard Layer 2 (Pass)
//Storyboard Layer 3 (Foreground)
//Storyboard Layer 4 (Overlay)
//Storyboard Sound Samples

[TimingPoints]
1240,327.868852459016,4,1,0,60,1,0
1240,-111.111111111111,4,1,0,60,0,0
11649,-105.263157894737,4,1,0,70,0,0
20830,-105.263157894737,4,1,0,80,0,0
22141,-100,4,1,0,90,0,0
32961,-111.111111111111,4,1,0,80,0,0
37879,-125,4,1,0,90,0,0
46813,-125,4,1,0,90,0,0
46977,-122.708721399665,4,1,0,90,0,0
47141,-120.499930110041,4,1,0,90,0,0
47305,-118.36939062254,4,1,0,90,0,0
47469,-116.312746364936,4,1,0,90,0,0
47633,-114.326349136665,4,1,0,90,0,0
47797,-112.406660319437,4,1,0,90,0,0
47961,-110.550497256137,4,1,0,90,0,0
48125,-108.75452146923,4,1,0,90,0,0
48289,-107.015966782244,4,1,0,90,0,0
48453,-105.332122716136,4,1,0,90,0,0
49026,-103.092783505155,4,1,0,90,0,0
49682,-101.010101010101,4,1,0,90,0,0
50338,-99.009900990099,4,1,0,90,0,0
51076,-97.0873786407767,4,1,0,90,0,0
51239,-95.4653937947494,4,1,0,90,0,0
51403,-93.8967136150235,4,1,0,90,0,0
51567,-92.378752886836,4,1,0,90,0,0
51731,-90.9090909090909,4,1,0,90,0,0
51813,-90.1916572717024,4,1,0,90,0,0
51895,-89.4854586129754,4,1,0,90,0,0
51977,-88.7902330743618,4,1,0,90,0,0
52059,-88.1057268722467,4,1,0,90,0,0
52223,-86.7678958785249,4,1,0,90,0,0
52387,-85.4700854700855,4,1,0,90,0,0
53699,-90.9090909090909,4,1,0,100,0,1
63535,-90.9090909090909,4,1,0,100,0,0
64190,-90.9090909090909,4,1,0,100,0,1
85174,-90.9090909090909,4,1,0,100,0,0
85338,-100,4,1,0,100,0,0

[HitObjects]
116,290,1240,5,8,0:0:0:0:
116,290,1731,1,8,0:0:0:0:
116,290,2223,1,0,0:0:0:0:
115,290,3862,1,0,0:0:0:0:
115,290,4354,1,0,0:0:0:0:
115,290,4846,1,8,0:0:0:0:
115,290,5174,1,0,0:0:0:0:
115,290,5830,1,0,0:0:0:0:
115,290,6485,1,8,0:0:0:0:
115,290,6977,1,8,0:0:0:0:
115,290,7305,1,0,0:0:0:0:
115,290,7633,1,8,0:0:0:0:
115,290,7797,1,8,0:0:0:0:
115,290,8780,1,0,0:0:0:0:
115,290,9108,1,0,0:0:0:0:
115,290,9272,1,8,0:0:0:0:
115,290,9600,1,8,0:0:0:0:
115,290,9928,1,0,0:0:0:0:
115,290,10256,1,8,0:0:0:0:
115,290,11731,1,0,0:0:0:0:
115,290,12059,1,0,0:0:0:0:
115,290,12387,1,8,0:0:0:0:
115,290,12715,1,8,0:0:0:0:
115,290,13043,1,0,0:0:0:0:
115,290,13371,1,0,0:0:0:0:
115,290,13699,1,8,0:0:0:0:
115,290,14354,1,8,0:0:0:0:
115,290,14682,1,8,0:0:0:0:
115,290,15010,1,0,0:0:0:0:
115,290,15338,1,0,0:0:0:0:
115,290,15666,1,8,0:0:0:0:
115,290,15994,1,8,0:0:0:0:
115,290,16321,1,0,0:0:0:0:
115,290,16977,1,0,0:0:0:0:
115,290,17305,1,0,0:0:0:0:
115,290,17633,1,8,0:0:0:0:
115,290,17961,1,0,0:0:0:0:
115,290,18289,1,0,0:0:0:0:
115,290,18617,1,0,0:0:0:0:
115,290,18944,1,8,0:0:0:0:
120,288,19600,1,8,0:0:0:0:
120,288,19928,1,8,0:0:0:0:
120,288,20256,1,8,0:0:0:0:
120,288,20584,1,0,0:0:0:0:
120,288,20912,1,8,0:0:0:0:
120,288,21076,1,8,0:0:0:0:
120,288,21567,1,0,0:0:0:0:
120,288,21731,1,0,0:0:0:0:
116,72,22223,1,12,0:0:0:0:
149,267,22551,1,0,0:0:0:0:
149,267,22715,1,0,0:0:0:0:
149,267,22879,1,8,0:0:0:0:
149,267,23043,1,8,0:0:0:0:
150,253,23371,1,0,0:0:0:0:
150,253,23535,1,8,0:0:0:0:
150,253,23699,1,8,0:0:0:0:
150,253,23862,1,8,0:0:0:0:
162,254,24354,1,0,0:0:0:0:
162,254,24518,1,8,0:0:0:0:
162,254,24682,1,0,0:0:0:0:
162,246,24846,1,8,0:0:0:0:
156,258,25174,1,8,0:0:0:0:
156,258,25338,1,8,0:0:0:0:
156,258,25502,1,0,0:0:0:0:
156,258,25666,1,8,0:0:0:0:
156,258,25994,1,0,0:0:0:0:
156,258,26158,1,8,0:0:0:0:
156,258,26321,1,8,0:0:0:0:
156,258,26485,1,0,0:0:0:0:
156,258,26649,1,0,0:0:0:0:
156,258,26813,1,8,0:0:0:0:
156,258,26977,1,8,0:0:0:0:
156,258,27141,1,8,0:0:0:0:
156,258,27305,1,8,0:0:0:0:
124,293,27469,1,0,0:0:0:0:
139,276,27797,1,8,0:0:0:0:
139,276,27961,1,8,0:0:0:0:
139,276,28125,1,0,0:0:0:0:
156,271,28289,1,8,0:0:0:0:
156,271,28617,1,0,0:0:0:0:
156,271,28780,1,8,0:0:0:0:
156,271,28944,1,8,0:0:0:0:
157,264,29108,1,0,0:0:0:0:
157,264,29600,1,8,0:0:0:0:
157,264,29764,1,8,0:0:0:0:
157,264,29928,1,8,0:0:0:0:
124,56,30092,1,4,0:0:0:0:
141,271,30256,1,8,0:0:0:0:
142,268,30584,1,0,0:0:0:0:
113,50,30748,1,12,0:0:0:0:
152,273,30912,1,0,0:0:0:0:
162,252,31239,1,8,0:0:0:0:
152,255,31403,1,0,0:0:0:0:
152,255,31731,1,0,0:0:0:0:
144,268,32059,1,8,0:0:0:0:
144,268,32223,1,8,0:0:0:0:
144,268,32387,1,8,0:0:0:0:
144,268,32551,1,8,0:0:0:0:
140,277,32715,1,0,0:0:0:0:
139,277,33043,1,8,0:0:0:0:
139,277,33125,1,8,0:0:0:0:
139,277,33207,1,8,0:0:0:0:
139,277,33371,1,0,0:0:0:0:
140,277,33699,1,8,0:0:0:0:
163,279,33780,1,8,0:0:0:0:
161,278,33862,1,8,0:0:0:0:
139,277,34026,1,0,0:0:0:0:
154,271,34354,1,8,0:0:0:0:
154,271,34436,1,8,0:0:0:0:
154,267,34518,1,8,0:0:0:0:
154,266,34682,1,0,0:0:0:0:
153,260,35010,1,8,0:0:0:0:
153,260,35092,1,8,0:0:0:0:
154,258,35174,1,8,0:0:0:0:
154,258,35338,1,0,0:0:0:0:
154,266,35666,1,8,0:0:0:0:
157,267,35748,1,8,0:0:0:0:
157,267,35830,1,8,0:0:0:0:
157,267,35994,1,0,0:0:0:0:
157,267,36158,1,8,0:0:0:0:
157,267,36321,1,8,0:0:0:0:
154,267,36485,1,8,0:0:0:0:
156,283,36649,1,0,0:0:0:0:
117,81,37961,1,12,0:0:0:0:
107,309,38289,1,0,0:0:0:0:
107,309,38453,1,0,0:0:0:0:
107,309,38617,1,8,0:0:0:0:
111,308,38780,1,0,0:0:0:0:
111,308,38944,1,8,0:0:0:0:
138,295,39272,1,0,0:0:0:0:
138,295,39436,1,0,0:0:0:0:
138,295,39600,1,0,0:0:0:0:
138,295,39764,1,8,0:0:0:0:
148,280,39928,1,0,0:0:0:0:
143,300,40256,1,8,0:0:0:0:
143,300,40584,1,0,0:0:0:0:
143,300,40748,1,0,0:0:0:0:
144,285,40912,1,0,0:0:0:0:
144,285,41076,1,8,0:0:0:0:
144,285,41239,1,0,0:0:0:0:
136,284,41567,1,0,0:0:0:0:
138,276,41895,1,8,0:0:0:0:
138,276,42059,1,0,0:0:0:0:
138,276,42223,1,0,0:0:0:0:
139,276,42387,1,8,0:0:0:0:
143,273,42551,1,0,0:0:0:0:
102,40,43207,1,12,0:0:0:0:
146,261,43535,1,0,0:0:0:0:
146,261,43699,1,0,0:0:0:0:
146,261,43862,1,8,0:0:0:0:
146,261,44026,1,0,0:0:0:0:
146,261,44190,1,8,0:0:0:0:
146,261,44518,1,0,0:0:0:0:
146,261,44682,1,0,0:0:0:0:
146,261,44846,1,0,0:0:0:0:
135,257,45010,1,8,0:0:0:0:
136,257,45174,1,0,0:0:0:0:
136,254,45502,1,8,0:0:0:0:
136,254,45830,1,0,0:0:0:0:
135,257,45994,1,0,0:0:0:0:
136,257,46158,1,8,0:0:0:0:
136,254,46321,1,8,0:0:0:0:
136,254,46485,1,0,0:0:0:0:
136,254,46813,1,0,0:0:0:0:
136,257,47141,1,0,0:0:0:0:
136,254,47305,1,0,0:0:0:0:
136,254,47469,1,8,0:0:0:0:
125,238,47797,1,0,0:0:0:0:
144,254,47961,1,8,0:0:0:0:
144,254,48125,1,8,0:0:0:0:
144,254,48289,1,8,0:0:0:0:
94,60,48453,1,4,0:0:0:0:
109,258,49108,1,0,0:0:0:0:
109,258,49764,1,0,0:0:0:0:
109,258,50420,1,0,0:0:0:0:
129,274,51076,1,8,0:0:0:0:
129,274,51239,1,0,0:0:0:0:
129,274,51403,1,8,0:0:0:0:
129,274,51567,1,0,0:0:0:0:
129,274,51731,1,8,0:0:0:0:
144,266,51813,1,8,0:0:0:0:
144,266,51895,1,8,0:0:0:0:
146,266,52059,1,0,0:0:0:0:
146,258,52223,1,0,0:0:0:0:
120,41,52387,1,12,0:0:0:0:
117,116,53699,1,12,0:0:0:0:
149,297,54026,1,0,0:0:0:0:
149,297,54190,1,8,0:0:0:0:
149,297,54354,1,8,0:0:0:0:
156,285,54518,1,0,0:0:0:0:
156,285,54682,1,8,0:0:0:0:
156,285,55010,1,0,0:0:0:0:
156,285,55338,1,8,0:0:0:0:
156,285,55502,1,0,0:0:0:0:
156,285,55666,1,8,0:0:0:0:
172,263,55994,1,0,0:0:0:0:
159,257,56158,1,8,0:0:0:0:
159,257,56321,1,8,0:0:0:0:
158,260,56649,1,0,0:0:0:0:
156,261,56977,1,8,0:0:0:0:
156,261,57141,1,0,0:0:0:0:
150,259,57633,1,8,0:0:0:0:
150,259,57797,1,0,0:0:0:0:
165,240,57961,1,8,0:0:0:0:
165,240,58125,1,0,0:0:0:0:
165,240,58289,1,8,0:0:0:0:
165,240,58453,1,8,0:0:0:0:
165,240,58617,1,0,0:0:0:0:
165,240,58780,1,0,0:0:0:0:
128,46,58944,1,12,0:0:0:0:
169,234,59272,1,8,0:0:0:0:
169,234,59436,1,0,0:0:0:0:
169,234,59600,1,8,0:0:0:0:
92,241,59764,1,8,0:0:0:0:
169,234,59928,1,0,0:0:0:0:
169,234,60256,1,8,0:0:0:0:
169,234,60584,1,0,0:0:0:0:
169,234,60748,1,8,0:0:0:0:
169,234,60912,1,8,0:0:0:0:
169,234,61239,1,8,0:0:0:0:
169,234,61403,1,0,0:0:0:0:
169,234,61567,1,8,0:0:0:0:
169,234,61895,1,0,0:0:0:0:
176,225,62223,1,8,0:0:0:0:
176,225,62387,1,0,0:0:0:0:
176,225,62715,1,0,0:0:0:0:
176,224,62879,1,8,0:0:0:0:
178,235,63043,1,8,0:0:0:0:
174,234,63207,1,8,0:0:0:0:
174,234,63371,1,8,0:0:0:0:
135,113,63535,1,4,0:0:0:0:
135,113,64190,1,12,0:0:0:0:
165,267,64518,1,8,0:0:0:0:
177,265,64682,1,0,0:0:0:0:
176,264,64846,1,8,0:0:0:0:
172,269,65010,1,0,0:0:0:0:
172,269,65174,1,8,0:0:0:0:
172,269,65256,1,8,0:0:0:0:
172,269,65338,1,8,0:0:0:0:
178,261,65502,1,0,0:0:0:0:
177,265,65666,1,0,0:0:0:0:
176,264,65830,1,8,0:0:0:0:
178,261,65912,1,8,0:0:0:0:
178,261,65994,1,8,0:0:0:0:
178,261,66158,1,0,0:0:0:0:
178,261,66485,1,8,0:0:0:0:
181,258,66649,1,8,0:0:0:0:
190,237,66813,1,0,0:0:0:0:
176,248,67141,1,8,0:0:0:0:
176,248,67305,1,0,0:0:0:0:
176,241,67469,1,8,0:0:0:0:
176,241,67633,1,0,0:0:0:0:
176,241,67797,1,8,0:0:0:0:
176,241,67961,1,8,0:0:0:0:
172,237,68125,1,0,0:0:0:0:
128,260,68453,1,8,0:0:0:0:
128,260,68617,1,0,0:0:0:0:
128,260,68780,1,8,0:0:0:0:
128,260,68944,1,8,0:0:0:0:
152,238,69108,1,0,0:0:0:0:
152,238,69272,1,0,0:0:0:0:
108,57,69436,1,12,0:0:0:0:
159,263,70092,1,0,0:0:0:0:
159,263,70256,1,8,0:0:0:0:
144,266,70420,1,0,0:0:0:0:
144,266,70502,1,0,0:0:0:0:
151,264,70584,1,0,0:0:0:0:
151,264,70748,1,8,0:0:0:0:
155,258,70912,1,8,0:0:0:0:
155,258,71076,1,0,0:0:0:0:
155,258,71158,1,0,0:0:0:0:
155,258,71239,1,0,0:0:0:0:
155,258,71403,1,8,0:0:0:0:
155,258,71731,1,8,0:0:0:0:
155,258,71895,1,8,0:0:0:0:
168,248,72059,1,0,0:0:0:0:
167,248,72387,1,0,0:0:0:0:
168,248,72551,1,8,0:0:0:0:
161,251,72715,1,8,0:0:0:0:
161,251,72879,1,0,0:0:0:0:
161,251,73043,1,8,0:0:0:0:
161,251,73207,1,0,0:0:0:0:
168,238,73371,1,8,0:0:0:0:
166,260,73699,1,0,0:0:0:0:
166,260,73862,1,0,0:0:0:0:
166,260,74026,1,8,0:0:0:0:
166,260,74190,1,8,0:0:0:0:
166,260,74354,1,0,0:0:0:0:
138,62,74682,1,12,0:0:0:0:
176,267,75338,1,8,0:0:0:0:
176,267,75420,1,8,0:0:0:0:
182,268,75502,1,8,0:0:0:0:
182,268,75666,1,8,0:0:0:0:
182,268,75830,1,8,0:0:0:0:
182,268,75994,1,0,0:0:0:0:
176,267,76076,1,0,0:0:0:0:
176,267,76158,1,0,0:0:0:0:
176,267,76321,1,8,0:0:0:0:
182,268,76485,1,0,0:0:0:0:
182,268,76567,1,0,0:0:0:0:
182,268,76649,1,0,0:0:0:0:
179,276,76813,1,8,0:0:0:0:
179,276,76977,1,8,0:0:0:0:
179,276,77141,1,8,0:0:0:0:
180,269,77305,1,0,0:0:0:0:
172,267,77961,1,8,0:0:0:0:
172,267,78043,1,8,0:0:0:0:
171,267,78125,1,8,0:0:0:0:
165,258,78289,1,8,0:0:0:0:
165,258,78453,1,8,0:0:0:0:
190,269,78617,1,0,0:0:0:0:
190,269,78699,1,0,0:0:0:0:
190,269,78780,1,0,0:0:0:0:
190,269,78944,1,8,0:0:0:0:
190,269,79108,1,0,0:0:0:0:
190,269,79272,1,8,0:0:0:0:
190,269,79436,1,0,0:0:0:0:
183,265,79600,1,8,0:0:0:0:
184,263,79764,1,8,0:0:0:0:
144,97,79928,1,4,0:0:0:0:
170,263,80584,1,8,0:0:0:0:
170,263,80666,1,8,0:0:0:0:
170,263,80748,1,8,0:0:0:0:
170,263,80912,1,8,0:0:0:0:
160,264,81076,1,8,0:0:0:0:
155,272,81239,1,0,0:0:0:0:
155,272,81321,1,0,0:0:0:0:
155,272,81403,1,0,0:0:0:0:
155,272,81567,1,8,0:0:0:0:
155,272,81731,1,0,0:0:0:0:
155,270,81813,1,0,0:0:0:0:
155,272,81895,1,0,0:0:0:0:
150,275,82059,1,8,0:0:0:0:
150,275,82223,1,8,0:0:0:0:
155,272,82387,1,8,0:0:0:0:
155,272,82551,1,0,0:0:0:0:
123,277,83207,1,8,0:0:0:0:
123,277,83371,1,0,0:0:0:0:
123,277,83535,1,8,0:0:0:0:
123,277,83699,1,0,0:0:0:0:
108,261,83780,1,0,0:0:0:0:
123,277,83862,1,0,0:0:0:0:
123,277,84026,1,8,0:0:0:0:
123,277,84190,1,8,0:0:0:0:
123,277,84354,1,8,0:0:0:0:
143,75,84518,1,4,0:0:0:0:
134,104,85174,1,12,0:0:0:0:
150,271,85502,1,0,0:0:0:0:
150,271,85666,1,0,0:0:0:0:
150,271,85830,1,8,0:0:0:0:
150,271,85994,1,0,0:0:0:0:
151,281,86321,1,0,0:0:0:0:
151,281,86485,1,8,0:0:0:0:
151,281,86649,1,0,0:0:0:0:
151,281,86977,1,0,0:0:0:0:
151,281,87141,1,8,0:0:0:0:
151,281,87305,1,8,0:0:0:0:
151,281,87469,1,8,0:0:0:0:
151,281,87633,1,8,0:0:0:0:
