osu file format v14

[General]
AudioFilename: audio.mp3
AudioLeadIn: 0
PreviewTime: 52505
Countdown: 0
SampleSet: Normal
StackLeniency: 0.4
Mode: 0
LetterboxInBreaks: 0
WidescreenStoryboard: 1

[Editor]
DistanceSpacing: 1
BeatDivisor: 4
GridSize: 8
TimelineZoom: 2.4

[Metadata]
Title:Guess Who Is Back (TV Size)
TitleUnicode:Guess Who Is Back (TV Size)
Artist:Koda Kumi
ArtistUnicode:Koda Kumi
Creator:ThreeZ3ro2
Version:Expert
Source:Black Clover
Tags:Black Clover Season Four Opening Koda Kumi ThreeZ3ro2 Vaxalk Manquito
BeatmapID:1915792
BeatmapSetID:907901

[Difficulty]
HPDrainRate:5.2
CircleSize:4
OverallDifficulty:9
ApproachRate:9.2
SliderMultiplier:1.5
SliderTickRate:1

[Events]
//Background and Video events
0,0,"Guess Who.jpg",0,0
Video,0,"Black Clover Opening Theme 4.mp4"
//Break Periods
//Storyboard Layer 0 (Background)
//Storyboard Layer 1 (Fail)
//Storyboard Layer 2 (Pass)
//Storyboard Layer 3 (Foreground)
//Storyboard Sound Samples

[TimingPoints]
1030,327.868852459016,4,2,1,100,1,0
1030,-100,4,2,1,40,0,0
22013,-80,4,1,1,60,0,0
37751,-133.333333333333,4,2,1,50,0,0
53489,-100,4,1,1,70,0,1
63325,-100,4,2,1,50,0,0
63980,-100,4,1,1,70,0,1
74472,-100,4,1,1,70,0,0
84964,-100,4,1,1,60,0,0
86931,-100,4,1,1,75,0,0

[Colours]
Combo1 : 128,255,0
Combo2 : 255,0,0
Combo3 : 0,255,255
Combo4 : 255,255,0
Combo5 : 255,128,192
Combo6 : 128,255,255

[HitObjects]
112,96,374,5,0,0:0:0:0:
112,96,702,1,0,0:0:0:0:
112,200,1030,6,0,P|160:200|200:216,1,75,2|0,0:0|0:0,0:0:0:0:
280,280,1357,1,0,0:0:0:0:
392,224,1521,2,0,P|352:192|304:176,1,75
144,144,1849,1,0,0:0:0:0:
240,96,2013,2,0,P|280:96|328:112,1,75,2|0,0:0|0:0,0:0:0:0:
112,240,2341,1,0,0:0:0:0:
392,184,2505,2,0,B|344:184|296:216,1,75
216,296,2833,1,0,0:0:0:0:
216,296,2997,2,0,B|184:312|184:312|136:320,1,75
56,168,3325,2,0,P|104:168|152:192,1,75
400,280,3647,6,0,B|416:248|416:248|416:192,1,75,2|0,0:0|0:0,0:0:0:0:
416,88,3980,1,0,0:0:0:0:
320,312,4144,2,0,B|304:280|304:280|304:224,1,75
304,120,4472,1,0,0:0:0:0:
160,328,4636,1,0,0:0:0:0:
160,328,4800,1,0,0:0:0:0:
192,144,4964,6,0,P|168:112|184:160,1,150,2|0,0:0|0:0,0:0:0:0:
256,200,5456,1,0,0:0:0:0:
256,200,5620,2,0,B|272:152|272:152|264:96,1,75,2|0,0:0|0:0,0:0:0:0:
256,48,5948,1,0,0:0:0:0:
72,216,6275,6,0,P|104:272|136:288,1,75,2|0,0:0|0:0,0:0:0:0:
264,336,6603,1,0,0:0:0:0:
160,128,6767,2,0,P|120:104|72:112,1,75
152,208,7095,2,0,P|200:232|240:224,1,75
328,192,7423,1,0,0:0:0:0:
80,168,7587,6,0,P|64:208|136:296,1,150,2|0,0:0|0:0,0:0:0:0:
224,207,8079,1,0,0:0:0:0:
224,207,8243,2,0,P|176:199|152:207,1,75
192,288,8570,2,0,P|240:304|288:248,1,112.5
296,240,8898,5,0,0:0:0:0:
208,80,9062,2,0,B|256:80|256:80|296:104,1,75
440,152,9390,2,0,P|400:144|424:176,1,75
392,240,9718,2,0,P|344:224|320:184,1,75
280,112,10046,1,0,0:0:0:0:
208,272,10210,5,2,0:0:0:0:
256,192,10292,12,0,11193,0:0:0:0:
136,112,11521,5,2,0:0:0:0:
136,112,11849,1,2,0:0:0:0:
136,112,12177,1,2,0:0:0:0:
136,112,12505,1,2,0:0:0:0:
368,232,12833,5,2,0:0:0:0:
368,232,13161,1,2,0:0:0:0:
368,232,13489,1,2,0:0:0:0:
368,232,13816,1,2,0:0:0:0:
32,200,14144,5,2,0:0:0:0:
32,200,14472,1,2,0:0:0:0:
32,200,14800,1,2,0:0:0:0:
32,200,15128,1,2,0:0:0:0:
240,352,15456,5,2,0:0:0:0:
240,352,15784,1,2,0:0:0:0:
240,352,16111,1,2,0:0:0:0:
440,248,16439,1,2,0:0:0:0:
232,144,16767,6,0,B|160:104|160:192|80:144,2,150,2|2|2,0:0|0:0|0:0,0:0:0:0:
200,216,17751,1,2,0:0:0:0:
120,80,17915,1,0,0:0:0:0:
200,216,18079,1,2,0:0:0:0:
288,264,18243,1,0,0:0:0:0:
200,216,18407,2,0,P|152:232|136:256,1,75,2|0,0:0|0:0,0:0:0:0:
40,288,18734,2,0,P|64:336|152:344,1,150,2|2,0:0|0:0,0:0:0:0:
384,192,19390,6,0,P|336:168|368:216,2,150,2|2|2,0:0|0:0|0:0,0:0:0:0:
224,256,20374,1,0,0:0:0:0:
256,80,20702,5,2,0:0:0:0:
184,216,20866,2,0,P|256:248|320:216,1,150
256,80,21357,5,2,0:0:0:0:
320,248,21521,2,0,P|253:277|188:245,1,150
144,48,22013,2,0,B|224:32|224:32|320:80|339:99,1,187.5,4|0,0:0|0:0,0:0:0:0:
56,72,22505,1,0,0:0:0:0:
96,176,22669,2,0,P|136:224|184:232,1,93.75,8|0,0:0|0:0,0:0:0:0:
320,112,22997,1,0,0:0:0:0:
96,176,23161,1,0,0:0:0:0:
96,176,23325,6,0,P|128:232|168:248,1,93.75,2|0,2:0|0:0,0:0:0:0:
256,232,23652,2,0,P|312:232|360:272,1,93.75
288,304,23980,1,8,0:0:0:0:
176,168,24144,1,0,0:0:0:0:
440,208,24308,1,0,0:0:0:0:
296,104,24472,1,0,0:0:0:0:
296,104,24636,6,0,B|232:112|232:112|136:208,1,187.5,2|0,2:0|0:0,0:0:0:0:
296,184,25128,1,0,0:0:0:0:
296,184,25292,2,0,P|320:232|304:280,1,93.75,8|0,0:0|0:0,0:0:0:0:
152,312,25620,1,0,0:0:0:0:
96,40,25784,1,0,0:0:0:0:
224,136,25948,5,0,0:0:0:0:
336,40,26111,1,0,0:0:0:0:
136,112,26275,1,0,0:0:0:0:
192,32,26439,1,0,0:0:0:0:
192,32,26521,1,0,0:0:0:0:
192,32,26603,1,0,0:0:0:0:
176,272,26767,1,8,0:0:0:0:
168,80,26931,5,8,0:0:0:0:
88,216,27095,1,8,0:0:0:0:
352,216,27259,6,0,P|312:264|264:272,1,93.75,4|0,0:0|0:0,0:0:0:0:
136,136,27587,1,0,0:0:0:0:
272,192,27751,1,0,0:0:0:0:
272,192,27915,1,8,0:0:0:0:
152,72,28079,2,0,P|104:72|128:96,1,93.75
176,208,28407,1,0,0:0:0:0:
176,208,28570,5,2,2:0:0:0:
232,96,28734,1,0,0:0:0:0:
360,176,28898,1,0,0:0:0:0:
304,32,29062,1,0,0:0:0:0:
304,32,29144,1,0,0:0:0:0:
304,32,29226,5,0,0:0:0:0:
224,176,29390,1,0,0:0:0:0:
176,24,29554,1,0,0:0:0:0:
160,240,29718,1,0,0:0:0:0:
432,264,29882,6,0,B|327:314|327:314|262:286,1,187.5,2|0,2:0|0:0,0:0:0:0:
160,120,30374,1,0,0:0:0:0:
192,240,30538,2,0,P|168:312|128:344,1,93.75,8|0,0:0|0:0,0:0:0:0:
232,176,30866,1,0,0:0:0:0:
120,256,31029,1,0,0:0:0:0:
336,112,31193,5,0,0:0:0:0:
472,264,31357,1,0,0:0:0:0:
440,168,31521,1,0,0:0:0:0:
256,240,31685,1,0,0:0:0:0:
256,240,31767,1,0,0:0:0:0:
256,240,31849,5,0,0:0:0:0:
160,112,32013,1,8,0:0:0:0:
72,240,32177,1,8,0:0:0:0:
248,136,32341,1,8,0:0:0:0:
40,144,32505,5,0,3:0:0:0:
80,176,32587,1,0,3:0:0:0:
128,184,32669,1,0,3:0:0:0:
168,152,32751,1,0,3:0:0:0:
192,104,32833,2,0,B|208:48|208:48|160:0,1,93.75,0|0,3:0|3:0,3:0:0:0:
448,120,33161,5,0,3:0:0:0:
408,144,33243,1,0,3:0:0:0:
376,184,33325,1,0,3:0:0:0:
360,232,33407,1,0,3:0:0:0:
344,288,33489,2,0,B|328:344|328:344|376:392,1,93.75,0|0,3:0|3:0,3:0:0:0:
8,360,33816,5,0,3:0:0:0:
56,376,33898,1,0,3:0:0:0:
104,376,33980,1,0,3:0:0:0:
152,360,34062,1,0,3:0:0:0:
200,336,34144,2,0,P|248:320|304:328,1,93.75,0|0,3:0|3:0,3:0:0:0:
472,40,34472,5,0,3:0:0:0:
440,80,34554,1,0,3:0:0:0:
392,88,34636,1,0,3:0:0:0:
344,80,34718,1,0,3:0:0:0:
304,48,34800,2,0,P|267:19|221:19,1,93.75,0|0,3:0|3:0,3:0:0:0:
32,48,35128,5,0,3:0:0:0:
48,96,35210,1,0,3:0:0:0:
64,144,35292,1,0,3:0:0:0:
80,192,35374,1,0,3:0:0:0:
96,240,35456,1,0,3:0:0:0:
240,96,35620,1,0,3:0:0:0:
208,232,35784,2,0,B|192:288|192:288|136:320,1,93.75,0|0,3:0|3:0,3:0:0:0:
56,200,36111,2,0,B|72:144|72:144|128:112,1,93.75,0|0,3:0|3:0,3:0:0:0:
136,208,36439,1,0,3:0:0:0:
192,96,37095,6,0,L|248:136,5,62.5,0|0|0|0|0|0,3:0|3:0|3:0|3:0|3:0|3:0,3:0:0:0:
96,200,37751,6,0,P|144:240|216:240,1,112.500004291535,4|0,1:2|1:0,0:0:0:0:
176,168,38243,1,0,0:0:0:0:
320,216,38407,1,8,0:0:0:0:
304,64,38570,1,0,0:0:0:0:
208,232,38734,1,0,0:0:0:0:
344,120,38898,1,0,0:0:0:0:
344,120,39062,6,0,P|352:128|392:184,1,56.2500021457673,0|0,0:0|1:0,0:0:0:0:
304,192,39390,1,0,1:0:0:0:
208,144,39554,2,0,P|176:176|168:208,1,56.2500021457673,0|8,0:0|0:0,0:0:0:0:
112,312,39882,1,0,0:0:0:0:
112,312,40046,1,0,0:0:0:0:
248,240,40210,1,0,0:0:0:0:
120,176,40374,6,0,P|72:152|64:128,1,56.2500021457673,0|0,1:0|0:0,0:0:0:0:
136,104,40702,1,0,1:0:0:0:
232,104,40866,2,0,B|248:112|248:112|280:144,1,56.2500021457673,0|8,0:0|0:0,0:0:0:0:
112,264,41357,1,0,0:0:0:0:
200,200,41521,1,0,0:0:0:0:
248,320,41685,5,0,0:0:0:0:
96,192,41849,1,0,1:0:0:0:
264,248,42013,1,0,1:0:0:0:
144,136,42177,1,0,0:0:0:0:
296,128,42341,2,0,P|288:160|272:104,1,168.750006437302,8|0,0:0|0:0,0:0:0:0:
264,136,42997,6,0,P|232:160|200:176,1,56.2500021457673,4|0,1:2|0:0,0:0:0:0:
144,184,43325,2,0,P|104:192|72:216,1,56.2500021457673,0|0,1:0|0:0,0:0:0:0:
136,256,43652,1,8,0:0:0:0:
288,224,43816,1,0,0:0:0:0:
336,336,43980,1,0,0:0:0:0:
336,336,44144,1,0,0:0:0:0:
480,296,44308,6,0,B|488:256|488:256|480:224,2,56.2500021457673,0|0|0,0:0|1:0|1:0,0:0:0:0:
416,256,44800,1,0,0:0:0:0:
456,352,44964,2,0,P|416:352|384:368,1,56.2500021457673,8|0,0:0|0:0,0:0:0:0:
336,320,45292,1,0,0:0:0:0:
320,232,45456,1,0,0:0:0:0:
368,152,45620,6,0,P|392:120|424:112,1,56.2500021457673,0|0,1:0|0:0,0:0:0:0:
488,72,45948,2,0,P|496:32|488:8,1,56.2500021457673,0|0,1:0|0:0,0:0:0:0:
416,40,46275,1,8,0:0:0:0:
320,32,46439,1,0,0:0:0:0:
248,112,46603,1,0,0:0:0:0:
248,112,46767,1,0,0:0:0:0:
408,176,46931,5,0,0:0:0:0:
368,40,47095,1,0,1:0:0:0:
304,192,47259,1,0,1:0:0:0:
480,128,47423,1,0,0:0:0:0:
408,264,47587,1,0,3:0:0:0:
408,264,47751,1,0,3:0:0:0:
408,264,47915,1,0,3:0:0:0:
408,264,48079,1,0,3:0:0:0:
408,264,48243,6,0,P|352:240|408:288,3,225.000008583069,4|0|0|0,1:2|1:2|1:2|1:2,1:2:0:0:
368,280,50866,5,8,1:0:0:0:
264,192,51029,1,8,1:0:0:0:
152,256,51193,1,8,1:0:0:0:
352,144,51357,1,8,1:0:0:0:
168,64,51521,5,8,1:0:0:0:
144,96,51603,1,8,1:0:0:0:
136,136,51685,1,8,1:0:0:0:
144,176,51767,1,8,1:0:0:0:
160,216,51849,1,8,1:0:0:0:
184,248,51931,1,8,1:0:0:0:
224,264,52013,1,8,1:0:0:0:
264,264,52095,1,8,1:0:0:0:
304,256,52177,5,4,0:0:0:0:
64,80,53489,6,0,B|40:120|40:120|56:240,1,150,4|0,0:0|0:0,0:0:0:0:
144,160,53980,1,0,0:0:0:0:
240,304,54144,1,8,0:0:0:0:
240,96,54308,1,0,0:0:0:0:
160,256,54472,1,0,0:0:0:0:
288,160,54636,1,0,0:0:0:0:
336,256,54800,6,0,B|360:280|360:280|376:352,1,75
184,208,55128,2,0,B|168:168|168:168|168:112,1,75
432,120,55456,2,0,B|384:96|384:96|336:96,1,75,8|0,0:0|0:0,0:0:0:0:
256,232,55784,1,0,0:0:0:0:
368,160,55948,1,0,0:0:0:0:
120,80,56111,6,0,P|96:112|144:88,1,150
88,208,56603,1,0,0:0:0:0:
88,208,56685,1,0,0:0:0:0:
88,208,56767,2,0,P|136:224|184:208,1,75,8|0,0:0|0:0,0:0:0:0:
240,176,57095,2,0,B|272:152|272:152|328:144,1,75
352,248,57423,5,0,0:0:0:0:
352,248,57587,1,0,0:0:0:0:
176,176,57751,1,0,0:0:0:0:
216,320,57915,1,0,0:0:0:0:
248,144,58079,1,8,0:0:0:0:
120,288,58243,1,0,0:0:0:0:
312,192,58407,1,0,0:0:0:0:
80,168,58570,1,0,0:0:0:0:
320,88,58734,6,0,B|376:120|376:120|400:224,1,150,4|0,0:0|0:0,0:0:0:0:
176,144,59390,1,8,0:0:0:0:
224,240,59554,1,0,0:0:0:0:
80,168,59718,1,0,0:0:0:0:
288,280,59882,1,0,0:0:0:0:
144,200,60046,6,0,P|104:232|96:280,1,75
216,216,60374,2,0,P|208:165|170:134,1,75
168,272,60702,2,0,P|215:290|261:273,1,75,8|0,0:0|0:0,0:0:0:0:
352,216,61029,1,0,0:0:0:0:
152,136,61193,1,0,0:0:0:0:
256,176,61357,6,0,B|264:224|264:224|224:328,1,150
152,136,61849,1,0,0:0:0:0:
152,136,61931,1,0,0:0:0:0:
152,136,62013,2,0,B|256:96|256:96|320:112,1,150,8|0,0:0|0:0,0:0:0:0:
368,256,62505,1,0,0:0:0:0:
368,256,62587,1,0,0:0:0:0:
368,256,62669,5,0,0:0:0:0:
216,160,62833,1,0,0:0:0:0:
280,328,62997,1,0,0:0:0:0:
312,120,63161,1,0,0:0:0:0:
32,224,63325,6,0,P|72:248|128:248,1,75,8|0,1:0|1:0,1:0:0:0:
136,232,63570,2,0,P|176:224|232:240,1,75,8|0,1:0|1:0,1:0:0:0:
240,248,63816,1,8,1:0:0:0:
368,232,63980,5,12,0:0:0:0:
216,72,64144,1,0,0:0:0:0:
144,280,64308,5,8,0:0:0:0:
320,96,64472,1,0,0:0:0:0:
72,184,64636,5,8,0:0:0:0:
312,272,64800,1,0,0:0:0:0:
216,72,64964,5,8,0:0:0:0:
120,256,65128,1,0,0:0:0:0:
368,104,65292,5,8,0:0:0:0:
456,288,65456,1,0,0:0:0:0:
280,64,65620,5,8,0:0:0:0:
472,224,65784,1,0,0:0:0:0:
472,224,65866,1,0,0:0:0:0:
472,224,65948,5,0,0:0:0:0:
424,96,66111,1,0,0:0:0:0:
280,256,66275,5,8,0:0:0:0:
152,48,66439,1,0,0:0:0:0:
152,48,66521,1,0,0:0:0:0:
152,48,66603,6,0,P|88:56|64:88,1,75,8|0,0:0|0:0,0:0:0:0:
56,144,66931,2,0,P|72:192|96:208,1,75,8|0,0:0|0:0,0:0:0:0:
184,256,67259,5,8,0:0:0:0:
136,136,67423,1,0,0:0:0:0:
344,184,67587,5,8,0:0:0:0:
200,24,67751,1,0,0:0:0:0:
288,248,67915,5,8,0:0:0:0:
56,176,68079,1,0,0:0:0:0:
400,136,68243,6,0,B|352:120|352:120|248:152,2,150,8|8|8,0:0|0:0|0:0,0:0:0:0:
288,256,69226,2,0,P|240:248|200:272,1,75,12|0,0:0|0:0,0:0:0:0:
384,256,69554,5,8,0:0:0:0:
208,128,69718,1,0,0:0:0:0:
168,296,69882,5,8,0:0:0:0:
336,96,70046,1,0,0:0:0:0:
128,176,70210,5,8,0:0:0:0:
376,176,70374,1,0,0:0:0:0:
96,56,70538,5,8,0:0:0:0:
240,256,70702,1,0,0:0:0:0:
296,48,70866,5,8,0:0:0:0:
448,200,71029,1,0,0:0:0:0:
192,144,71193,5,8,0:0:0:0:
440,88,71357,1,0,0:0:0:0:
376,304,71521,5,8,0:0:0:0:
496,64,71685,1,0,0:0:0:0:
496,288,71849,6,0,P|456:264|408:264,1,75,8|0,0:0|0:0,0:0:0:0:
344,272,72177,2,0,P|296:280|248:264,1,75,8|0,0:0|0:0,0:0:0:0:
200,232,72505,6,0,P|168:192|160:144,1,75,8|0,0:0|0:0,0:0:0:0:
160,88,72833,1,8,0:0:0:0:
352,152,72997,1,0,0:0:0:0:
352,152,73079,1,0,0:0:0:0:
352,152,73161,6,0,P|312:176|264:184,1,75,8|0,0:0|0:0,0:0:0:0:
152,184,73489,6,0,B|128:224|128:224|144:336,2,150,8|8|8,0:0|0:0|0:0,0:0:0:0:
336,264,74472,2,0,P|376:224|352:128,1,150,12|8,0:0|0:0,0:0:0:0:
120,144,75128,5,8,0:0:0:0:
288,264,75292,1,0,0:0:0:0:
208,64,75456,5,8,0:0:0:0:
144,264,75620,1,0,0:0:0:0:
288,144,75784,6,0,P|344:152|368:184,1,75,8|0,0:0|0:0,0:0:0:0:
128,144,76111,1,8,0:0:0:0:
384,280,76275,2,0,P|344:240|296:240,1,75,0|8,0:0|0:0,0:0:0:0:
96,248,76603,1,0,0:0:0:0:
264,288,76767,2,0,P|296:320|304:360,1,75,8|0,0:0|0:0,0:0:0:0:
200,136,77095,6,0,B|256:112|256:112|344:144,1,150,8|8,0:0|0:0,0:0:0:0:
96,192,77587,1,0,0:0:0:0:
96,192,77751,5,8,0:0:0:0:
248,256,77915,1,0,0:0:0:0:
192,72,78079,5,8,0:0:0:0:
152,272,78243,1,0,0:0:0:0:
296,112,78407,6,0,P|344:96|384:112,1,75,8|0,0:0|0:0,0:0:0:0:
192,176,78734,1,8,0:0:0:0:
384,192,78898,1,0,0:0:0:0:
384,192,79062,1,0,0:0:0:0:
152,248,79226,1,0,0:0:0:0:
320,272,79390,2,0,P|368:296|392:336,1,75,8|0,0:0|0:0,0:0:0:0:
176,160,79718,6,0,B|192:104|192:104|288:40,1,150,12|8,0:0|0:0,0:0:0:0:
272,232,80210,1,0,0:0:0:0:
272,232,80374,5,8,0:0:0:0:
80,152,80538,1,0,0:0:0:0:
152,304,80702,5,8,0:0:0:0:
272,80,80866,1,0,0:0:0:0:
416,249,81029,6,0,B|368:225|368:225|248:233,1,150,8|8,0:0|0:0,0:0:0:0:
432,176,81521,2,0,B|384:136|336:160|336:160|344:136|384:120,1,150
416,64,82013,2,0,P|368:48|320:64,1,75,8|0,0:0|0:0,0:0:0:0:
192,136,82341,6,0,B|160:184|160:184|168:288,1,150,8|8,0:0|0:0,0:0:0:0:
312,296,82833,1,0,0:0:0:0:
312,296,82915,1,0,0:0:0:0:
312,296,82997,5,8,0:0:0:0:
256,112,83161,1,0,0:0:0:0:
400,208,83325,5,8,0:0:0:0:
360,72,83489,1,0,0:0:0:0:
192,216,83652,5,8,0:0:0:0:
320,168,83816,1,0,0:0:0:0:
127,146,83980,5,8,0:0:0:0:
384,237,84144,1,0,0:0:0:0:
88,216,84308,2,0,P|88:264|144:320,2,112.5,8|8|8,0:0|0:0|0:0,0:0:0:0:
312,200,84964,2,0,B|328:240|328:240|312:296,1,75,8|0,0:0|0:0,0:0:0:0:
136,128,85456,1,0,0:0:0:0:
136,128,85620,2,0,B|88:104|88:104|48:112,1,75,8|0,0:0|0:0,0:0:0:0:
184,232,86111,1,0,0:0:0:0:
184,232,86275,5,8,0:0:0:0:
288,192,86439,1,0,0:0:0:0:
136,96,86603,1,8,0:0:0:0:
72,200,86767,1,0,0:0:0:0:
72,200,86849,1,0,0:0:0:0:
72,200,86931,5,8,0:0:0:0:
240,72,87095,1,8,0:0:0:0:
280,296,87259,5,8,0:0:0:0:
168,144,87423,1,8,0:0:0:0:
