osu file format v14

[General]
AudioFilename: audio.mp3
AudioLeadIn: 0
PreviewTime: 52505
Countdown: 0
SampleSet: Soft
StackLeniency: 0.4
Mode: 0
LetterboxInBreaks: 0
WidescreenStoryboard: 1

[Editor]
DistanceSpacing: 0.7
BeatDivisor: 2
GridSize: 16
TimelineZoom: 2.4

[Metadata]
Title:Guess Who Is Back (TV Size)
TitleUnicode:Guess Who Is Back (TV Size)
Artist:Koda Kumi
ArtistUnicode:Koda Kumi
Creator:ThreeZ3ro2
Version:Easy
Source:Black Clover
Tags:Black Clover Season Four Opening Koda Kumi ThreeZ3ro2 Vaxalk Manquito
BeatmapID:1894631
BeatmapSetID:907901

[Difficulty]
HPDrainRate:3
CircleSize:2
OverallDifficulty:2.5
ApproachRate:4
SliderMultiplier:0.749999999999999
SliderTickRate:1

[Events]
//Background and Video events
0,0,"Guess Who.jpg",0,0
Video,0,"Black Clover Opening Theme 4.mp4"
//Break Periods
2,48442,49546
//Storyboard Layer 0 (Background)
//Storyboard Layer 1 (Fail)
//Storyboard Layer 2 (Pass)
//Storyboard Layer 3 (Foreground)
//Storyboard Sound Samples

[TimingPoints]
1030,327.868852459016,4,2,1,100,1,0
1030,-100,4,2,1,40,0,0
22013,-100,4,1,1,60,0,0
37751,-100,4,2,1,50,0,0
53489,-100,4,1,1,70,0,1
63325,-100,4,2,1,50,0,0
63980,-100,4,1,1,70,0,1
74472,-100,4,1,1,70,0,0
84964,-100,4,1,1,60,0,0
86931,-100,4,1,1,75,0,0

[Colours]
Combo1 : 128,255,0
Combo2 : 255,0,0
Combo3 : 0,255,255
Combo4 : 255,255,0
Combo5 : 255,128,192
Combo6 : 128,255,255

[HitObjects]
448,112,1030,6,0,B|336:32|240:192|160:112,1,300,2|0,0:0|0:0,0:0:0:0:
64,80,2997,1,0,0:0:0:0:
32,176,3652,6,0,P|48:336|176:384,1,300,2|0,0:0|0:0,0:0:0:0:
256,320,5620,1,2,0:0:0:0:
160,272,6275,6,0,B|320:224|208:128|368:64,2,300,2|2|2,0:0|0:0|0:0,0:0:0:0:
80,208,9554,2,0,P|112:128|176:128,1,150,0|2,0:0|0:0,0:0:0:0:
256,192,10866,1,0,0:0:0:0:
256,192,11521,12,0,15456,0:0:0:0:
496,112,16767,6,0,P|416:80|352:112,1,150,2|2,0:0|0:0,0:0:0:0:
272,176,18079,1,2,0:0:0:0:
176,192,18734,1,2,0:0:0:0:
96,128,19390,2,0,P|32:176|0:240,1,150,2|2,0:0|0:0,0:0:0:0:
80,304,20702,2,0,P|144:336|224:320,1,150,2|2,0:0|0:0,0:0:0:0:
192,224,22013,6,0,P|240:192|320:240,2,150,4|8|0,0:0|0:0|0:0,0:0:0:0:
112,288,23980,1,8,0:0:0:0:
32,208,24636,2,0,P|48:160|144:112,1,150,0|8,0:0|0:0,0:0:0:0:
224,144,25948,2,0,P|272:160|304:160,2,74.9999999999999,0|0|8,0:0|0:0|0:0,0:0:0:0:
128,96,27259,6,0,P|64:144|48:224,2,150,0|8|0,0:0|0:0|0:0,0:0:0:0:
240,96,29226,1,8,0:0:0:0:
336,48,29882,2,0,P|368:112|336:336,1,300,0|8,0:0|0:0,0:0:0:0:
256,272,31849,1,8,0:0:0:0:
256,192,32505,12,0,36439,0:0:0:0:
80,144,37751,6,0,P|144:128|224:176,1,150,4|0,0:0|0:0,0:0:0:0:
256,256,39062,1,0,0:0:0:0:
256,256,39718,2,0,P|192:240|160:256,1,74.9999999999999
144,256,40374,6,0,P|64:256|64:80,1,300
160,128,42341,1,0,0:0:0:0:
192,224,42997,6,0,P|224:288|304:320,1,150
400,320,44308,1,0,0:0:0:0:
448,224,44964,1,0,0:0:0:0:
432,128,45620,6,0,P|384:80|272:64,1,150
208,80,46931,1,0,0:0:0:0:
144,160,47587,2,0,P|112:240|48:272,1,150
448,96,50866,6,0,L|352:64,4,74.9999999999999
240,128,53489,6,0,P|192:176|176:288,1,150,4|8,0:0|0:0,0:0:0:0:
272,304,54800,1,0,0:0:0:0:
352,240,55456,1,8,0:0:0:0:
384,144,56111,2,0,P|384:96|320:0,1,150,0|8,0:0|0:0,0:0:0:0:
224,32,57423,2,0,B|160:64|224:128|144:176,1,150,0|8,0:0|0:0,0:0:0:0:
112,256,58734,6,0,P|160:320|240:320,1,150,0|8,0:0|0:0,0:0:0:0:
320,272,60046,1,0,0:0:0:0:
352,176,60702,1,8,0:0:0:0:
304,80,61357,2,0,P|224:48|160:80,1,150,0|8,0:0|0:0,0:0:0:0:
112,160,62669,2,0,L|96:240,2,74.9999999999999,8|0|0,0:0|0:0|0:0,0:0:0:0:
208,112,63980,6,0,P|272:96|352:128,1,150,12|8,0:0|0:0,0:0:0:0:
400,208,65292,2,0,P|320:240|240:224,1,150,8|8,0:0|0:0,0:0:0:0:
160,176,66603,1,8,0:0:0:0:
96,96,67259,2,0,P|160:80|256:128,1,150,8|8,0:0|0:0,0:0:0:0:
304,192,68570,1,8,0:0:0:0:
272,288,69226,6,0,P|208:320|112:304,1,150,12|8,0:0|0:0,0:0:0:0:
80,224,70538,2,0,P|64:160|96:64,1,150,8|8,0:0|0:0,0:0:0:0:
192,48,71849,5,8,0:0:0:0:
272,112,72505,1,8,0:0:0:0:
320,208,73161,2,0,P|336:272|320:368,1,150,8|8,0:0|0:0,0:0:0:0:
240,304,74472,6,0,P|176:272|96:288,1,150,12|8,0:0|0:0,0:0:0:0:
16,224,75784,2,0,L|0:128,2,74.9999999999999,8|0|8,0:0|0:0|0:0,0:0:0:0:
96,288,77095,2,0,P|176:320|256:288,1,150,8|8,0:0|0:0,0:0:0:0:
320,240,78407,2,0,L|368:160,2,74.9999999999999,8|0|8,0:0|0:0|0:0,0:0:0:0:
224,272,79718,5,12,0:0:0:0:
128,224,80374,1,8,0:0:0:0:
64,128,81029,2,0,P|48:80|48:32,2,74.9999999999999,8|0|8,0:0|0:0|0:0,0:0:0:0:
128,208,82341,5,8,0:0:0:0:
224,224,82997,1,8,0:0:0:0:
320,192,83652,1,8,0:0:0:0:
400,128,84308,2,0,P|432:80|448:32,1,74.9999999999999,8|0,0:0|0:0,0:0:0:0:
256,192,84964,12,8,87423,1:0:0:0:
