osu file format v14

[General]
AudioFilename: audio.mp3
AudioLeadIn: 0
PreviewTime: 22141
Countdown: 0
SampleSet: Soft
StackLeniency: 0.6
Mode: 0
LetterboxInBreaks: 0
WidescreenStoryboard: 1

[Editor]
DistanceSpacing: 1
BeatDivisor: 4
GridSize: 32
TimelineZoom: 2.55

[Metadata]
Title:Guess Who Is Back (TV Size)
TitleUnicode:Guess Who Is Back (TV Size)
Artist:Koda Kumi
ArtistUnicode:倖田來未
Creator:Sotarks
Version:Reform's Extreme
Source:ブラッククローバー
Tags:Black Clover KODAKUMINET DNA AND FAN rhythm zone avex opening 4 english japanese pop rock "good faith" "hope" "love" is hidden in the leaf of the each luck" smells forth "the devil" lives fifth jrock j-rock kouda snownino_ smokelind akitoshi corinn -laura- seto_kousuke trynna will_stetson nevo onlybiscuit lami intoon kyuukai yaleufeu reform kujinn fiery fieryrage eiri- ayyri egg_foo_young egg foo young seto kousuke will stetson
BeatmapID:1893432
BeatmapSetID:906786

[Difficulty]
HPDrainRate:5.2
CircleSize:4
OverallDifficulty:9.2
ApproachRate:9.2
SliderMultiplier:1.82
SliderTickRate:1

[Events]
//Background and Video events
Video,0,"video.avi"
0,0,"bg.jpg",0,0
//Break Periods
//Storyboard Layer 0 (Background)
//Storyboard Layer 1 (Fail)
//Storyboard Layer 2 (Pass)
//Storyboard Layer 3 (Foreground)
//Storyboard Sound Samples

[TimingPoints]
1240,327.868852459016,4,2,22,42,1,0
1240,-161.290322580645,4,2,22,42,0,0
11731,-238.095238095238,4,2,22,52,0,0
16977,-161.290322580645,4,2,22,52,0,0
22223,-108.695652173913,4,2,22,72,0,0
32715,-138.888888888889,4,2,22,62,0,0
37961,-138.888888888889,4,2,22,62,0,0
48453,-121.951219512195,4,2,22,52,0,0
51076,-121.951219512195,4,2,22,62,0,0
52715,-121.951219512195,4,2,22,32,0,0
53699,-98.0392156862744,4,2,22,72,0,0
64190,-98.0392156862744,4,2,22,82,0,1
85174,-98.0392156862744,4,2,22,72,0,0

[Colours]
Combo1 : 255,17,17
Combo2 : 255,250,45
Combo3 : 181,248,41
Combo4 : 240,78,0

[HitObjects]
72,148,1240,6,0,P|113:139|143:136,1,56.4199977616578,2|0,0:0|0:0,0:0:0:0:
204,215,1567,1,0,0:0:0:0:
204,215,1731,2,0,P|245:224|275:227,1,56.4199977616578,2|0,0:0|0:0,0:0:0:0:
359,170,2059,1,0,0:0:0:0:
359,170,2223,2,0,P|368:212|333:296,1,112.839995523316,2|0,0:0|0:0,0:0:0:0:
248,353,2715,1,0,0:0:0:0:
248,353,2879,2,0,P|239:312|233:281,1,56.4199977616578,0|0,0:0|0:0,0:0:0:0:
143,223,3207,2,0,P|137:250|131:278,1,56.4199977616578,2|0,0:0|0:0,0:0:0:0:
244,133,3535,2,0,P|249:160|255:188,1,56.4199977616578,2|0,0:0|0:0,0:0:0:0:
159,78,3862,6,0,P|197:44|279:44,1,112.839995523316,2|0,0:0|0:0,0:0:0:0:
345,110,4354,1,2,0:0:0:0:
345,110,4518,2,0,P|390:104|424:101,1,56.4199977616578,0|0,0:0|0:0,0:0:0:0:
255,188,4846,2,0,P|210:182|176:179,1,56.4199977616578,2|2,0:0|0:0,0:0:0:0:
341,260,5174,2,0,P|379:266|468:279,1,112.839995523316,2|0,0:0|0:0,0:0:0:0:
273,331,5666,1,0,0:0:0:0:
273,331,5830,2,0,P|228:341|204:345,1,56.4199977616578,2|0,0:0|0:0,0:0:0:0:
100,243,6158,2,0,P|145:253|169:257,1,56.4199977616578,2|0,0:0|0:0,0:0:0:0:
269,194,6485,6,0,P|281:143|246:70,1,112.839995523316,2|2,0:0|0:0,0:0:0:0:
177,30,6977,2,0,P|135:39|116:43,1,56.4199977616578,2|0,0:0|0:0,0:0:0:0:
3,120,7305,2,0,P|45:129|64:133,1,56.4199977616578,2|0,0:0|0:0,0:0:0:0:
141,208,7633,1,2,0:0:0:0:
247,101,7797,2,0,P|257:163|268:235,1,112.839995523316,2|0,0:0|0:0,0:0:0:0:
343,294,8289,1,0,0:0:0:0:
343,294,8453,2,0,P|380:286|409:279,1,56.4199977616578,0|0,0:0|0:0,0:0:0:0:
497,190,8780,2,0,P|469:183|441:177,1,56.4199977616578,2|0,0:0|0:0,0:0:0:0:
359,56,9108,5,2,0:0:0:0:
359,56,9272,2,0,P|356:99|355:131,1,56.4199977616578,2|0,0:0|0:0,0:0:0:0:
240,195,9600,2,0,P|238:166|236:138,1,56.4199977616578,2|0,0:0|0:0,0:0:0:0:
134,52,9928,2,0,P|131:80|128:111,1,56.4199977616578,2|0,0:0|0:0,0:0:0:0:
51,203,10256,1,2,0:0:0:0:
155,314,10420,2,0,B|393:346|282:167|502:184,1,394.939984331605,2|0,0:0|0:0,0:0:0:0:
449,293,11731,5,0,3:2:0:0:
449,293,12059,1,0,3:2:0:0:
241,206,12387,1,0,3:2:0:0:
241,206,12715,1,0,3:2:0:0:
431,121,13043,1,0,3:2:0:0:
431,121,13371,1,0,3:2:0:0:
275,16,13699,2,0,L|285:95,1,76.4399976672364,0|0,3:2|3:2,0:0:0:0:
116,294,14354,5,0,3:2:0:0:
116,294,14682,1,0,3:2:0:0:
309,206,15010,1,0,3:2:0:0:
309,206,15338,1,0,3:2:0:0:
119,121,15666,1,0,3:2:0:0:
119,121,15994,1,0,3:2:0:0:
275,16,16322,2,0,L|265:95,1,76.4399976672364,0|2,3:2|3:2,0:0:0:0:
88,322,16977,5,2,3:2:0:0:
88,322,17305,1,2,3:2:0:0:
279,195,17633,1,2,3:2:0:0:
279,195,17961,2,0,P|284:238|284:274,1,56.4199977616578,2|0,3:2|0:0,0:0:0:0:
199,328,18289,2,0,P|194:285|194:249,1,56.4199977616578,2|0,3:2|0:0,0:0:0:0:
297,360,18617,1,2,3:2:0:0:
93,271,18944,1,2,3:2:0:0:
383,177,19272,1,0,3:2:0:0:
118,56,19600,5,2,3:2:0:0:
118,56,19928,1,2,3:2:0:0:
226,249,20256,1,2,3:2:0:0:
226,249,20584,1,2,3:2:0:0:
373,51,20912,1,2,3:2:0:0:
373,51,21076,2,0,P|326:42|254:76,1,112.839995523316,2|0,0:0|0:0,0:0:0:0:
265,158,21567,1,2,0:0:0:0:
265,158,21732,2,0,P|316:179|371:171,1,112.839995523316,2|0,0:0|0:0,0:0:0:0:
475,37,22223,6,0,P|459:88|453:132,1,83.7199971895753,6|0,1:2|0:2,0:0:0:0:
402,294,22551,2,0,P|394:252|381:213,1,83.7199971895753,2|0,1:2|0:2,0:0:0:0:
249,104,22879,1,10,0:2:0:0:
126,250,23043,2,0,B|235:266|172:199|314:219,1,167.439994379151,2|0,1:2|1:2,0:0:0:0:
402,294,23535,5,2,1:2:0:0:
337,141,23699,1,0,1:2:0:0:
398,335,23862,1,2,1:2:0:0:
481,154,24026,2,0,P|494:87|502:42,1,83.7199971895753,0|10,1:2|0:2,0:0:0:0:
501,293,24354,1,2,1:2:0:0:
313,129,24518,2,0,P|300:62|292:17,1,83.7199971895753,8|0,0:2|0:2,0:0:0:0:
199,247,24846,6,0,P|149:271|105:271,1,83.7199971895753,2|0,1:2|0:2,0:0:0:0:
350,332,25174,2,0,P|400:356|444:356,1,83.7199971895753,2|0,1:2|0:2,0:0:0:0:
505,250,25502,1,10,0:2:0:0:
287,154,25666,2,0,P|297:236|311:346,1,167.439994379151,2|0,1:2|1:2,0:0:0:0:
387,66,26158,5,2,1:2:0:0:
193,138,26321,1,0,1:2:0:0:
396,197,26485,1,2,1:2:0:0:
262,47,26649,1,0,1:2:0:0:
262,47,26731,1,0,1:2:0:0:
262,47,26813,1,8,0:2:0:0:
294,243,26977,1,8,0:2:0:0:
396,52,27141,1,10,0:2:0:0:
299,270,27305,1,8,0:2:0:0:
159,111,27469,6,0,P|116:93|71:92,1,83.7199971895753,6|0,1:2|0:2,0:0:0:0:
72,276,27797,2,0,P|113:272|151:255,1,83.7199971895753,2|0,1:2|0:2,0:0:0:0:
254,147,28125,1,10,0:2:0:0:
422,323,28289,2,0,P|386:261|278:286,1,167.439994379151,2|0,1:2|1:2,0:0:0:0:
175,363,28780,5,2,1:2:0:0:
126,180,28944,1,8,0:2:0:0:
273,315,29108,1,2,1:2:0:0:
58,256,29272,1,0,1:2:0:0:
58,256,29354,1,0,1:2:0:0:
58,256,29436,1,8,0:2:0:0:
247,166,29600,1,8,0:2:0:0:
175,363,29764,1,10,0:2:0:0:
96,164,29928,1,8,0:2:0:0:
286,314,30092,6,0,P|335:333|375:328,1,83.7199971895753,14|0,0:2|0:0,0:0:0:0:
206,202,30420,1,0,1:2:0:0:
206,202,30584,1,0,1:2:0:0:
362,107,30748,2,0,P|356:155|350:213,1,83.7199971895753,10|0,0:2|1:2,0:0:0:0:
249,48,31076,1,0,0:2:0:0:
249,48,31239,1,0,1:2:0:0:
94,151,31403,6,0,P|100:199|106:257,1,83.7199971895753,10|0,0:2|1:2,0:0:0:0:
254,104,31731,1,0,0:2:0:0:
191,296,31895,1,0,1:2:0:0:
191,296,31977,1,0,1:2:0:0:
191,296,32059,1,10,0:2:0:0:
352,133,32223,1,10,0:2:0:0:
94,151,32387,1,10,0:2:0:0:
281,316,32551,1,10,0:2:0:0:
221,98,32715,6,0,L|214:44,3,32.7600007998047,0|0|0|0,1:2|0:2|0:2|0:2,0:0:0:0:
177,203,33043,2,0,L|172:235,3,32.7600007998047,10|0|0|0,0:2|0:2|0:2|0:2,0:0:0:0:
110,94,33371,1,2,1:2:0:0:
110,94,33453,1,0,0:2:0:0:
110,94,33535,1,0,0:2:0:0:
110,94,33617,1,0,0:2:0:0:
110,94,33699,2,0,L|61:86,3,32.7600007998047,10|0|0|0,0:2|0:2|0:2|0:2,0:0:0:0:
250,176,34026,6,0,L|299:168,3,32.7600007998047,2|0|0|0,1:2|0:2|0:2|0:2,0:0:0:0:
150,258,34354,2,0,L|101:250,3,32.7600007998047,10|0|2|0,0:2|0:2|0:2|0:2,0:0:0:0:
251,371,34682,1,0,1:2:0:0:
251,371,34764,1,0,0:2:0:0:
251,371,34846,1,2,0:2:0:0:
251,371,34928,1,0,0:2:0:0:
251,371,35010,2,0,L|245:307,3,32.7600007998047,10|0|0|0,0:2|0:2|0:2|0:2,0:0:0:0:
348,266,35338,6,0,L|354:202,3,32.7600007998047,0|0|0|0,1:2|0:2|0:2|0:2,0:0:0:0:
233,158,35666,2,0,L|227:94,3,32.7600007998047,10|0|0|0,0:2|0:2|0:2|0:2,0:0:0:0:
338,24,35994,1,2,1:2:0:0:
165,52,36158,1,8,0:2:0:0:
340,34,36321,1,10,0:2:0:0:
167,62,36485,1,8,0:2:0:0:
358,161,36649,1,2,1:2:0:0:
256,192,36731,12,0,37797,0:0:0:0:
53,245,37961,6,0,P|63:295|66:334,1,65.5200015996094,2|0,1:2|0:2,0:0:0:0:
244,256,38289,2,0,P|248:223|255:191,1,65.5200015996094,2|0,1:2|0:2,0:0:0:0:
120,111,38617,1,2,3:2:0:0:
120,111,38780,1,2,0:2:0:0:
150,283,38944,2,0,P|160:333|163:372,1,65.5200015996094,2|0,0:2|0:2,0:0:0:0:
294,165,39272,5,2,0:2:0:0:
368,296,39436,1,0,1:2:0:0:
368,296,39600,2,0,P|413:317|448:317,1,65.5200015996094,2|2,1:2|0:2,0:0:0:0:
230,356,39928,2,0,P|185:377|150:377,1,65.5200015996094,0|0,3:2|0:2,0:0:0:0:
36,299,40256,1,2,0:2:0:0:
36,299,40420,1,2,0:2:0:0:
167,203,40584,6,0,P|160:261|157:296,1,65.5200015996094,2|0,1:2|0:2,0:0:0:0:
357,177,40912,2,0,P|353:144|349:111,1,65.5200015996094,2|2,1:2|0:2,0:0:0:0:
159,16,41239,2,0,P|152:74|149:109,1,65.5200015996094,0|0,3:2|0:2,0:0:0:0:
264,203,41567,1,2,0:2:0:0:
264,203,41731,1,2,0:2:0:0:
413,108,41895,5,2,0:2:0:0:
287,18,42059,1,2,1:2:0:0:
287,18,42223,2,0,P|239:18|202:25,1,65.5200015996094,2|2,1:2|0:2,0:0:0:0:
55,119,42551,2,0,P|103:119|140:126,1,65.5200015996094,0|0,3:2|0:2,0:0:0:0:
226,232,42879,2,0,P|222:279|218:327,1,65.5200015996094,2|0,0:2|0:2,0:0:0:0:
425,183,43207,6,0,P|434:139|430:100,1,65.5200015996094,6|0,1:2|0:2,0:0:0:0:
249,36,43535,2,0,P|249:68|257:100,1,65.5200015996094,2|0,1:2|0:2,0:0:0:0:
334,255,43862,1,2,3:2:0:0:
334,255,44026,1,2,0:2:0:0:
177,175,44190,2,0,P|136:165|99:170,1,65.5200015996094,2|2,0:2|0:2,0:0:0:0:
78,363,44518,5,2,0:2:0:0:
209,303,44682,1,0,1:2:0:0:
209,303,44846,2,0,P|221:260|224:222,1,65.5200015996094,2|2,1:2|0:2,0:0:0:0:
141,66,45174,2,0,P|145:98|155:129,1,65.5200015996094,0|0,3:2|0:2,0:0:0:0:
288,207,45502,1,2,0:2:0:0:
288,207,45666,1,2,0:2:0:0:
138,286,45830,6,0,P|96:277|59:272,1,65.5200015996094,2|0,1:2|0:2,0:0:0:0:
298,344,46158,2,0,P|330:338|362:331,1,65.5200015996094,2|2,1:2|0:2,0:0:0:0:
196,184,46485,2,0,P|163:176|131:170,1,65.5200015996094,0|2,3:2|0:2,0:0:0:0:
338,105,46813,1,2,0:2:0:0:
338,105,46977,1,2,0:2:0:0:
301,298,47141,5,2,0:2:0:0:
196,184,47305,1,2,1:2:0:0:
196,184,47469,2,0,P|188:132|184:103,1,65.5200015996094,2|2,1:2|0:2,0:0:0:0:
130,295,47797,1,0,3:2:0:0:
307,192,47961,1,0,3:2:0:0:
137,305,48125,1,2,3:2:0:0:
314,202,48289,1,0,3:2:0:0:
159,193,48453,6,0,P|118:186|83:164,1,74.6200011386109,4|0,1:2|0:2,0:0:0:0:
224,75,48780,2,0,P|273:51|375:66,1,149.240002277222,2|0,0:2|1:2,0:0:0:0:
470,27,49272,2,0,P|460:101|447:199,1,149.240002277222,2|2,0:2|0:2,0:0:0:0:
363,252,49764,2,0,P|372:308|378:358,1,74.6200011386109,2|0,1:2|0:2,0:0:0:0:
269,202,50092,1,2,0:2:0:0:
269,202,50256,2,0,P|260:258|254:308,1,74.6200011386109,2|0,0:2|1:2,0:0:0:0:
150,353,50584,2,0,P|96:359|30:280,1,149.240002277222,2|2,0:2|0:2,0:0:0:0:
96,134,51076,5,8,1:2:0:0:
119,281,51239,1,8,0:2:0:0:
230,81,51403,5,8,1:2:0:0:
226,242,51567,1,8,0:2:0:0:
340,77,51731,6,0,L|349:24,3,37.3100005693054,8|0|0|0,1:2|0:2|0:2|0:2,0:0:0:0:
404,176,52059,2,0,L|410:212,3,37.3100005693054,8|0|0|0,1:2|0:2|0:2|0:2,0:0:0:0:
478,86,52387,1,4,1:2:0:0:
84,217,52715,6,0,P|37:165|69:65,2,149.240002277222,2|2|2,0:0|0:0|0:0,0:0:0:0:
262,108,53699,6,0,P|272:45|279:-2,1,92.8200005665283,6|0,1:2|0:2,0:0:0:0:
352,211,54026,2,0,P|359:256|366:302,1,92.8200005665283,2|0,1:2|0:2,0:0:0:0:
421,96,54354,1,8,0:2:0:0:
273,223,54518,2,0,P|225:242|158:227,1,92.8200005665283,0|2,1:2|0:2,0:0:0:0:
404,298,54846,1,0,1:2:0:0:
241,126,55010,5,2,1:2:0:0:
294,341,55174,1,0,0:2:0:0:
336,149,55338,2,0,P|351:77|360:42,1,92.8200005665283,2|0,1:2|0:2,0:0:0:0:
159,240,55666,2,0,P|169:285|178:330,1,92.8200005665283,10|0,0:2|0:2,0:0:0:0:
55,130,55994,1,2,0:2:0:0:
245,184,56158,1,0,1:2:0:0:
126,283,56321,6,0,P|77:306|31:301,1,92.8200005665283,0|0,1:2|0:2,0:0:0:0:
253,343,56649,2,0,P|302:366|348:361,1,92.8200005665283,2|0,1:2|0:2,0:0:0:0:
419,266,56977,1,10,0:2:0:0:
198,140,57141,2,0,P|205:222|216:348,1,185.640001133057,0|0,1:2|1:2,0:0:0:0:
376,58,57633,5,0,1:2:0:0:
221,128,57797,1,0,1:2:0:0:
420,190,57961,1,2,1:2:0:0:
266,41,58125,1,0,1:2:0:0:
372,282,58289,1,10,0:2:0:0:
463,47,58453,1,8,0:2:0:0:
347,315,58617,1,10,0:2:0:0:
233,64,58780,1,8,0:2:0:0:
128,260,58944,6,0,P|118:321|110:369,1,92.8200005665283,6|0,1:2|0:2,0:0:0:0:
61,139,59272,2,0,P|53:93|45:47,1,92.8200005665283,2|0,1:2|0:2,0:0:0:0:
10,251,59600,1,8,0:2:0:0:
173,117,59764,2,0,P|230:97|286:110,1,92.8200005665283,0|2,0:2|0:2,0:0:0:0:
45,47,60092,1,0,1:2:0:0:
244,239,60256,5,2,1:2:0:0:
139,22,60420,1,8,0:2:0:0:
145,252,60584,2,0,P|136:323|128:386,1,92.8200005665283,2|0,1:2|1:2,0:0:0:0:
328,153,60912,2,0,P|322:106|316:60,1,92.8200005665283,10|0,0:2|1:2,0:0:0:0:
415,291,61239,1,10,0:2:0:0:
479,123,61403,1,8,0:2:0:0:
267,256,61567,6,0,P|216:271|169:270,1,92.8200005665283,8|0,0:2|0:2,0:0:0:0:
98,55,61895,2,0,P|144:56|188:70,1,92.8200005665283,2|0,1:2|1:2,0:0:0:0:
223,89,62141,1,0,1:2:0:0:
223,89,62223,1,10,0:2:0:0:
71,319,62387,2,0,B|90:201|27:258|53:128,1,185.640001133057,0|8,1:2|0:2,0:0:0:0:
58,101,62797,1,8,0:2:0:0:
58,101,62879,5,8,0:2:0:0:
220,300,63043,1,0,1:2:0:0:
0,187,63207,1,10,0:2:0:0:
240,112,63371,1,0,1:2:0:0:
118,335,63535,6,0,P|109:262|97:161,2,139.230000849792,14|8|8,0:2|0:2|0:2,0:0:0:0:
360,151,64190,5,12,0:2:0:0:
218,357,64354,1,0,1:2:0:0:
196,82,64518,5,8,0:2:0:0:
408,286,64682,1,0,1:2:0:0:
116,251,64846,5,8,0:2:0:0:
322,70,65010,1,0,1:2:0:0:
268,341,65174,5,10,0:2:0:0:
103,110,65338,1,0,1:2:0:0:
85,378,65502,5,10,0:2:0:0:
249,166,65666,1,0,1:2:0:0:
317,383,65830,5,10,0:2:0:0:
101,231,65994,1,0,1:2:0:0:
357,79,66158,6,0,P|352:148|349:192,1,92.8200005665283,10|0,0:2|1:2,0:0:0:0:
201,377,66485,2,0,P|197:330|194:284,1,92.8200005665283,10|0,0:2|1:2,0:0:0:0:
83,103,66813,5,8,0:2:0:0:
330,215,66977,1,0,1:2:0:0:
42,204,67141,5,10,0:2:0:0:
291,85,67305,1,0,1:2:0:0:
168,305,67469,5,10,0:2:0:0:
128,85,67633,1,0,1:2:0:0:
291,337,67797,5,8,0:2:0:0:
330,103,67961,1,0,1:2:0:0:
456,324,68125,5,8,0:2:0:0:
171,187,68289,1,0,1:2:0:0:
504,162,68453,5,10,0:2:0:0:
242,369,68617,1,0,1:2:0:0:
320,79,68780,5,10,0:2:0:0:
414,340,68944,1,8,0:2:0:0:
364,15,69108,1,10,0:2:0:0:
185,293,69272,1,8,0:2:0:0:
97,128,69436,6,0,P|90:63|84:22,1,92.8200005665283,14|0,0:2|1:2,0:0:0:0:
319,221,69764,2,0,P|312:266|308:313,1,92.8200005665283,8|0,0:2|1:2,0:0:0:0:
102,113,70092,5,8,0:2:0:0:
214,345,70256,1,0,1:2:0:0:
232,49,70420,5,10,0:2:0:0:
96,279,70584,1,0,1:2:0:0:
343,168,70748,5,10,0:2:0:0:
101,67,70912,1,0,1:2:0:0:
415,50,71076,5,10,0:2:0:0:
134,198,71239,1,0,1:2:0:0:
432,249,71403,5,10,0:2:0:0:
233,22,71567,1,0,1:2:0:0:
236,318,71731,5,10,0:2:0:0:
402,88,71895,1,0,1:2:0:0:
146,201,72059,6,0,P|137:262|128:315,1,92.8200005665283,8|0,0:2|1:2,0:0:0:0:
416,274,72387,2,0,P|408:228|401:182,1,92.8200005665283,10|0,0:2|1:2,0:0:0:0:
147,109,72715,5,10,0:2:0:0:
293,350,72879,1,0,1:2:0:0:
313,51,73043,5,8,0:2:0:0:
120,293,73207,1,0,1:2:0:0:
120,293,73289,1,0,1:0:0:0:
120,293,73371,5,8,0:2:0:0:
80,47,73535,1,0,1:2:0:0:
227,320,73699,5,10,0:2:0:0:
289,25,73862,1,0,1:2:0:0:
170,383,74026,5,10,0:2:0:0:
111,89,74190,1,0,1:2:0:0:
314,354,74354,5,10,0:2:0:0:
392,60,74518,1,0,1:2:0:0:
185,187,74682,6,0,P|176:249|170:299,1,92.8200005665283,14|0,0:2|1:2,0:0:0:0:
427,369,75010,2,0,P|421:322|414:277,1,92.8200005665283,8|0,0:2|1:2,0:0:0:0:
255,91,75338,1,10,0:2:0:0:
466,185,75502,1,2,1:2:0:0:
223,105,75666,1,10,0:2:0:0:
460,22,75830,1,2,1:2:0:0:
296,214,75994,6,0,P|247:233|183:231,1,92.8200005665283,10|0,0:2|1:2,0:0:0:0:
396,290,76321,1,8,0:2:0:0:
234,148,76485,2,0,P|221:84|213:26,1,92.8200005665283,0|8,1:2|0:2,0:0:0:0:
194,295,76813,1,2,1:2:0:0:
389,121,76977,2,0,P|402:57|410:-1,1,92.8200005665283,10|0,0:2|1:2,0:0:0:0:
449,326,77305,5,8,0:2:0:0:
309,76,77469,1,0,1:2:0:0:
311,364,77633,5,8,0:2:0:0:
432,117,77797,1,0,1:2:0:0:
151,181,77961,5,10,0:2:0:0:
425,297,78125,1,2,1:2:0:0:
77,271,78289,5,10,0:2:0:0:
353,150,78453,1,2,1:2:0:0:
83,90,78617,5,10,0:2:0:0:
207,343,78780,1,0,1:2:0:0:
224,25,78944,5,10,0:2:0:0:
78,292,79108,1,2,1:2:0:0:
126,18,79272,5,8,0:2:0:0:
318,355,79436,1,10,0:2:0:0:
44,91,79600,1,10,0:2:0:0:
451,115,79764,1,8,0:2:0:0:
177,283,79928,6,0,P|127:305|64:300,1,92.8200005665283,14|0,0:2|1:2,0:0:0:0:
281,154,80256,2,0,P|327:157|368:177,1,92.8200005665283,8|0,0:2|1:2,0:0:0:0:
241,347,80584,1,10,0:2:0:0:
205,114,80748,1,2,1:2:0:0:
232,368,80912,1,10,0:2:0:0:
399,169,81076,1,2,1:2:0:0:
107,203,81239,6,0,P|98:256|91:313,1,92.8200005665283,10|0,0:2|1:2,0:0:0:0:
36,99,81567,1,10,0:2:0:0:
285,173,81731,2,0,P|294:226|301:283,1,92.8200005665283,2|8,1:2|0:2,0:0:0:0:
356,69,82059,1,2,1:2:0:0:
95,159,82223,2,0,P|86:212|79:269,1,92.8200005665283,10|0,0:2|1:2,0:0:0:0:
290,338,82551,5,8,0:2:0:0:
191,62,82715,1,0,1:2:0:0:
159,355,82879,1,8,0:2:0:0:
297,111,83043,1,0,1:2:0:0:
297,111,83125,1,0,1:2:0:0:
297,111,83207,1,10,0:2:0:0:
353,383,83371,1,2,1:2:0:0:
137,166,83535,1,10,0:2:0:0:
401,250,83699,1,2,1:2:0:0:
401,250,83780,1,0,1:2:0:0:
401,250,83862,5,10,0:2:0:0:
91,316,84026,1,2,1:2:0:0:
454,167,84190,1,10,0:2:0:0:
87,63,84354,1,0,1:2:0:0:
279,340,84518,6,0,P|326:345|388:281,2,139.230000849792,10|10|10,0:2|0:2|0:2,0:0:0:0:
112,177,85174,6,0,P|121:235|132:301,1,92.8200005665283,6|0,1:2|0:2,0:0:0:0:
252,120,85502,2,0,P|259:74|266:28,1,92.8200005665283,0|0,0:2|1:2,0:0:0:0:
307,232,85830,1,8,0:2:0:0:
156,104,85994,1,2,1:2:0:0:
397,202,86158,1,0,0:2:0:0:
169,286,86321,1,0,1:2:0:0:
386,84,86485,5,10,0:2:0:0:
309,339,86649,1,0,1:2:0:0:
162,45,86813,1,0,0:2:0:0:
96,307,86977,1,0,1:2:0:0:
96,307,87059,1,0,1:2:0:0:
96,307,87141,5,10,0:2:0:0:
433,26,87305,1,10,0:2:0:0:
12,176,87469,1,10,0:2:0:0:
420,383,87633,1,10,0:2:0:0:
