osu file format v14

[General]
AudioFilename: audio.mp3
AudioLeadIn: 0
PreviewTime: 22141
Countdown: 0
SampleSet: Soft
StackLeniency: 0.7
Mode: 0
LetterboxInBreaks: 0
WidescreenStoryboard: 0

[Editor]
Bookmarks: 64414,74906
DistanceSpacing: 0.5
BeatDivisor: 4
GridSize: 8
TimelineZoom: 1.4

[Metadata]
Title:Guess Who Is Back (TV Size)
TitleUnicode:Guess Who Is Back (TV Size)
Artist:Koda Kumi
ArtistUnicode:倖田來未
Creator:Sotarks
Version:Onlybiscuit's Extra
Source:ブラッククローバー
Tags:Black Clover KODAKUMINET DNA AND FAN rhythm zone avex opening 4 english japanese pop rock "good faith" "hope" "love" is hidden in the leaf of the each luck" smells forth "the devil" lives fifth jrock j-rock kouda snownino_ smokelind akitoshi corinn -laura- seto_kousuke trynna will_stetson nevo onlybiscuit lami intoon kyuukai yaleufeu reform kujinn fiery fieryrage eiri- ayyri egg_foo_young egg foo young seto kousuke will stetson
BeatmapID:1893431
BeatmapSetID:906786

[Difficulty]
HPDrainRate:5
CircleSize:3.8
OverallDifficulty:9.2
ApproachRate:9.2
SliderMultiplier:1.84
SliderTickRate:1

[Events]
//Background and Video events
0,0,"bg.jpg",0,0
Video,0,"video.avi"
//Break Periods
//Storyboard Layer 0 (Background)
//Storyboard Layer 1 (Fail)
//Storyboard Layer 2 (Pass)
//Storyboard Layer 3 (Foreground)
//Storyboard Sound Samples

[TimingPoints]
1240,327.868852459016,4,2,22,42,1,0
1240,-125,4,2,22,42,0,0
11731,-125,4,2,22,52,0,0
22223,-111.111111111111,4,2,22,72,0,0
32715,-111.111111111111,4,2,22,62,0,0
37305,-111.111111111111,4,2,22,62,0,0
37961,-142.857142857143,4,2,22,62,0,0
48452,-200,4,2,22,62,0,0
48453,-200,4,2,22,52,0,0
51076,-200,4,2,22,62,0,0
51731,-125,4,2,22,62,0,0
52715,-125,4,2,22,32,0,0
53698,-83.3333333333333,4,2,22,32,0,0
53699,-83.3333333333333,4,2,22,72,0,0
64190,-71.4285714285714,4,2,22,82,0,0
85174,-100,4,2,22,72,0,0

[Colours]
Combo1 : 255,17,17
Combo2 : 255,250,45
Combo3 : 181,248,41
Combo4 : 240,78,0

[HitObjects]
439,79,584,5,0,0:0:0:0:
427,86,911,1,0,0:0:0:0:
412,96,1239,6,0,B|305:90|351:160|230:147,1,184,2|2,0:0|0:0,0:0:0:0:
215,67,1731,2,0,P|220:144|232:259,1,184,2|0,0:0|0:0,0:0:0:0:
260,272,2223,1,2,0:0:0:0:
24,357,3207,6,0,P|14:321|7:284,1,73.6,2|0,0:0|0:0,0:0:0:0:
95,218,3535,2,0,P|105:179|113:137,1,73.6,2|0,0:0|0:0,0:0:0:0:
97,312,3862,2,0,P|163:294|207:187,1,184,2|0,0:0|0:0,0:0:0:0:
239,109,4354,2,0,L|266:309,1,184,2|0,0:0|0:0,0:0:0:0:
249,344,4846,2,0,P|299:309|351:310,1,110.4,2|0,0:0|0:0,0:0:0:0:
384,340,5174,1,2,0:0:0:0:
220,154,5830,5,2,0:0:0:0:
369,40,6158,2,0,P|357:93|354:114,1,73.6,2|0,0:0|0:0,0:0:0:0:
231,31,6485,2,0,B|160:22|188:77|87:59,1,147.2,2|2,0:0|0:0,0:0:0:0:
27,140,6977,2,0,P|18:103|10:67,1,73.6,2|0,0:0|0:0,0:0:0:0:
116,215,7305,2,0,P|125:175|133:136,1,73.6,2|0,0:0|0:0,0:0:0:0:
18,297,7633,1,2,0:0:0:0:
18,297,7797,2,0,P|80:303|167:317,1,147.2,2|0,0:0|0:0,0:0:0:0:
487,318,8780,6,0,P|416:311|348:306,1,110.4,2|0,0:0|0:0,0:0:0:0:
317,255,9108,6,0,P|324:288|333:353,1,98.1333333333333,2|0,0:0|0:0,0:0:0:0:
173,174,9600,2,0,P|161:221|153:301,1,110.4,2|0,0:0|0:0,0:0:0:0:
118,339,9928,2,0,P|112:287|101:237,1,73.6,2|0,0:0|0:0,0:0:0:0:
38,173,10256,1,2,0:0:0:0:
249,68,10420,5,2,0:0:0:0:
256,192,10502,12,0,11567,0:0:0:0:
71,130,11731,6,0,P|29:122|-8:112,1,73.6,0|0,3:2|0:0,0:0:0:0:
147,20,12059,2,0,P|105:28|68:38,1,73.6,0|0,3:2|0:0,0:0:0:0:
180,131,12387,2,0,P|222:139|259:149,1,73.6,0|0,3:2|0:0,0:0:0:0:
104,241,12715,2,0,P|146:233|183:223,1,73.6,0|0,3:2|0:0,0:0:0:0:
41,314,13043,6,0,P|19:279|13:232,1,73.6,0|0,3:2|0:0,0:0:0:0:
114,379,13371,2,0,P|136:344|142:297,1,73.6,0|0,3:2|0:0,0:0:0:0:
296,305,13699,1,0,3:2:0:0:
213,376,13862,1,0,0:0:0:0:
394,360,14026,2,0,P|429:350|465:344,1,73.6,0|0,3:2|0:0,0:0:0:0:
394,186,14354,6,0,P|384:225|382:260,1,73.6,0|0,3:2|0:0,0:0:0:0:
308,377,14682,2,0,P|305:340|295:304,1,73.6,0|0,3:2|0:0,0:0:0:0:
206,195,15010,2,0,P|241:204|277:210,1,73.6,0|0,3:2|0:0,0:0:0:0:
116,138,15338,2,0,P|79:144|44:153,1,73.6,0|0,3:2|0:0,0:0:0:0:
206,89,15666,6,0,L|214:12,1,73.6,0|0,3:2|0:0,0:0:0:0:
325,67,15994,2,0,L|332:140,1,73.6,0|0,3:2|0:0,0:0:0:0:
486,178,16321,1,0,3:2:0:0:
430,54,16485,1,0,0:0:0:0:
351,226,16649,2,0,P|319:187|255:166,1,110.4,2|0,3:2|0:0,0:0:0:0:
178,156,16977,6,0,B|168:240|231:215|226:302,1,147.2,2|2,3:2|3:2,0:0:0:0:
141,350,17469,1,0,0:0:0:0:
19,227,17633,2,0,P|12:261|0:302,1,73.6,2|0,3:2|0:0,0:0:0:0:
115,230,17961,1,2,3:2:0:0:
6,135,18125,1,0,0:0:0:0:
178,62,18289,5,2,3:2:0:0:
102,136,18453,1,0,0:0:0:0:
295,225,18617,2,0,B|373:216|346:269|434:256,1,147.2,2|2,3:2|3:2,0:0:0:0:
511,176,19108,1,0,0:0:0:0:
363,82,19272,1,0,3:2:0:0:
497,0,19436,1,0,0:0:0:0:
254,11,19600,6,0,P|272:66|284:136,1,110.4,2|0,3:2|0:0,0:0:0:0:
311,190,19928,2,0,P|273:149|212:133,1,110.4,2|0,3:2|0:0,0:0:0:0:
153,101,20256,2,0,P|137:157|129:208,1,110.4,2|0,3:2|0:0,0:0:0:0:
104,287,20584,2,0,P|142:246|203:230,1,110.4,2|0,3:2|0:0,0:0:0:0:
226,229,20912,5,2,3:2:0:0:
23,152,21076,1,2,0:0:0:0:
324,368,21567,5,2,0:0:0:0:
324,368,21731,2,0,P|333:302|333:211,1,147.2,2|0,0:0|0:0,0:0:0:0:
319,51,22223,6,0,P|272:51|230:64,1,82.7999974731446,6|0,1:2|0:2,0:0:0:0:
98,114,22551,2,0,P|145:114|187:127,1,82.7999974731446,2|0,1:2|0:2,0:0:0:0:
343,234,22879,1,10,0:2:0:0:
266,144,23043,2,0,P|264:181|256:241,1,82.7999974731446,2|0,1:2|0:0,0:0:0:0:
178,332,23371,1,0,1:2:0:0:
359,363,23535,5,2,1:2:0:0:
243,246,23699,1,0,1:2:0:0:
441,213,23862,1,2,1:2:0:0:
299,307,24026,1,0,1:2:0:0:
498,365,24190,2,0,L|507:278,1,82.7999974731446,10|2,0:2|1:2,0:0:0:0:
309,100,24518,1,8,0:2:0:0:
368,263,24682,1,0,0:2:0:0:
499,66,24846,6,0,P|492:106|489:150,1,82.7999974731446,2|0,1:2|0:2,0:0:0:0:
309,100,25174,2,0,P|306:58|299:17,1,82.7999974731446,2|0,1:2|0:2,0:0:0:0:
197,199,25502,1,10,0:2:0:0:
98,115,25666,2,0,P|54:96|7:99,1,82.7999974731446,2|0,1:2|0:0,0:0:0:0:
196,87,25994,1,0,1:2:0:0:
37,191,26158,5,2,1:2:0:0:
206,229,26321,1,0,1:2:0:0:
19,96,26485,1,2,1:2:0:0:
110,299,26649,1,0,1:2:0:0:
110,299,26731,1,0,1:2:0:0:
110,299,26813,1,8,0:2:0:0:
187,74,26977,1,8,0:2:0:0:
297,321,27141,1,10,0:2:0:0:
98,115,27305,1,8,0:2:0:0:
187,347,27469,6,0,P|200:301|206:255,1,82.7999974731446,6|0,1:2|0:2,0:0:0:0:
315,89,27797,2,0,P|321:129|333:169,1,82.7999974731446,2|0,1:2|0:2,0:0:0:0:
407,375,28125,1,10,0:2:0:0:
286,279,28289,2,0,P|237:269|195:265,1,82.7999974731446,2|0,1:2|0:0,0:0:0:0:
333,169,28617,1,0,1:2:0:0:
291,363,28780,5,2,1:2:0:0:
228,180,28944,1,8,0:2:0:0:
407,359,29108,1,2,1:2:0:0:
457,161,29272,1,0,1:2:0:0:
457,161,29354,1,0,1:2:0:0:
457,161,29436,1,8,0:2:0:0:
287,275,29600,1,8,0:2:0:0:
395,59,29764,1,10,0:2:0:0:
478,234,29928,1,8,0:2:0:0:
286,94,30092,5,14,0:2:0:0:
286,94,30256,2,0,P|242:86|193:83,1,82.7999974731446,0|0,0:0|1:2,0:0:0:0:
118,25,30584,1,0,1:2:0:0:
33,191,30748,1,10,0:2:0:0:
33,191,30912,2,0,P|27:142|20:106,1,82.7999974731446,0|0,1:2|0:2,0:0:0:0:
106,34,31239,1,0,1:2:0:0:
178,197,31403,5,10,0:2:0:0:
178,197,31567,2,0,P|183:148|191:112,1,82.7999974731446,0|0,1:2|0:2,0:0:0:0:
304,246,31895,1,0,1:2:0:0:
304,246,31977,1,0,1:2:0:0:
304,246,32059,1,10,0:2:0:0:
106,330,32223,1,10,0:2:0:0:
391,304,32387,1,10,0:2:0:0:
100,131,32551,1,10,0:2:0:0:
406,173,32715,6,0,P|418:194|427:220,3,41.3999987365723,0|0|0|0,1:2|0:2|0:2|0:2,0:0:0:0:
313,89,33043,2,0,P|304:65|290:42,3,41.3999987365723,10|0|0|0,0:2|0:2|0:2|0:2,0:0:0:0:
321,231,33371,2,0,P|320:256|325:286,1,41.3999987365723,2|0,1:2|0:2,0:0:0:0:
245,138,33535,2,0,P|225:121|205:98,1,41.3999987365723,0|0,0:2|0:2,0:0:0:0:
194,266,33699,2,0,P|193:291|198:321,1,41.3999987365723,10|0,0:2|0:2,0:0:0:0:
123,164,33862,2,0,P|113:145|99:130,1,41.3999987365723,0|0,0:2|0:2,0:0:0:0:
93,350,34026,5,2,1:2:0:0:
73,342,34108,1,0,0:2:0:0:
58,326,34190,1,0,0:2:0:0:
45,309,34272,1,0,0:2:0:0:
39,289,34354,2,0,P|43:260|48:244,3,41.3999987365723,10|0|2|0,0:2|0:2|0:2|0:2,0:0:0:0:
123,164,34682,2,0,L|114:123,1,41.3999987365723,0|0,1:2|0:2,0:0:0:0:
22,78,34846,2,0,L|13:119,1,41.3999987365723,2|0,0:2|0:2,0:0:0:0:
112,38,35010,2,0,P|132:31|153:31,3,41.3999987365723,10|0|0|0,0:2|0:2|0:2|0:2,0:0:0:0:
245,138,35338,6,0,P|257:158|271:189,1,41.3999987365723,0|0,1:2|0:2,0:0:0:0:
341,66,35502,2,0,P|350:47|360:29,1,41.3999987365723,0|0,0:2|0:2,0:0:0:0:
405,150,35666,2,0,P|434:147|455:137,3,41.3999987365723,10|0|0|0,0:2|0:2|0:2|0:2,0:0:0:0:
284,247,35994,1,2,1:2:0:0:
444,364,36158,1,8,0:2:0:0:
326,145,36321,1,10,0:2:0:0:
255,325,36485,1,8,0:2:0:0:
445,142,36649,1,2,1:2:0:0:
256,192,36731,12,0,37797,0:0:0:0:
453,130,37961,6,0,B|379:121|398:170|327:159,1,128.799996069336,2|2,1:2|1:2,0:0:0:0:
254,95,38453,1,0,0:2:0:0:
192,250,38617,2,0,P|217:218|247:199,1,64.399998034668,2|2,3:2|0:2,0:0:0:0:
100,119,38944,2,0,P|125:138|144:164,1,64.399998034668,2|0,0:2|0:2,0:0:0:0:
65,274,39272,6,0,L|58:210,1,64.399998034668,2|0,0:2|1:2,0:0:0:0:
184,313,39600,1,2,1:2:0:0:
236,204,39764,1,2,0:2:0:0:
344,319,39928,2,0,P|320:298|284:282,1,64.399998034668,0|0,3:2|0:2,0:0:0:0:
433,281,40256,1,2,0:2:0:0:
330,214,40420,1,2,0:2:0:0:
448,113,40584,6,0,P|489:101|538:102,1,64.399998034668,2|0,1:2|0:2,0:0:0:0:
346,55,40912,2,0,P|305:43|256:44,1,64.399998034668,2|2,1:2|0:2,0:0:0:0:
331,217,41239,2,0,P|344:187|350:156,1,64.399998034668,0|0,3:2|0:2,0:0:0:0:
192,30,41567,2,0,P|198:61|211:90,1,64.399998034668,2|2,0:2|0:2,0:0:0:0:
150,187,41895,5,2,0:2:0:0:
8,48,42059,1,2,1:2:0:0:
211,90,42223,1,2,1:2:0:0:
80,119,42387,1,2,0:2:0:0:
228,242,42551,2,0,P|230:275|235:318,1,64.399998034668,0|0,3:2|0:2,0:0:0:0:
373,352,42879,2,0,P|376:303|381:255,1,96.599997052002,2|0,0:2|0:0,0:0:0:0:
448,208,43207,6,0,B|378:196|397:240|314:224,1,128.799996069336,6|2,1:2|1:2,0:0:0:0:
248,144,43699,1,0,0:2:0:0:
130,275,43862,2,0,P|95:272|59:265,1,64.399998034668,2|2,3:2|0:2,0:0:0:0:
0,169,44190,1,2,0:2:0:0:
108,104,44354,1,2,0:2:0:0:
0,22,44518,6,0,P|9:56|19:101,1,64.399998034668,2|0,0:2|1:2,0:0:0:0:
147,9,44846,1,2,1:2:0:0:
108,104,45010,1,2,0:2:0:0:
273,24,45174,2,0,P|314:22|340:19,1,64.399998034668,0|0,3:2|0:2,0:0:0:0:
199,94,45502,1,2,0:2:0:0:
303,148,45666,1,2,0:2:0:0:
209,249,45830,6,0,L|193:172,1,64.399998034668,2|0,1:2|0:2,0:0:0:0:
355,233,46158,2,0,L|341:296,1,64.399998034668,2|2,1:2|0:2,0:0:0:0:
303,148,46485,2,0,P|346:136|371:136,1,64.399998034668,0|2,3:2|0:2,0:0:0:0:
467,196,46813,1,2,0:2:0:0:
355,233,46977,1,2,0:2:0:0:
446,292,47141,5,2,0:2:0:0:
365,135,47305,1,2,1:2:0:0:
292,307,47469,1,2,1:2:0:0:
195,185,47633,1,2,0:2:0:0:
105,346,47797,1,0,3:2:0:0:
214,270,47961,1,0,3:2:0:0:
13,173,48125,1,2,3:2:0:0:
198,57,48289,1,0,3:2:0:0:
11,5,48453,6,0,P|21:44|41:105,2,92,4|2|0,1:2|0:2|1:2,0:0:0:0:
117,138,49272,1,2,0:2:0:0:
117,138,49600,1,2,0:2:0:0:
228,46,49764,2,0,B|284:46|263:73|324:73,1,92,2|2,1:2|0:2,0:0:0:0:
412,101,50256,2,0,P|382:112|358:131,1,46,2|0,0:2|1:2,0:0:0:0:
253,172,50584,2,0,P|283:183|307:202,1,46,2|0,0:2|0:0,0:0:0:0:
369,266,50912,1,2,0:2:0:0:
165,213,51076,5,8,1:2:0:0:
370,119,51239,1,8,0:2:0:0:
249,308,51403,1,8,1:2:0:0:
172,113,51567,1,8,0:2:0:0:
71,324,51731,2,0,P|62:344|58:363,1,36.8,8|0,1:2|0:2,0:0:0:0:
152,170,51895,2,0,P|132:154|106:138,1,36.8,0|0,0:2|0:2,0:0:0:0:
224,362,52059,2,0,P|232:330|236:309,1,36.8,8|0,1:2|0:2,0:0:0:0:
318,157,52223,2,0,P|322:174|327:192,1,36.8,0|0,0:2|0:2,0:0:0:0:
491,351,52387,5,4,1:2:0:0:
45,154,53699,6,0,P|29:101|2:52,1,110.399996630859,6|0,1:2|0:2,0:0:0:0:
180,230,54026,1,2,1:2:0:0:
139,63,54190,1,0,0:2:0:0:
292,198,54355,2,0,P|264:246|249:298,1,110.399996630859,8|0,0:2|1:2,0:0:0:0:
362,117,54682,2,0,P|428:124|472:155,1,110.399996630859,2|0,0:2|1:2,0:0:0:0:
250,299,55010,6,0,P|202:326|147:329,1,110.399996630859,2|0,1:2|0:2,0:0:0:0:
236,115,55338,1,2,1:2:0:0:
365,298,55502,1,0,0:2:0:0:
148,155,55666,2,0,P|100:127|45:124,1,110.399996630859,10|0,0:2|0:2,0:0:0:0:
242,271,55994,1,2,0:2:0:0:
230,27,56158,1,0,1:2:0:0:
75,207,56321,6,0,P|48:255|32:308,1,110.399996630859,0|0,1:2|0:2,0:0:0:0:
236,115,56649,2,0,P|263:163|279:216,1,110.399996630859,2|0,1:2|0:2,0:0:0:0:
60,44,56977,1,10,0:2:0:0:
138,301,57141,2,0,B|261:309|230:230|349:226,1,220.799993261719,0|0,1:2|1:2,0:0:0:0:
139,133,57633,6,0,P|84:108|33:101,1,110.399996630859,0|0,1:2|1:2,0:0:0:0:
150,327,57961,1,2,1:2:0:0:
236,115,58125,1,0,1:2:0:0:
365,298,58289,2,0,P|414:321|469:329,1,110.399996630859,10|8,0:2|0:2,0:0:0:0:
237,84,58617,1,10,0:2:0:0:
276,347,58780,1,8,0:2:0:0:
489,126,58944,6,0,P|345:126|306:189,1,220.799993261719,6|2,1:2|1:2,0:0:0:0:
420,222,59436,1,0,0:2:0:0:
237,84,59600,2,0,P|179:61|130:58,1,110.399996630859,8|0,0:2|0:2,0:0:0:0:
11,263,59928,2,0,P|65:258|116:236,1,110.399996630859,2|0,0:2|1:2,0:0:0:0:
308,178,60256,5,2,1:2:0:0:
81,121,60420,1,8,0:2:0:0:
187,332,60584,2,0,P|199:271|217:212,1,110.399996630859,2|0,1:2|1:2,0:0:0:0:
307,45,60912,2,0,P|317:99|332:152,1,110.399996630859,10|0,0:2|1:2,0:0:0:0:
316,341,61239,1,10,0:2:0:0:
197,108,61403,1,8,0:2:0:0:
401,262,61567,6,0,P|482:248|512:221,1,110.399996630859,8|0,0:2|0:2,0:0:0:0:
298,138,61895,2,0,P|251:110|196:107,1,110.399996630859,2|0,1:2|1:2,0:0:0:0:
167,138,62141,1,0,1:2:0:0:
167,138,62223,1,10,0:2:0:0:
407,34,62387,2,0,P|395:86|389:148,1,110.399996630859,0|0,1:2|0:0,0:0:0:0:
252,302,62715,1,8,0:2:0:0:
252,302,62797,1,8,0:2:0:0:
252,302,62879,6,0,P|246:247|234:193,1,110.399996630859,8|0,0:2|1:2,0:0:0:0:
74,38,63207,2,0,P|62:91|56:146,1,110.399996630859,10|0,0:2|1:2,0:0:0:0:
70,175,63453,1,0,0:0:0:0:
70,175,63535,1,14,0:2:0:0:
323,27,63780,5,8,0:2:0:0:
342,343,64026,5,8,0:2:0:0:
185,224,64190,6,0,P|132:187|56:175,1,128.799996069336,12|0,0:2|1:2,0:0:0:0:
367,235,64518,2,0,P|429:222|482:185,1,128.799996069336,8|0,0:2|1:2,0:0:0:0:
179,111,64846,5,8,0:2:0:0:
246,356,65010,1,0,1:2:0:0:
380,142,65174,6,0,P|398:79|410:4,1,128.799996069336,10|0,0:2|1:2,0:0:0:0:
189,261,65502,5,10,0:2:0:0:
128,22,65666,1,0,1:2:0:0:
333,252,65830,5,10,0:2:0:0:
408,16,65994,1,0,1:2:0:0:
126,170,66158,6,0,P|95:236|85:296,1,128.799996069336,10|0,0:2|1:2,0:0:0:0:
373,372,66485,2,0,P|360:308|332:251,1,128.799996069336,10|0,0:2|1:2,0:0:0:0:
103,53,66813,5,8,0:2:0:0:
200,292,66977,1,0,1:2:0:0:
359,52,67141,5,10,0:2:0:0:
284,344,67305,1,0,1:2:0:0:
13,97,67469,5,10,0:2:0:0:
129,350,67633,1,0,1:2:0:0:
300,128,67797,6,0,P|371:90|426:86,1,128.799996069336,8|0,0:2|1:2,0:0:0:0:
118,264,68125,2,0,P|54:254|0:221,1,128.799996069336,8|0,0:2|1:2,0:0:0:0:
388,204,68453,6,0,P|451:213|506:246,1,128.799996069336,10|0,0:2|1:2,0:0:0:0:
94,161,68780,5,10,0:2:0:0:
350,24,68944,1,8,0:2:0:0:
202,292,69108,5,10,0:2:0:0:
46,54,69272,1,8,0:2:0:0:
343,199,69436,6,0,P|372:259|386:326,1,128.799996069336,14|0,0:2|1:2,0:0:0:0:
94,161,69764,2,0,P|65:221|51:288,1,128.799996069336,8|0,0:2|1:2,0:0:0:0:
310,32,70092,5,8,0:2:0:0:
404,256,70256,1,0,1:2:0:0:
154,37,70420,5,10,0:2:0:0:
51,281,70584,1,0,1:2:0:0:
335,113,70748,6,0,P|400:78|460:77,1,128.799996069336,10|0,0:2|1:2,0:0:0:0:
187,287,71076,2,0,P|123:282|68:249,1,128.799996069336,10|0,0:2|1:2,0:0:0:0:
422,177,71403,5,10,0:2:0:0:
94,161,71567,1,0,1:2:0:0:
390,26,71731,5,10,0:2:0:0:
373,332,71895,1,0,1:2:0:0:
172,37,72059,5,8,0:2:0:0:
505,78,72223,1,0,1:2:0:0:
187,287,72387,6,0,P|165:229|154:155,1,128.799996069336,10|0,0:2|1:2,0:0:0:0:
422,177,72715,2,0,P|410:240|388:300,1,128.799996069336,10|0,0:2|1:2,0:0:0:0:
176,47,73043,5,8,0:2:0:0:
442,79,73207,2,0,P|477:91|504:108,1,64.399998034668,0|0,1:2|1:0,0:0:0:0:
187,287,73371,5,8,0:2:0:0:
292,23,73535,1,0,1:2:0:0:
321,325,73699,5,10,0:2:0:0:
147,36,73862,1,0,1:2:0:0:
96,355,74026,5,10,0:2:0:0:
224,74,74190,1,0,1:2:0:0:
435,362,74354,5,10,0:2:0:0:
300,39,74518,1,0,1:2:0:0:
126,269,74682,6,0,P|65:248|17:207,1,128.799996069336,14|0,0:2|1:2,0:0:0:0:
339,126,75010,2,0,P|399:146|448:188,1,128.799996069336,8|0,0:2|1:2,0:0:0:0:
114,158,75338,5,10,0:2:0:0:
338,37,75502,1,2,1:2:0:0:
235,282,75666,1,10,0:2:0:0:
147,36,75830,1,2,1:2:0:0:
352,228,75994,6,0,P|376:289|390:360,1,128.799996069336,10|0,0:2|1:2,0:0:0:0:
224,74,76321,1,8,0:2:0:0:
141,240,76485,2,0,P|117:301|103:372,1,128.799996069336,0|8,1:2|0:2,0:0:0:0:
39,118,76813,1,2,1:2:0:0:
248,246,76977,2,0,P|272:307|286:378,1,128.799996069336,10|0,0:2|1:2,0:0:0:0:
61,136,77305,6,0,P|123:87|183:76,1,128.799996069336,8|0,0:2|1:2,0:0:0:0:
357,305,77633,2,0,P|295:287|247:245,1,128.799996069336,8|0,0:2|1:2,0:0:0:0:
421,46,77961,5,10,0:2:0:0:
496,265,78125,1,2,1:2:0:0:
249,109,78289,1,10,0:2:0:0:
512,107,78453,1,2,1:2:0:0:
239,249,78617,6,0,P|166:242|108:211,1,128.799996069336,10|0,0:2|1:2,0:0:0:0:
395,160,78944,1,10,0:2:0:0:
170,76,79108,2,0,P|106:80|47:107,1,128.799996069336,2|8,1:2|0:2,0:0:0:0:
204,334,79436,1,10,0:2:0:0:
290,78,79600,1,10,0:2:0:0:
30,212,79764,1,8,0:2:0:0:
321,298,79928,6,0,P|379:324|443:329,1,128.799996069336,14|0,0:2|1:2,0:0:0:0:
152,180,80256,2,0,P|88:184|29:211,1,128.799996069336,8|0,0:2|1:2,0:0:0:0:
395,240,80584,5,10,0:2:0:0:
170,76,80748,1,2,1:2:0:0:
204,334,80912,1,10,0:2:0:0:
294,81,81076,1,2,1:2:0:0:
83,302,81239,6,0,P|66:237|42:170,1,128.799996069336,10|0,0:2|1:2,0:0:0:0:
206,369,81567,1,10,0:2:0:0:
319,178,81731,2,0,P|336:113|360:46,1,128.799996069336,2|8,1:2|0:2,0:0:0:0:
189,329,82059,1,2,1:2:0:0:
126,149,82223,2,0,P|109:84|85:17,1,128.799996069336,10|0,0:2|1:2,0:0:0:0:
315,281,82551,6,0,P|395:316|444:312,1,128.799996069336,8|0,0:2|1:2,0:0:0:0:
151,166,82879,2,0,P|87:168|31:199,1,128.799996069336,8|0,0:2|1:2,0:0:0:0:
395,212,83207,5,10,0:2:0:0:
142,70,83371,1,2,1:2:0:0:
229,337,83535,1,10,0:2:0:0:
293,96,83699,2,0,L|309:33,1,64.399998034668,2|0,1:2|1:2,0:0:0:0:
31,198,83862,5,10,0:2:0:0:
353,298,84026,1,2,1:2:0:0:
215,19,84190,1,10,0:2:0:0:
93,314,84354,1,2,1:2:0:0:
408,146,84518,5,10,0:2:0:0:
48,62,84764,5,10,0:2:0:0:
178,372,85010,5,10,0:2:0:0:
291,214,85174,6,0,P|314:138|314:110,2,92,6|0|0,1:2|0:2|0:2,0:0:0:0:
238,302,85666,1,0,1:2:0:0:
71,149,85830,2,0,P|53:106|47:61,2,92,8|2|0,0:2|1:2|0:2,0:0:0:0:
137,243,86321,1,0,1:2:0:0:
238,72,86485,6,0,P|297:44|331:45,2,92,10|0|0,0:2|1:2|0:2,0:0:0:0:
178,154,86977,2,0,L|202:197,1,46,0|0,1:2|1:2,0:0:0:0:
29,42,87141,1,10,0:2:0:0:
281,107,87305,1,10,0:2:0:0:
26,273,87469,1,10,0:2:0:0:
164,12,87633,1,10,0:2:0:0:
