osu file format v14

[General]
AudioFilename: audio.mp3
AudioLeadIn: 0
PreviewTime: 22141
Countdown: 0
SampleSet: Soft
StackLeniency: 0.4
Mode: 0
LetterboxInBreaks: 0
WidescreenStoryboard: 1

[Editor]
Bookmarks: 87633
DistanceSpacing: 0.3
BeatDivisor: 4
GridSize: 4
TimelineZoom: 2.55

[Metadata]
Title:Guess Who Is Back (TV Size)
TitleUnicode:Guess Who Is Back (TV Size)
Artist:Koda Kumi
ArtistUnicode:倖田來未
Creator:Sotarks
Version:Kyuukai's Extra
Source:ブラッククローバー
Tags:Black Clover KODAKUMINET DNA AND FAN rhythm zone avex opening 4 english japanese pop rock "good faith" "hope" "love" is hidden in the leaf of the each luck" smells forth "the devil" lives fifth jrock j-rock kouda snownino_ smokelind akitoshi corinn -laura- seto_kousuke trynna will_stetson nevo onlybiscuit lami intoon kyuukai yaleufeu reform kujinn fiery fieryrage eiri- ayyri egg_foo_young egg foo young seto kousuke will stetson
BeatmapID:1899511
BeatmapSetID:906786

[Difficulty]
HPDrainRate:5.4
CircleSize:3.8
OverallDifficulty:9.2
ApproachRate:9.2
SliderMultiplier:1.8
SliderTickRate:1

[Events]
//Background and Video events
Video,0,"video.avi"
0,0,"bg.jpg",0,0
//Break Periods
//Storyboard Layer 0 (Background)
//Storyboard Layer 1 (Fail)
//Storyboard Layer 2 (Pass)
//Storyboard Layer 3 (Foreground)
//Storyboard Sound Samples

[TimingPoints]
1240,327.868852459016,4,2,22,42,1,0
1240,-166.666666666667,4,2,22,42,0,0
11731,-166.666666666667,4,2,22,52,0,0
22223,-111.111111111111,4,2,22,72,0,0
32715,-142.857142857143,4,2,22,62,0,0
37961,-142.857142857143,4,2,22,62,0,0
48453,-125,4,2,22,52,0,0
51076,-125,4,2,22,62,0,0
52715,-125,4,2,22,32,0,0
53699,-100,4,2,22,72,0,0
64190,-83.3333333333333,4,2,22,82,0,1
85174,-133.333333333333,4,2,22,72,0,0

[Colours]
Combo1 : 255,17,17
Combo2 : 255,250,45
Combo3 : 181,248,41
Combo4 : 240,78,0

[HitObjects]
23,307,1240,6,0,L|184:288,1,161.999995056153,2|2,0:0|0:0,0:0:0:0:
256,220,1895,2,0,L|320:228,1,53.9999983520508,0|0,0:0|0:0,0:0:0:0:
376,300,2223,2,0,P|408:248|368:148,1,161.999995056153,2|0,0:0|0:0,0:0:0:0:
284,132,2879,2,0,L|277:78,1,53.9999983520508,0|0,0:0|0:0,0:0:0:0:
184,40,3207,2,0,L|171:147,1,107.999996704102,2|2,0:0|0:0,0:0:0:0:
171,147,3699,1,0,0:0:0:0:
80,188,3862,6,0,L|104:372,1,161.999995056153,2|2,0:0|0:0,0:0:0:0:
199,371,4518,2,0,L|252:364,1,53.9999983520508,0|0,0:0|0:0,0:0:0:0:
320,292,4846,2,0,L|373:298,1,53.9999983520508,2|2,0:0|0:0,0:0:0:0:
452,360,5174,2,0,B|476:316|476:316|460:200,1,161.999995056153,2|0,0:0|0:0,0:0:0:0:
373,298,5830,2,0,L|356:168,1,107.999996704102,2|2,0:0|0:0,0:0:0:0:
358,190,6321,1,0,0:0:0:0:
420,112,6485,6,0,P|376:92|272:136,1,161.999995056153,2|2,0:0|0:0,0:0:0:0:
184,92,7141,2,0,P|176:136|180:164,1,53.9999983520508,0|2,0:0|0:0,0:0:0:0:
80,160,7469,2,0,P|95:202|112:224,1,53.9999983520508,0|2,0:0|0:0,0:0:0:0:
192,243,7797,2,0,P|268:219|344:244,1,161.999995056153,2|0,0:0|0:0,0:0:0:0:
424,304,8453,2,0,L|492:296,1,53.9999983520508,0|0,0:0|0:0,0:0:0:0:
436,204,8780,2,0,L|504:196,1,53.9999983520508,2|0,0:0|0:0,0:0:0:0:
356,144,9108,6,0,L|195:123,1,161.999995056153,2|2,0:0|0:0,0:0:0:0:
104,80,9764,2,0,P|97:106|95:133,1,53.9999983520508,0|2,0:0|0:0,0:0:0:0:
156,212,10092,2,0,P|162:238|164:265,1,53.9999983520508,0|2,0:0|0:0,0:0:0:0:
100,344,10420,6,0,B|156:372|156:372|316:324,1,215.999993408203,2|0,0:0|0:0,0:0:0:0:
376,260,11239,1,0,0:0:0:0:
375,259,11403,2,0,P|393:280|402:305,1,53.9999983520508,0|0,0:0|0:0,0:0:0:0:
500,368,11731,6,0,L|512:248,1,107.999996704102,0|0,3:2|3:2,0:0:0:0:
444,184,12387,5,0,3:2:0:0:
344,168,12715,5,0,3:2:0:0:
249,204,13043,5,0,3:2:0:0:
149,220,13371,5,0,3:2:0:0:
54,184,13699,5,0,3:2:0:0:
16,92,14026,5,0,3:2:0:0:
56,0,14354,5,0,3:2:0:0:
152,28,14682,5,0,3:2:0:0:
112,120,15010,5,0,3:2:0:0:
152,212,15338,5,0,3:2:0:0:
112,304,15666,5,0,3:2:0:0:
172,384,15994,5,0,3:2:0:0:
268,356,16321,5,0,3:2:0:0:
364,384,16649,5,2,3:2:0:0:
364,384,16977,6,0,L|372:264,1,107.999996704102,2|2,3:2|3:2,0:0:0:0:
452,216,17633,2,0,L|444:96,1,107.999996704102,2|2,3:2|3:2,0:0:0:0:
380,32,18289,2,0,P|332:48|260:40,1,107.999996704102,2|2,3:2|3:2,0:0:0:0:
188,96,18944,2,0,P|140:80|68:88,1,107.999996704102,2|0,3:2|3:2,0:0:0:0:
12,152,19600,6,0,L|19:259,1,107.999996704102,2|2,3:2|3:2,0:0:0:0:
24,360,20256,2,0,P|80:332|140:336,1,107.999996704102,2|2,3:2|3:2,0:0:0:0:
204,272,20912,2,0,B|312:224|312:328|416:288,1,215.999993408203,2|2,3:2|0:0,0:0:0:0:
409,290,21895,1,0,0:0:0:0:
379,115,22223,6,0,L|372:196,1,80.9999975280763,6|0,1:2|0:2,0:0:0:0:
240,31,22551,2,0,L|248:112,1,80.9999975280763,2|0,1:2|0:2,0:0:0:0:
264,312,22879,1,10,0:2:0:0:
332,236,23043,2,0,P|232:216|168:276,1,161.999995056153,2|0,1:2|1:2,0:0:0:0:
0,312,23535,1,2,1:2:0:0:
168,344,23699,1,0,1:2:0:0:
112,180,23862,1,2,1:2:0:0:
92,280,24026,1,0,1:2:0:0:
208,148,24190,2,0,L|188:52,1,80.9999975280763,10|2,0:2|1:2,0:0:0:0:
20,32,24518,2,0,L|36:111,1,80.9999975280763,8|0,0:2|0:2,0:0:0:0:
76,320,24846,6,0,P|112:304|155:303,1,80.9999975280763,2|0,1:2|0:2,0:0:0:0:
372,264,25174,2,0,P|331:262|294:246,1,80.9999975280763,2|0,1:2|0:2,0:0:0:0:
128,144,25502,1,10,0:2:0:0:
200,216,25666,2,0,P|228:156|176:56,1,161.999995056153,2|0,1:2|1:2,0:0:0:0:
28,0,26158,1,2,1:2:0:0:
128,144,26321,1,0,1:2:0:0:
16,100,26485,1,2,1:2:0:0:
196,70,26649,1,0,1:2:0:0:
196,70,26731,1,0,1:2:0:0:
196,70,26813,5,8,0:2:0:0:
64,220,26977,1,8,0:2:0:0:
260,294,27141,1,10,0:2:0:0:
128,144,27305,1,8,0:2:0:0:
250,374,27469,6,0,L|260:294,1,80.9999975280763,6|0,1:2|0:2,0:0:0:0:
128,144,27797,2,0,L|137:224,1,80.9999975280763,2|0,1:2|0:2,0:0:0:0:
196,52,28125,1,10,0:2:0:0:
277,132,28289,2,0,L|257:316,1,161.999995056153,2|0,1:2|1:2,0:0:0:0:
168,364,28780,1,2,1:2:0:0:
372,316,28944,1,8,0:2:0:0:
137,224,29108,1,2,1:2:0:0:
259,293,29272,1,0,1:2:0:0:
259,293,29354,1,0,1:2:0:0:
259,293,29436,5,8,0:2:0:0:
36,324,29600,1,8,0:2:0:0:
124,136,29764,1,10,0:2:0:0:
155,359,29928,1,8,0:2:0:0:
256,160,30092,6,0,L|234:0,1,161.999995056153,14|0,0:2|1:2,0:0:0:0:
124,136,30584,1,0,1:2:0:0:
256,160,30748,2,0,L|335:175,1,80.9999975280763,10|0,0:2|1:2,0:0:0:0:
92,255,31076,2,0,L|172:240,1,80.9999975280763,0|0,0:2|1:2,0:0:0:0:
236,60,31403,6,0,L|394:91,1,161.999995056153,10|0,0:2|0:2,0:0:0:0:
496,36,31895,1,0,1:2:0:0:
496,36,31977,1,0,1:2:0:0:
496,36,32059,1,10,0:2:0:0:
296,176,32223,1,10,0:2:0:0:
496,312,32387,1,10,0:2:0:0:
394,91,32551,1,10,0:2:0:0:
378,308,32715,6,0,L|376:340,7,31.4999990386963,0|0|0|0|10|0|0|0,1:2|0:2|0:2|0:2|0:2|0:2|0:2|0:2,0:0:0:0:
316,228,33371,6,0,L|318:196,7,31.4999990386963,2|0|0|0|10|0|0|0,1:2|0:2|0:2|0:2|0:2|0:2|0:2|0:2,0:0:0:0:
244,300,34026,6,0,L|241:331,7,31.4999990386963,2|0|0|0|10|0|2|0,1:2|0:2|0:2|0:2|0:2|0:2|0:2|0:2,0:0:0:0:
181,219,34682,6,0,L|183:187,7,31.4999990386963,0|0|2|0|10|0|0|0,1:2|0:2|0:2|0:2|0:2|0:2|0:2|0:2,0:0:0:0:
108,292,35338,5,0,1:2:0:0:
107,298,35419,1,0,0:2:0:0:
107,304,35501,1,0,0:2:0:0:
106,310,35583,1,0,0:2:0:0:
106,317,35666,5,10,0:2:0:0:
181,219,35830,1,0,0:2:0:0:
181,219,35994,1,2,1:2:0:0:
220,356,36158,1,8,0:2:0:0:
0,320,36322,1,10,0:2:0:0:
216,188,36485,1,8,0:2:0:0:
108,292,36649,1,2,1:2:0:0:
256,192,36731,12,0,37797,0:0:0:0:
185,38,37961,6,0,L|174:163,1,125.999996154785,2|2,1:2|1:2,0:0:0:0:
256,248,38453,1,0,0:2:0:0:
120,268,38617,1,2,3:2:0:0:
173,185,38780,1,2,0:2:0:0:
200,328,38944,1,2,0:2:0:0:
200,328,39108,2,0,P|284:344|352:264,1,188.999994232178,0|2,0:2|1:2,0:0:0:0:
256,248,39764,2,0,P|284:200|352:176,1,125.999996154785,2|0,0:2|0:2,0:0:0:0:
476,192,40256,1,2,0:2:0:0:
404,260,40420,1,2,0:2:0:0:
476,176,40584,6,0,L|480:96,1,62.9999980773926,2|0,1:2|0:2,0:0:0:0:
340,50,40912,1,2,1:2:0:0:
340,50,41076,2,0,L|346:175,1,125.999996154785,2|0,0:2|0:2,0:0:0:0:
350,274,41567,5,2,0:2:0:0:
264,224,41731,1,2,0:2:0:0:
292,336,41895,1,2,0:2:0:0:
258,242,42059,1,2,1:2:0:0:
216,356,42223,1,2,1:2:0:0:
250,262,42387,2,0,L|408:280,1,125.999996154785,2|0,0:2|0:2,0:0:0:0:
400,372,42879,2,0,L|325:364,1,62.9999980773926,2|0,0:2|0:2,0:0:0:0:
464,304,43207,6,0,P|472:228|464:156,1,125.999996154785,6|2,1:2|1:2,0:0:0:0:
448,84,43699,1,0,0:2:0:0:
360,40,43862,1,2,3:2:0:0:
261,45,44026,1,2,0:2:0:0:
177,98,44190,1,2,0:2:0:0:
80,76,44354,1,2,0:2:0:0:
80,76,44518,2,0,L|88:216,1,125.999996154785,2|2,0:2|1:2,0:0:0:0:
32,284,45010,2,0,P|80:300|152:276,1,125.999996154785,2|0,0:2|0:2,0:0:0:0:
176,160,45502,1,2,0:2:0:0:
87,201,45666,1,2,0:2:0:0:
196,160,45830,6,0,L|348:168,1,125.999996154785,2|2,1:2|1:2,0:0:0:0:
284,272,46321,2,0,L|409:265,1,125.999996154785,2|2,0:2|0:2,0:0:0:0:
508,260,46813,5,2,0:2:0:0:
452,176,46977,1,2,0:2:0:0:
456,296,47141,1,2,0:2:0:0:
433,187,47305,1,2,1:2:0:0:
392,312,47469,1,2,1:2:0:0:
412,200,47633,2,0,L|400:56,1,125.999996154785,2|0,0:2|3:2,0:0:0:0:
304,60,48125,2,0,L|308:122,1,62.9999980773926,2|0,3:2|3:2,0:0:0:0:
312,252,48453,5,4,1:2:0:0:
304,272,49108,5,0,1:2:0:0:
296,292,49764,5,2,1:2:0:0:
288,312,50420,5,0,1:2:0:0:
280,332,51076,5,8,1:2:0:0:
344,140,51239,1,8,0:2:0:0:
272,352,51403,1,8,1:2:0:0:
224,168,51566,1,8,0:2:0:0:
313,236,51731,5,8,1:2:0:0:
338,249,51812,1,0,0:2:0:0:
366,254,51894,1,0,0:2:0:0:
394,249,51976,1,0,0:2:0:0:
419,235,52058,1,8,1:2:0:0:
438,213,52140,1,0,0:2:0:0:
449,186,52222,1,0,0:2:0:0:
450,158,52304,1,0,0:2:0:0:
442,130,52386,1,4,1:2:0:0:
442,130,52715,6,0,L|447:49,1,72,2|0,0:0|0:0,0:0:0:0:
336,136,53043,2,0,L|331:54,1,72,2|0,0:0|0:0,0:0:0:0:
452,116,53371,2,0,L|456:34,1,72,2|0,0:0|0:0,0:0:0:0:
316,120,53699,6,0,L|312:30,1,90,6|0,1:2|0:2,0:0:0:0:
72,0,54026,2,0,L|68:90,1,90,2|0,1:2|0:2,0:0:0:0:
200,280,54354,1,8,0:2:0:0:
260,200,54518,2,0,P|148:196|100:280,1,180,0|0,1:2|1:2,0:0:0:0:
256,360,55010,5,2,1:2:0:0:
280,188,55174,1,0,0:2:0:0:
432,240,55338,1,2,1:2:0:0:
200,280,55502,1,0,0:2:0:0:
315,95,55666,2,0,P|352:121|374:160,1,90,10|0,0:2|0:2,0:0:0:0:
200,280,55994,1,2,0:2:0:0:
104,188,56158,1,0,1:2:0:0:
104,188,56321,6,0,B|192:168|192:168|280:188,1,180,0|2,1:2|1:2,0:0:0:0:
504,232,56813,1,0,0:2:0:0:
356,104,56977,1,10,0:2:0:0:
380,300,57141,2,0,L|395:211,1,90,0|0,1:2|0:0,0:0:0:0:
472,124,57469,1,0,1:2:0:0:
279,187,57633,5,0,1:2:0:0:
504,232,57797,1,0,1:2:0:0:
356,104,57961,1,2,1:2:0:0:
395,211,58125,1,0,1:2:0:0:
432,16,58289,5,10,0:2:0:0:
168,164,58453,1,8,0:2:0:0:
356,104,58617,1,10,0:2:0:0:
80,16,58780,1,8,0:2:0:0:
156,253,58944,6,0,L|167:163,1,90,6|0,1:2|0:2,0:0:0:0:
389,255,59272,2,0,L|300:244,1,90,2|0,1:2|0:2,0:0:0:0:
104,88,59600,1,8,0:2:0:0:
167,163,59764,2,0,L|364:135,1,180,0|0,0:2|1:2,0:0:0:0:
460,28,60256,5,2,1:2:0:0:
389,255,60420,1,8,0:2:0:0:
512,112,60584,1,2,1:2:0:0:
248,152,60748,1,0,1:2:0:0:
464,316,60912,2,0,P|484:276|480:212,1,90,10|0,0:2|1:2,0:0:0:0:
416,128,61239,1,10,0:2:0:0:
389,255,61403,1,8,0:2:0:0:
248,152,61567,5,8,0:2:0:0:
247,151,61731,2,0,P|162:127|76:151,1,180,0|0,0:2|1:2,0:0:0:0:
76,151,62141,1,0,1:2:0:0:
76,151,62223,1,10,0:2:0:0:
4,282,62387,2,0,P|39:256|83:252,1,90,0|0,1:2|0:0,0:0:0:0:
256,296,62715,1,8,0:2:0:0:
256,296,62797,1,8,0:2:0:0:
256,296,62879,5,8,0:2:0:0:
76,151,63043,1,0,1:2:0:0:
144,364,63207,1,10,0:2:0:0:
280,132,63371,1,0,1:2:0:0:
256,296,63535,6,0,P|320:292|380:348,2,135,14|8|8,0:2|0:2|0:2,0:0:0:0:
144,364,64190,5,12,0:2:0:0:
76,151,64354,1,0,1:2:0:0:
28,304,64518,1,8,0:2:0:0:
172,88,64682,1,0,1:2:0:0:
256,296,64846,5,8,0:2:0:0:
76,151,65010,1,0,1:2:0:0:
340,88,65174,1,10,0:2:0:0:
128,252,65338,1,0,1:2:0:0:
256,8,65502,5,10,0:2:0:0:
256,308,65666,1,0,1:2:0:0:
172,88,65830,1,10,0:2:0:0:
384,252,65994,1,0,1:2:0:0:
76,151,66158,5,10,0:2:0:0:
340,88,66321,1,0,1:2:0:0:
128,252,66485,1,10,0:2:0:0:
256,8,66649,1,0,1:2:0:0:
384,252,66813,5,8,0:2:0:0:
172,88,66977,1,0,1:2:0:0:
444,36,67141,1,10,0:2:0:0:
260,208,67305,1,0,1:2:0:0:
352,20,67469,5,10,0:2:0:0:
428,266,67633,1,0,1:2:0:0:
172,88,67797,1,8,0:2:0:0:
436,151,67961,1,0,1:2:0:0:
124,252,68125,5,8,0:2:0:0:
304,117,68289,1,0,1:2:0:0:
40,59,68453,1,10,0:2:0:0:
260,208,68617,1,0,1:2:0:0:
152,0,68780,5,10,0:2:0:0:
120,300,68944,1,8,0:2:0:0:
304,117,69108,1,10,0:2:0:0:
0,204,69272,1,8,0:2:0:0:
152,0,69436,6,0,L|164:116,1,107.999996704102,14|0,0:2|1:2,0:0:0:0:
304,117,69764,2,0,L|292:224,1,107.999996704102,8|0,0:2|1:2,0:0:0:0:
60,36,70092,6,0,L|72:152,1,107.999996704102,8|0,0:2|1:2,0:0:0:0:
399,88,70420,2,0,L|388:196,1,107.999996704102,10|0,0:2|1:2,0:0:0:0:
180,384,70748,5,10,0:2:0:0:
304,116,70912,1,0,1:2:0:0:
332,312,71076,1,10,0:2:0:0:
220,36,71240,1,0,1:2:0:0:
388,196,71403,5,10,0:2:0:0:
71,143,71567,1,0,1:2:0:0:
328,4,71731,1,10,0:2:0:0:
264,300,71895,1,0,1:2:0:0:
108,36,72059,5,8,0:2:0:0:
388,196,72223,1,0,1:2:0:0:
71,143,72387,1,10,0:2:0:0:
436,36,72551,1,0,1:2:0:0:
264,300,72715,5,10,0:2:0:0:
220,36,72879,1,0,1:2:0:0:
372,240,73043,1,8,0:2:0:0:
454,20,73207,1,0,1:2:0:0:
454,20,73289,1,0,1:0:0:0:
454,20,73371,5,8,0:2:0:0:
112,148,73535,1,0,1:2:0:0:
368,304,73699,1,10,0:2:0:0:
220,4,73862,1,0,1:2:0:0:
116,280,74026,5,10,0:2:0:0:
428,112,74190,1,0,1:2:0:0:
76,40,74354,1,10,0:2:0:0:
401,196,74518,1,0,1:2:0:0:
256,16,74682,6,0,L|246:123,1,107.999996704102,14|0,0:2|1:2,0:0:0:0:
116,280,75010,2,0,L|106:172,1,107.999996704102,8|0,0:2|1:2,0:0:0:0:
276,28,75338,6,0,L|266:135,1,107.999996704102,10|2,0:2|1:2,0:0:0:0:
136,292,75666,2,0,L|126:184,1,107.999996704102,10|2,0:2|1:2,0:0:0:0:
276,28,75994,5,10,0:2:0:0:
256,280,76158,1,0,1:2:0:0:
116,40,76321,1,10,0:2:0:0:
136,292,76485,1,0,1:2:0:0:
278,11,76649,5,10,0:2:0:0:
256,288,76813,1,2,1:2:0:0:
102,24,76976,1,10,0:2:0:0:
124,302,77140,1,0,1:2:0:0:
278,11,77305,6,0,P|212:12|160:40,1,107.999996704102,8|0,0:2|1:2,0:0:0:0:
40,208,77633,2,0,P|93:206|143:225,1,107.999996704102,8|0,0:2|1:2,0:0:0:0:
264,32,77961,6,0,P|198:33|146:61,1,107.999996704102,10|2,0:2|1:2,0:0:0:0:
26,229,78289,2,0,P|79:227|129:246,1,107.999996704102,10|2,0:2|1:2,0:0:0:0:
320,384,78617,5,10,0:2:0:0:
60,340,78780,1,0,1:2:0:0:
140,120,78944,1,10,0:2:0:0:
188,384,79107,1,2,1:2:0:0:
300,48,79272,5,8,0:2:0:0:
252,312,79435,1,10,0:2:0:0:
52,76,79600,1,10,0:2:0:0:
452,104,79764,1,8,0:2:0:0:
252,312,79928,6,0,L|236:188,1,107.999996704102,14|0,0:2|1:2,0:0:0:0:
451,103,80256,2,0,L|465:211,1,107.999996704102,8|0,0:2|1:2,0:0:0:0:
228,292,80584,6,0,L|233:167,1,107.999996704102,10|2,0:2|1:2,0:0:0:0:
460,122,80912,2,0,L|455:229,1,107.999996704102,10|2,0:2|1:2,0:0:0:0:
240,60,81239,5,10,0:2:0:0:
364,340,81403,1,0,1:2:0:0:
352,12,81567,1,10,0:2:0:0:
228,292,81731,1,2,1:2:0:0:
460,122,81895,5,8,0:2:0:0:
100,72,82059,1,2,1:2:0:0:
416,232,82223,1,10,0:2:0:0:
56,282,82387,1,0,1:2:0:0:
240,60,82551,6,0,B|256:116|256:116|244:200,1,107.999996704102,8|0,0:2|1:2,0:0:0:0:
56,282,82879,2,0,B|48:232|48:232|64:176,1,107.999996704102,8|0,0:2|1:2,0:0:0:0:
296,264,83207,6,0,B|246:271|246:271|190:255,1,107.999996704102,10|2,0:2|1:2,0:0:0:0:
4,88,83535,2,0,B|60:72|60:72|109:79,1,107.999996704102,10|2,0:2|1:2,0:0:0:0:
109,79,83780,1,0,1:2:0:0:
109,79,83862,5,10,0:2:0:0:
56,282,84026,1,2,1:2:0:0:
248,165,84190,1,10,0:2:0:0:
4,88,84354,1,0,1:2:0:0:
190,255,84518,6,0,B|246:271|246:271|368:236,2,161.999995056153,10|10|10,0:2|0:2|0:2,0:0:0:0:
248,165,85174,6,0,L|464:108,1,202.500007724762,6|0,1:2|1:2,0:0:0:0:
512,196,85830,1,8,0:2:0:0:
512,196,85994,2,0,P|480:232|480:320,1,135.000005149842,2|0,1:2|1:2,0:0:0:0:
352,380,86485,1,10,0:2:0:0:
352,380,86649,2,0,P|356:314|317:260,1,135.000005149842,0|0,1:2|1:2,0:0:0:0:
317,260,87059,1,0,1:2:0:0:
317,260,87141,5,10,0:2:0:0:
60,312,87305,1,10,0:2:0:0:
196,88,87469,1,10,0:2:0:0:
248,344,87633,1,10,0:2:0:0:
