osu file format v14

[General]
AudioFilename: audio.mp3
AudioLeadIn: 0
PreviewTime: 22141
Countdown: 0
SampleSet: Soft
StackLeniency: 0.4
Mode: 0
LetterboxInBreaks: 0
WidescreenStoryboard: 1

[Editor]
DistanceSpacing: 1
BeatDivisor: 4
GridSize: 32
TimelineZoom: 1.35

[Metadata]
Title:Guess Who Is Back (TV Size)
TitleUnicode:Guess Who Is Back (TV Size)
Artist:Koda Kumi
ArtistUnicode:倖田來未
Creator:Sotarks
Version:Akitoshi's Normal
Source:ブラッククローバー
Tags:Black Clover KODAKUMINET DNA AND FAN rhythm zone avex opening 4 english japanese pop rock "good faith" "hope" "love" is hidden in the leaf of the each luck" smells forth "the devil" lives fifth jrock j-rock kouda snownino_ smokelind akitoshi corinn -laura- seto_kousuke trynna will_stetson nevo onlybiscuit lami intoon kyuukai yaleufeu reform kujinn fiery fieryrage eiri- ayyri egg_foo_young egg foo young seto kousuke will stetson
BeatmapID:1895399
BeatmapSetID:906786

[Difficulty]
HPDrainRate:4
CircleSize:3.2
OverallDifficulty:4
ApproachRate:5
SliderMultiplier:1
SliderTickRate:1

[Events]
//Background and Video events
Video,0,"video.avi"
0,0,"bg.jpg",0,0
//Break Periods
2,11931,15777
//Storyboard Layer 0 (Background)
//Storyboard Layer 1 (Fail)
//Storyboard Layer 2 (Pass)
//Storyboard Layer 3 (Foreground)
//Storyboard Sound Samples

[TimingPoints]
1240,327.868852459016,4,2,22,42,1,0
1240,-125,4,2,22,42,0,0
16977,-125,4,2,22,52,0,0
22223,-100,4,2,22,72,0,0
32715,-100,4,2,22,62,0,0
37961,-100,4,2,22,62,0,0
48453,-100,4,2,22,52,0,0
51076,-100,4,2,22,62,0,0
52715,-100,4,2,22,32,0,0
53699,-100,4,2,22,72,0,0
64190,-95.2380952380952,4,2,22,82,0,1
85174,-100,4,2,22,72,0,0

[Colours]
Combo1 : 255,17,17
Combo2 : 255,250,45
Combo3 : 181,248,41
Combo4 : 240,78,0

[HitObjects]
175,84,1240,6,0,B|312:51|285:143|415:105,2,240,2|2|2,0:0|0:0|0:0,0:0:0:0:
100,130,3535,1,2,0:0:0:0:
144,205,3862,6,0,P|130:268|123:326,2,120,2|2|2,0:0|0:0|0:0,0:0:0:0:
228,180,5174,2,0,B|275:212|275:212|381:191,1,160,2|2,0:0|0:0,0:0:0:0:
462,171,6158,1,2,0:0:0:0:
448,84,6485,6,0,P|402:49|331:50,1,120,2|2,0:0|0:0,0:0:0:0:
264,88,7305,2,0,P|221:86|168:84,1,80,2|2,0:0|0:0,0:0:0:0:
139,82,7797,2,0,B|165:136|165:136|110:176|108:250|146:297,1,240,2|2,0:0|0:0,0:0:0:0:
223,336,9108,6,0,P|258:306|278:228,1,120,2|2,0:0|0:0,0:0:0:0:
264,149,9928,2,0,P|319:138|357:132,1,80,2|2,0:0|0:0,0:0:0:0:
386,125,10420,2,0,P|497:171|374:224,1,320,2|0,0:0|3:2,0:0:0:0:
239,128,16977,6,0,L|153:140,2,80,2|2|2,3:2|3:2|3:2,0:0:0:0:
326,117,17961,1,2,3:2:0:0:
393,173,18289,2,0,P|408:217|406:258,1,80,2|2,3:2|3:2,0:0:0:0:
388,336,18944,2,0,P|344:351|303:349,1,80,2|0,3:2|3:2,0:0:0:0:
229,317,19600,6,0,P|236:255|239:222,2,80,2|2|2,3:2|3:2|3:2,0:0:0:0:
152,361,20584,1,2,3:2:0:0:
79,310,20912,2,0,B|66:253|66:253|87:214|87:214|74:151,1,160,2|2,3:2|0:0,0:0:0:0:
55,72,21895,1,0,0:0:0:0:
143,25,22223,6,0,P|186:33|254:18,1,100,6|2,1:2|1:2,0:0:0:0:
325,87,22879,1,10,0:2:0:0:
325,87,23043,2,0,P|318:144|311:195,1,100,2|0,1:2|1:2,0:0:0:0:
305,236,23535,1,2,1:2:0:0:
293,335,23862,2,0,P|345:348|396:337,1,100,2|10,1:2|0:2,0:0:0:0:
435,319,24354,2,0,P|441:269|447:219,1,100,2|0,1:2|0:2,0:0:0:0:
457,170,24846,5,2,1:2:0:0:
409,81,25174,1,2,1:2:0:0:
316,57,25502,1,10,0:2:0:0:
316,57,25666,2,0,L|215:67,1,100,2|0,1:2|1:2,0:0:0:0:
166,69,26158,2,0,L|157:15,2,50,2|0|2,1:2|1:2|1:2,0:0:0:0:
197,164,26813,2,0,L|192:216,1,50,8|8,0:2|0:2,0:0:0:0:
164,255,27141,2,0,L|169:307,1,50,10|8,0:2|0:2,0:0:0:0:
179,353,27469,6,0,P|228:364|282:349,1,100,6|2,1:2|1:2,0:0:0:0:
368,312,28125,1,10,0:2:0:0:
368,312,28289,2,0,P|375:238|379:195,1,100,2|0,1:2|1:2,0:0:0:0:
380,162,28780,1,2,1:2:0:0:
313,87,29108,2,0,P|271:95|209:81,1,100,2|8,1:2|0:2,0:0:0:0:
171,59,29600,2,0,P|129:51|67:65,1,100,8|8,0:2|0:2,0:0:0:0:
34,93,30092,6,0,B|13:137|13:137|26:203,1,100,14|0,0:2|1:2,0:0:0:0:
47,284,30748,2,0,B|91:305|91:305|157:292,1,100,10|0,0:2|0:2,0:0:0:0:
238,270,31403,2,0,B|259:226|259:226|246:160,1,100,10|0,0:2|0:2,0:0:0:0:
285,82,32059,2,0,L|347:77,1,50,10|10,0:2|0:2,0:0:0:0:
380,57,32387,2,0,L|442:62,1,50,10|10,0:2|0:2,0:0:0:0:
472,87,32715,6,0,P|486:136|475:183,1,100,0|10,1:2|0:2,0:0:0:0:
404,253,33371,1,2,1:2:0:0:
303,253,33699,1,10,0:2:0:0:
232,182,34026,2,0,P|183:168|136:179,1,100,2|10,1:2|0:2,0:0:0:0:
54,236,34682,1,0,1:2:0:0:
74,333,35010,1,10,0:2:0:0:
167,367,35338,6,0,L|276:360,1,100,0|10,1:2|0:2,0:0:0:0:
366,349,35994,1,2,1:2:0:0:
427,270,36321,1,10,0:2:0:0:
396,174,36649,2,0,B|342:161|300:194|300:194|259:183|259:183|237:199|206:201,1,200,2|0,1:2|0:0,0:0:0:0:
9,160,37961,5,2,1:2:0:0:
9,59,38289,1,2,1:2:0:0:
100,18,38617,2,0,L|205:24,1,100,2|2,3:2|0:2,0:0:0:0:
242,50,39108,2,0,L|347:44,1,100,0|0,0:2|1:2,0:0:0:0:
391,40,39600,1,2,1:2:0:0:
462,110,39928,2,0,P|477:157|469:215,1,100,0|2,3:2|0:2,0:0:0:0:
425,297,40584,5,2,1:2:0:0:
325,306,40912,1,2,1:2:0:0:
243,248,41239,2,0,P|238:200|233:147,1,100,0|2,3:2|0:2,0:0:0:0:
188,58,41895,2,0,P|143:64|133:65,1,50,2|2,0:2|1:2,0:0:0:0:
88,72,42223,1,2,1:2:0:0:
24,149,42551,2,0,P|14:198|29:255,1,100,0|2,3:2|0:2,0:0:0:0:
80,329,43207,5,6,1:2:0:0:
176,354,43535,1,2,1:2:0:0:
272,327,43862,2,0,P|268:273|264:206,1,100,2|2,3:2|0:2,0:0:0:0:
204,147,44518,2,0,L|208:84,1,50,2|0,0:2|1:2,0:0:0:0:
211,46,44846,1,2,1:2:0:0:
308,21,45174,2,0,P|360:20|410:44,1,100,0|2,3:2|0:2,0:0:0:0:
474,109,45830,5,2,1:2:0:0:
474,209,46158,1,2,1:2:0:0:
403,279,46485,2,0,P|359:268|297:260,1,100,0|2,3:2|0:2,0:0:0:0:
210,227,47141,2,0,P|179:231|157:235,1,50,2|2,0:2|1:2,0:0:0:0:
112,250,47469,1,2,1:2:0:0:
22,205,47797,2,0,L|17:150,1,50,0|0,3:2|3:2,0:0:0:0:
1,107,48125,2,0,L|6:52,1,50,2|0,3:2|3:2,0:0:0:0:
31,13,48453,6,0,P|75:49|210:29,1,200,4|0,1:2|1:2,0:0:0:0:
321,195,49764,2,0,P|277:159|142:179,1,200,2|0,1:2|1:2,0:0:0:0:
232,357,51076,6,0,L|346:344,1,100,8|8,1:2|1:2,0:0:0:0:
429,325,51731,2,0,L|436:264,1,50,8|0,1:2|0:2,0:0:0:0:
460,232,52059,2,0,L|453:171,1,50,8|0,1:2|0:2,0:0:0:0:
449,132,52387,1,4,1:2:0:0:
449,132,53699,6,0,P|401:151|334:142,1,100,6|2,1:2|1:2,0:0:0:0:
261,123,54354,1,8,0:2:0:0:
261,123,54518,2,0,P|253:199|250:231,1,100,0|0,1:2|1:2,0:0:0:0:
246,272,55010,1,2,1:2:0:0:
159,321,55338,1,2,1:2:0:0:
64,289,55666,1,10,0:2:0:0:
24,197,55994,2,0,L|21:138,1,50,2|0,0:2|1:2,0:0:0:0:
22,97,56321,6,0,P|74:104|128:79,1,100,0|2,1:2|1:2,0:0:0:0:
205,40,56977,1,10,0:2:0:0:
205,40,57141,2,0,P|286:26|361:60,1,150,0|0,1:2|1:2,0:0:0:0:
429,107,57961,1,2,1:2:0:0:
461,201,58289,1,10,0:2:0:0:
411,286,58617,1,10,0:2:0:0:
311,296,58944,6,0,P|288:238|288:199,1,100,6|2,1:2|1:2,0:0:0:0:
217,137,59600,1,8,0:2:0:0:
217,137,59764,2,0,P|159:160|120:160,1,100,0|0,0:2|1:2,0:0:0:0:
72,153,60256,1,2,1:2:0:0:
21,239,60584,1,2,1:2:0:0:
66,327,60912,1,10,0:2:0:0:
157,365,61239,2,0,L|215:360,1,50,10|8,0:2|0:2,0:0:0:0:
256,351,61567,6,0,P|262:296|250:249,1,100,8|2,0:2|1:2,0:0:0:0:
182,188,62223,1,10,0:2:0:0:
182,188,62387,2,0,P|190:103|192:81,1,100,0|8,1:2|0:2,0:0:0:0:
200,38,62879,1,8,0:2:0:0:
296,12,63207,1,10,0:2:0:0:
382,62,63535,2,0,L|474:52,2,75,14|8|8,0:2|0:2|0:2,0:0:0:0:
338,91,64190,6,0,P|332:143|344:197,1,104.999996795654,12|8,0:2|0:2,0:0:0:0:
385,290,64846,1,8,0:2:0:0:
299,351,65174,1,10,0:2:0:0:
197,324,65502,2,0,P|141:334|89:321,1,104.999996795654,10|10,0:2|0:2,0:0:0:0:
54,300,65994,1,0,1:2:0:0:
54,300,66158,2,0,L|57:240,1,52.4999983978272,10|0,0:2|1:2,0:0:0:0:
74,198,66485,6,0,P|70:143|67:83,1,104.999996795654,10|8,0:2|0:2,0:0:0:0:
156,37,67141,1,10,0:2:0:0:
245,91,67469,2,0,P|260:147|248:206,2,104.999996795654,10|8|8,0:2|0:2|0:2,0:0:0:0:
156,37,68453,1,10,0:2:0:0:
67,93,68780,2,0,L|63:153,1,52.4999983978272,10|8,0:2|0:2,0:0:0:0:
39,192,69108,2,0,L|43:252,1,52.4999983978272,10|8,0:2|0:2,0:0:0:0:
48,296,69436,6,0,P|98:310|159:299,1,104.999996795654,14|8,0:2|0:2,0:0:0:0:
241,252,70092,1,8,0:2:0:0:
298,164,70420,1,10,0:2:0:0:
283,60,70748,2,0,P|333:45|394:56,1,104.999996795654,10|10,0:2|0:2,0:0:0:0:
432,86,71239,1,0,1:2:0:0:
432,86,71403,2,0,L|430:148,1,52.4999983978272,10|0,0:2|1:2,0:0:0:0:
398,180,71731,6,0,P|408:246|414:294,1,104.999996795654,10|8,0:2|0:2,0:0:0:0:
337,357,72387,1,10,0:2:0:0:
238,320,72715,2,0,P|185:335|127:322,2,104.999996795654,10|8|8,0:2|0:2|0:2,0:0:0:0:
307,241,73699,1,10,0:2:0:0:
248,154,74026,2,0,L|191:148,1,52.4999983978272,10|0,0:2|1:2,0:0:0:0:
146,129,74354,2,0,L|89:135,1,52.4999983978272,10|0,0:2|1:2,0:0:0:0:
41,141,74682,6,0,P|24:196|36:255,1,104.999996795654,14|8,0:2|0:2,0:0:0:0:
85,332,75338,1,10,0:2:0:0:
186,360,75666,1,10,0:2:0:0:
284,322,75994,2,0,L|274:209,1,104.999996795654,10|8,0:2|0:2,0:0:0:0:
250,177,76485,1,0,1:2:0:0:
250,177,76649,2,0,L|255:113,1,52.4999983978272,8|2,0:2|1:2,0:0:0:0:
266,73,76977,1,10,0:2:0:0:
357,20,77305,6,0,P|411:24|459:58,1,104.999996795654,8|8,0:2|0:2,0:0:0:0:
492,148,77961,1,10,0:2:0:0:
431,233,78289,1,10,0:2:0:0:
327,253,78617,2,0,L|219:245,1,104.999996795654,10|10,0:2|0:2,0:0:0:0:
181,223,79108,1,2,1:2:0:0:
181,223,79272,2,0,L|120:228,1,52.4999983978272,8|10,0:2|0:2,0:0:0:0:
76,235,79600,1,10,0:2:0:0:
29,329,79928,6,0,P|78:354|143:348,1,104.999996795654,14|8,0:2|0:2,0:0:0:0:
229,331,80584,1,10,0:2:0:0:
316,273,80912,1,10,0:2:0:0:
322,168,81239,2,0,P|378:172|437:177,1,104.999996795654,10|10,0:2|0:2,0:0:0:0:
479,181,81731,2,0,B|499:232|499:232|479:298,1,104.999996795654,2|2,1:2|1:2,0:0:0:0:
464,328,82223,1,10,0:2:0:0:
360,346,82551,6,0,P|298:327|243:336,1,104.999996795654,8|8,0:2|0:2,0:0:0:0:
159,365,83207,1,10,0:2:0:0:
61,325,83535,2,0,L|57:262,1,52.4999983978272,10|2,0:2|1:2,0:0:0:0:
19,236,83862,2,0,P|8:186|28:133,1,104.999996795654,10|10,0:2|0:2,0:0:0:0:
79,45,84518,2,0,P|46:28|-11:21,2,78.7499975967408,10|10|10,0:2|0:2|0:2,0:0:0:0:
121,71,85174,6,0,P|175:63|239:57,1,100,6|0,1:2|0:2,0:0:0:0:
294,133,85830,1,8,0:2:0:0:
294,133,85994,2,0,P|280:184|288:241,1,100,2|0,1:2|1:2,0:0:0:0:
300,283,86485,1,10,0:2:0:0:
300,283,86649,2,0,P|249:269|192:277,1,100,0|0,1:2|1:2,0:0:0:0:
155,292,87141,2,0,L|99:289,1,50,10|10,0:2|0:2,0:0:0:0:
60,266,87469,2,0,L|4:269,1,50,10|10,0:2|0:2,0:0:0:0:
